<?xml version="1.0" standalone="no"?> <!DOCTYPE svg PUBLIC "-//W3C//DTD SVG 1.0//EN" "http://www.w3.org/TR/2001/REC-SVG-20010904/DTD/svg10.dtd" > <svg xmlns="http://www.w3.org/2000/svg" width="100%" height="100%">
<defs >
<font horiz-adv-x="608" ><font-face
    font-family="STIXSansSerifBoldItalic"
    units-per-em="1000"
    panose-1="0 0 0 0 0 0 0 0 0 0"
    ascent="693"
    descent="-218"
    alphabetic="0" />
<missing-glyph horiz-adv-x="500" />
<glyph unicode=" " glyph-name="space" horiz-adv-x="500" />
<glyph unicode="A" glyph-name="A" horiz-adv-x="648" d="M436 468L302 264H468L436 468ZM510 0L484 162H236L130 0H0L478 690H506L640 0H510Z" />
<glyph unicode="B" glyph-name="B" horiz-adv-x="625" d="M262 102Q307 102 339 112T393 141T423 182T433 232Q433 254 421 269T388 293T341 307T286 311H211L159 102H262ZM308 413Q356 413 388 423T439 448T467 484T476 525Q476 550 456 562T390 574H277L236
413H308ZM411 676Q513 676 565 645T617 551Q617 500 584 451T481 373L482 369Q534 341 554 309T574 241Q574 191 550 147T484 71T386 19T266 0H6L174 676H411Z" />
<glyph unicode="C" glyph-name="C" horiz-adv-x="690" d="M648 448H637Q618 522 571 555T454 589Q400 589 346 567T248 502T177 398T149 259Q149 223 158 191T187 135T238 97T313 83Q345 83 374 89T433 109T492 143T555 193L607 125Q533 55 455 18T286 -19Q217
-19 165 -1T78 51T25 132T7 235Q7 328 43 410T142 555T287 654T462 691Q497 691 530 688T591 674T644 645T685 597L648 448Z" />
<glyph unicode="D" glyph-name="D" horiz-adv-x="706" d="M229 102Q288 102 339 114T430 155T500 227T546 336Q557 383 557 417Q557 500 503 537T358 574H280L162 102H229ZM354 676Q448 676 513 660T620 614T680 541T699 444Q699 404 689 356T655 258T596 162T508
79T389 22T236 0H7L175 676H354Z" />
<glyph unicode="E" glyph-name="E" horiz-adv-x="659" d="M629 574H279L237 407H478L452 304H211L161 102H548L496 0H6L174 676H654L629 574Z" />
<glyph unicode="F" glyph-name="F" horiz-adv-x="651" d="M639 574H279L236 405H449L424 303H211L136 0H6L174 676H651L639 574Z" />
<glyph unicode="G" glyph-name="G" horiz-adv-x="693" d="M648 448H637Q617 523 570 556T449 589Q397 589 344 567T247 502T177 399T150 261Q150 225 159 193T188 136T241 98T318 83Q362 83 400 93T484 126L516 255H404V357H660L590 78Q565 61 537 44T472 13T392
-10T289 -19Q218 -19 166 -1T78 51T25 130T7 233Q7 294 23 351T69 460T140 553T232 626T341 674T463 691Q535 691 591 673T685 597L648 448Z" />
<glyph unicode="H" glyph-name="H" horiz-adv-x="737" d="M562 0H432L506 297H211L137 0H7L175 676H305L236 399H531L600 676H730L562 0Z" />
<glyph unicode="I" glyph-name="I" horiz-adv-x="461" d="M442 574H352L234 102H324L290 0H3L14 102H104L222 574H132L171 676H458L442 574Z" />
<glyph unicode="J" glyph-name="J" horiz-adv-x="561" d="M423 131Q410 80 386 38T328 -34T250 -80T155 -96Q107 -96 70 -74T0 2L73 100H91Q100 79 109 62T129 33T155 13T190 6Q215 6 232 16T260 42T278 78T290 118L429 676H559L423 131Z" />
<glyph unicode="K" glyph-name="K" horiz-adv-x="748" d="M740 662L352 384L634 0H464L244 306L204 277L135 0H7L175 676H303L237 413L598 676H743L740 662Z" />
<glyph unicode="L" glyph-name="L" horiz-adv-x="536" d="M492 0H4L172 676H302L159 102H536L492 0Z" />
<glyph unicode="M" glyph-name="M" horiz-adv-x="939" d="M762 0H634L750 467L399 0H372L253 467L137 0H9L177 676H338L442 236H445L769 676H930L762 0Z" />
<glyph unicode="N" glyph-name="N" horiz-adv-x="746" d="M566 -18L466 2L260 502L135 0H7L175 676H332L505 252L611 676H739L566 -18Z" />
<glyph unicode="O" glyph-name="O" horiz-adv-x="749" d="M603 425Q603 501 562 545T438 590Q379 590 326 564T233 493T170 384T147 247Q147 171 188 128T312 84Q364 84 409 102T489 153T551 233T591 337Q603 385 603 425ZM742 434Q742 411 739 387T729 337Q709
258 667 193T565 81T435 8T287 -18Q223 -18 172 0T84 52T28 133T8 239Q8 336 47 419T150 563T295 658T463 692Q527 692 578 674T666 622T722 540T742 434Z" />
<glyph unicode="P" glyph-name="P" horiz-adv-x="621" d="M301 380Q390 380 438 411T486 504Q486 538 453 556T344 574H279L230 380H301ZM383 676Q504 676 562 639T621 532Q621 476 597 430T530 350T430 297T308 278H205L136 0H6L174 676H383Z" />
<glyph unicode="Q" glyph-name="Q" horiz-adv-x="745" d="M599 425Q599 501 558 545T434 589Q375 589 323 563T230 492T167 383T143 247Q143 171 184 127T309 83Q361 83 405 101T485 152T547 232T587 336Q599 384 599 425ZM609 -176Q543 -176 481 -174T366 -156T272
-107T206 -13Q112 8 58 72T4 236Q4 335 43 418T147 562T293 657T460 691Q524 691 575 673T663 622T718 541T738 434Q738 347 707 272T624 139T505 42T365 -12Q378 -34 398 -46T441 -64T489 -72T541 -74L613 -160L609 -176Z" />
<glyph unicode="R" glyph-name="R" horiz-adv-x="634" d="M304 393Q488 393 488 512Q488 544 455 559T344 574H279L233 393H304ZM390 676Q508 676 566 640T624 536Q624 494 608 456T562 386T492 333T403 300L583 0H424L249 291H208L136 0H6L174 676H390Z" />
<glyph unicode="S" glyph-name="S" horiz-adv-x="580" d="M537 466H523Q518 496 503 519T466 557T418 581T367 589Q347 589 325 584T284 566T253 535T240 490Q240 473 248 460T271 436T303 416T339 399Q427 361 464 325T502 238Q502 214 494 186T471 130T436 77T390
33Q352 5 305 -7T199 -19Q130 -19 81 4T4 62L28 224H42Q51 186 72 159T120 115T175 91T226 83Q271 83 299 97T342 130T363 168T368 198Q368 226 346 243T273 281Q187 318 148 357T109 451Q109 503 132 547T193 623T280 673T383 691Q455 691 505 670T575 620L537
466Z" />
<glyph unicode="T" glyph-name="T" horiz-adv-x="635" d="M620 574H380L237 0H107L250 574H7L46 676H635L620 574Z" />
<glyph unicode="U" glyph-name="U" horiz-adv-x="683" d="M572 246Q540 115 456 48T232 -19Q118 -19 64 24T10 152Q10 195 23 246L130 676H258L154 257Q146 227 143 208T139 175Q139 130 169 107T257 83Q308 83 343 101T407 153Q421 170 430 197T450 269L551 676H679L572
246Z" />
<glyph unicode="V" glyph-name="V" horiz-adv-x="648" d="M169 -18H141L8 676H138L212 211L518 676H648L169 -18Z" />
<glyph unicode="W" glyph-name="W" horiz-adv-x="951" d="M523 -15L495 -14L413 394H410L124 -15H96L13 676H143L181 237L485 676L564 237L819 676H950L523 -15Z" />
<glyph unicode="X" glyph-name="X" horiz-adv-x="822" d="M492 343L664 0H510L390 239L158 0H4L338 343L173 676H327L440 448L663 676H817L492 343Z" />
<glyph unicode="Y" glyph-name="Y" horiz-adv-x="662" d="M302 282L232 0H102L172 282L8 676H153L264 393L517 676H662L302 282Z" />
<glyph unicode="Z" glyph-name="Z" horiz-adv-x="752" d="M743 660L230 102H626L586 0H3L6 16L518 574H184L222 676H747L743 660Z" />
<glyph unicode="a" glyph-name="a" horiz-adv-x="473" d="M309 213Q285 213 255 210T199 196T154 167T135 117Q135 95 151 88T182 81Q211 81 240 100T293 152L309 213ZM73 352Q111 416 174 444T311 473Q343 473 371 467T419 447T452 414T464 369Q464 354 460 339L394
76Q389 58 388 39T385 0H260L264 44Q223 9 185 -2T99 -14Q60 -14 33 10T5 81Q5 123 24 163T71 229Q114 268 179 285T332 308L336 324Q338 334 338 339Q338 357 323 367T276 378Q232 378 203 362T150 308H138L73 352Z" />
<glyph unicode="b" glyph-name="b" horiz-adv-x="513" d="M163 143Q174 116 193 99T242 82Q268 82 292 99T336 145T368 211T380 290Q380 332 363 355T318 378Q289 378 260 361T203 301L163 143ZM235 426Q268 451 301 462T372 473Q438 473 474 433T511 322Q511
284 501 243T472 162T428 90T374 34Q338 6 300 -3T222 -13Q192 -13 163 -1T123 30H120L17 -13H4L176 676H296L234 426H236H235Z" />
<glyph unicode="c" glyph-name="c" horiz-adv-x="464" d="M369 311H352Q352 333 346 346T330 366T308 375T284 378Q264 378 239 365T191 328T153 267T137 184Q137 143 158 116T222 88Q254 88 284 100T345 145L397 78Q367 51 343 33T293 5T241 -10T177 -14Q98 -14
53 32T7 154Q7 224 35 283T106 384T204 449T309 473Q339 473 366 467T415 447T448 414T460 368L369 311Z" />
<glyph unicode="d" glyph-name="d" horiz-adv-x="560" d="M345 309Q332 344 317 361T270 378Q240 378 215 359T171 309T141 242T130 171Q130 132 146 107T195 81Q233 81 259 106T310 169L345 309ZM419 126Q413 102 406 69T395 8L275 -14L269 -11L280 34H278Q242
4 208 -5T144 -14Q74 -14 37 26T0 139Q0 212 23 273T86 378T175 448T280 473Q309 473 331 465T376 434L436 676H556L419 126Z" />
<glyph unicode="e" glyph-name="e" horiz-adv-x="436" d="M312 300Q316 316 316 330Q316 356 301 367T263 378Q251 378 237 373T210 357T185 332T169 300H312ZM388 77Q357 50 333 33T284 5T235 -9T178 -13Q97 -13 52 31T7 151Q7 178 13 206T28 263T50 315T77 359Q122
421 179 447T293 473Q362 473 395 432T428 322Q428 281 416 233L409 205H137Q133 194 133 184T132 165Q132 142 140 127T160 104T187 92T217 88Q240 88 272 99T334 143L388 77Z" />
<glyph unicode="f" glyph-name="f" horiz-adv-x="464" d="M419 549L402 548Q391 580 372 588T330 597Q298 597 279 574T250 513L237 462H327L304 367H214L123 0H3L94 367H36L59 462H117L128 504Q140 552 162 587T214 646T276 680T344 692Q369 692 386 690T417
681T442 664T464 639L419 549Z" />
<glyph unicode="g" glyph-name="g" horiz-adv-x="604" d="M206 -19Q185 -21 172 -27T151 -42T141 -59T138 -73Q138 -94 161 -102T216 -111Q241 -111 266 -109T310 -99T342 -78T354 -45Q354 -34 344 -27T311 -19H206ZM412 326Q412 349 396 363T341 378Q314 378
294 369T260 347T240 317T233 286Q233 260 253 248T305 235Q353 235 382 260T412 326ZM577 356H521Q528 352 528 333Q528 283 504 247T442 187T362 152T281 140H256Q228 137 214 126T199 99Q199 76 239 76H323Q357 76 386 72T437 56T471 27T483 -18Q483 -72 455
-108T381 -165T275 -196T152 -206Q86 -206 45 -184T4 -116Q4 -86 24 -56T89 -6Q73 2 67 14T61 40Q61 74 83 102T168 165V167Q142 187 129 208T115 260Q115 304 136 342T192 410T274 456T372 473Q389 473 409 470T449 459Q456 456 461 455T474 452T494 451T529 451H601L577
356Z" />
<glyph unicode="h" glyph-name="h" horiz-adv-x="494" d="M229 415Q266 444 299 458T372 473Q433 473 462 448T491 375Q491 350 484 322L404 0H284L361 309Q364 322 364 334Q364 360 349 369T312 378Q303 378 289 374T260 359T228 333T197 293L124 0H4L172 676H292L227
415H229Z" />
<glyph unicode="i" glyph-name="i" horiz-adv-x="308" d="M126 0H1L115 462H240L126 0ZM272 543H127L163 688H308L272 543Z" />
<glyph unicode="j" glyph-name="j" horiz-adv-x="531" d="M343 -16Q331 -63 309 -98T256 -156T191 -190T118 -202Q81 -202 53 -188T0 -135L64 -50H82Q88 -69 99 -84T128 -100Q158 -100 182 -81T221 -5L337 462H462L343 -16ZM494 543H349L385 688H530L494 543Z" />
<glyph unicode="k" glyph-name="k" horiz-adv-x="549" d="M545 444L293 273L456 0H314L196 205L172 189L125 0H5L173 676H293L202 312L415 462H549L545 444Z" />
<glyph unicode="l" glyph-name="l" horiz-adv-x="293" d="M125 0H0L155 625L276 676H293L125 0Z" />
<glyph unicode="m" glyph-name="m" horiz-adv-x="775" d="M485 412Q523 441 564 457T645 473Q706 473 734 449T763 378Q763 355 755 323L675 0H557L634 310Q637 323 637 335Q637 361 622 370T585 379Q563 379 533 361T474 294L401 0H283L360 310Q363 323 363 335Q363
361 348 370T311 379Q292 379 261 361T200 294L127 0H9L123 462H237L225 412H227Q265 441 298 457T371 473Q465 473 484 412H485Z" />
<glyph unicode="n" glyph-name="n" horiz-adv-x="503" d="M226 412Q264 441 299 457T374 473Q435 473 464 448T493 376Q493 351 486 323L406 0H286L363 310Q366 323 366 335Q366 361 351 370T314 379Q305 379 291 375T262 360T230 334T199 294L126 0H6L120 462H236L224
412H226Z" />
<glyph unicode="o" glyph-name="o" horiz-adv-x="484" d="M352 295Q352 335 333 356T276 378Q245 378 219 359T174 310T145 243T134 170Q134 130 151 106T205 81Q234 81 256 94T294 127T322 173T339 221T349 265T352 295ZM477 298Q477 232 451 175T383 76T288
10T181 -14Q142 -14 110 -2T55 34T20 89T7 161Q7 229 33 286T102 384T198 449T306 473Q345 473 376 461T430 425T465 370T477 298Z" />
<glyph unicode="p" glyph-name="p" horiz-adv-x="560" d="M213 150Q225 115 240 98T288 81Q320 81 346 103T391 159T420 232T431 305Q431 379 368 379Q330 379 302 354T248 291L213 150ZM277 416Q311 445 349 459T424 473Q487 473 523 434T560 329Q560 258 536
196T471 87T378 13T270 -14Q241 -14 221 -4T182 27L134 -168L21 -205H4L170 462H286L275 416H277Z" />
<glyph unicode="q" glyph-name="q" horiz-adv-x="510" d="M348 316Q334 348 315 363T272 378Q251 378 226 364T180 321T145 254T130 164Q130 125 147 103T196 81Q257 81 309 158L348 316ZM348 -168L235 -205H218L276 26L274 27Q242 1 212 -6T147 -14Q76 -14 39
30T2 142Q2 208 26 267T91 373T185 446T294 473Q324 473 350 462T390 434L490 473H507L348 -168Z" />
<glyph unicode="r" glyph-name="r" horiz-adv-x="470" d="M445 357H429Q422 367 410 373T376 379Q353 379 326 365T270 326T217 266T173 189L126 0H6L120 462H240L218 374H220Q244 402 269 421T317 451T361 468T398 473Q447 473 470 455L445 357Z" />
<glyph unicode="s" glyph-name="s" horiz-adv-x="413" d="M382 306H367Q359 329 346 343T319 365T289 375T260 378Q243 378 232 373T214 360T204 344T201 332Q201 314 217 302T256 278Q315 250 338 228T361 173Q361 136 345 102T300 43T231 2T140 -13Q114 -13
95 -9T60 2T31 22T3 50L33 170H48Q52 146 65 130T95 103T131 87T167 82Q179 82 191 86T212 97T228 114T235 136Q235 148 224 158T182 183Q124 211 102 236T79 294Q79 328 93 360T132 418T195 458T279 473Q331 473 359 457T408 412L382 306Z" />
<glyph unicode="t" glyph-name="t" horiz-adv-x="352" d="M327 367H220L166 149Q162 136 162 124Q162 100 176 92T207 83Q220 83 240 89T284 115H302L268 21Q242 2 212 -5T144 -12Q122 -12 103 -7T68 11T44 41T35 85Q35 94 36 104T40 126L100 367H1L5 384L87 462H123L139
523L266 631H286L243 462H350L327 367Z" />
<glyph unicode="u" glyph-name="u" horiz-adv-x="504" d="M411 110Q405 84 400 57T394 10L264 -15L281 55H279Q244 25 202 6T119 -14Q62 -14 36 10T10 80Q10 104 18 138L98 462H218L141 151Q138 137 138 126Q138 100 153 91T190 81Q199 81 213 86T243 103T275
132T307 173L378 462H498L411 110Z" />
<glyph unicode="v" glyph-name="v" horiz-adv-x="440" d="M119 -14H93L8 462H138L161 209H163L309 462H440L119 -14Z" />
<glyph unicode="w" glyph-name="w" horiz-adv-x="679" d="M365 -14H339L293 239L114 -14H88L11 462H141L160 205H162L267 379L252 462H383L409 217H411L547 462H678L365 -14Z" />
<glyph unicode="x" glyph-name="x" horiz-adv-x="573" d="M365 239L471 0H333L268 143L143 0H5L224 244L130 462H267L320 341L429 462H567L365 239Z" />
<glyph unicode="y" glyph-name="y" horiz-adv-x="601" d="M298 -34Q271 -78 245 -110T192 -163T135 -194T71 -204Q52 -204 34 -199T5 -182L29 -84H44Q58 -100 71 -104T97 -109Q129 -109 157 -86T217 -6L164 462H295L320 187H322L470 462H601L298 -34Z" />
<glyph unicode="z" glyph-name="z" horiz-adv-x="520" d="M508 436L190 95H424L392 0H5L11 25L329 367H122L153 462H514L508 436Z" />
<glyph unicode="&#xa0;" glyph-name="space" horiz-adv-x="500" />
<glyph unicode="&#x391;" glyph-name="u0391" horiz-adv-x="648" d="M436 468L302 264H468L436 468ZM510 0L484 162H236L130 0H0L478 690H506L640 0H510Z" />
<glyph unicode="&#x392;" glyph-name="u0392" horiz-adv-x="625" d="M262 102Q307 102 339 112T393 141T423 182T433 232Q433 254 421 269T388 293T341 307T286 311H211L159 102H262ZM308 413Q356 413 388 423T439 448T467 484T476 525Q476 550 456 562T390 574H277L236
413H308ZM411 676Q513 676 565 645T617 551Q617 500 584 451T481 373L482 369Q534 341 554 309T574 241Q574 191 550 147T484 71T386 19T266 0H6L174 676H411Z" />
<glyph unicode="&#x393;" glyph-name="u0393" horiz-adv-x="651" d="M638 574H279L136 0H6L174 676H651L638 574Z" />
<glyph unicode="&#x394;" glyph-name="u0394" horiz-adv-x="648" d="M436 468L197 102H493L436 468ZM0 0L478 690H506L640 0H0Z" />
<glyph unicode="&#x395;" glyph-name="u0395" horiz-adv-x="659" d="M629 574H279L237 407H478L452 304H211L161 102H548L496 0H6L174 676H654L629 574Z" />
<glyph unicode="&#x396;" glyph-name="u0396" horiz-adv-x="752" d="M743 660L230 102H626L586 0H3L6 16L518 574H184L222 676H747L743 660Z" />
<glyph unicode="&#x397;" glyph-name="u0397" horiz-adv-x="737" d="M562 0H432L506 297H211L137 0H7L175 676H305L236 399H531L600 676H730L562 0Z" />
<glyph unicode="&#x398;" glyph-name="u0398" horiz-adv-x="748" d="M602 425Q602 501 561 545T437 589Q378 589 326 563T233 492T170 383T146 247Q146 171 187 127T312 83Q374 83 427 111T519 186T580 295T602 425ZM740 434Q740 336 702 253T600 110T455 15T287
-19Q223 -19 172 -1T84 51T28 132T8 239Q8 336 47 419T150 562T296 657T463 691Q527 691 578 673T665 621T720 540T740 434ZM506 296H224L262 398H518L506 296Z" />
<glyph unicode="&#x399;" glyph-name="u0399" horiz-adv-x="461" d="M442 574H352L234 102H324L290 0H3L14 102H104L222 574H132L171 676H458L442 574Z" />
<glyph unicode="&#x39a;" glyph-name="u039A" horiz-adv-x="748" d="M740 662L352 384L634 0H464L244 306L204 277L135 0H7L175 676H303L237 413L598 676H743L740 662Z" />
<glyph unicode="&#x39b;" glyph-name="u039B" horiz-adv-x="634" d="M496 0L429 468L130 0H0L471 690H499L626 0H496Z" />
<glyph unicode="&#x39c;" glyph-name="u039C" horiz-adv-x="939" d="M762 0H634L750 467L399 0H372L253 467L137 0H9L177 676H338L442 236H445L769 676H930L762 0Z" />
<glyph unicode="&#x39d;" glyph-name="u039D" horiz-adv-x="746" d="M566 -18L466 2L260 502L135 0H7L175 676H332L505 252L611 676H739L566 -18Z" />
<glyph unicode="&#x39e;" glyph-name="u039E" horiz-adv-x="704" d="M552 0H6L19 122H589L552 0ZM536 289H170L195 411H561L536 289ZM686 564H162L198 676H696L686 564Z" />
<glyph unicode="&#x39f;" glyph-name="u039F" horiz-adv-x="749" d="M603 425Q603 501 562 545T438 590Q379 590 326 564T233 493T170 384T147 247Q147 171 188 128T312 84Q364 84 409 102T489 153T551 233T591 337Q603 385 603 425ZM742 434Q742 411 739 387T729
337Q709 258 667 193T565 81T435 8T287 -18Q223 -18 172 0T84 52T28 133T8 239Q8 336 47 419T150 563T295 658T463 692Q527 692 578 674T666 622T722 540T742 434Z" />
<glyph unicode="&#x3a0;" glyph-name="u03A0" horiz-adv-x="737" d="M562 0H432L575 574H280L137 0H7L175 676H730L562 0Z" />
<glyph unicode="&#x3a1;" glyph-name="u03A1" horiz-adv-x="621" d="M301 380Q390 380 438 411T486 504Q486 538 453 556T344 574H279L230 380H301ZM383 676Q504 676 562 639T621 532Q621 476 597 430T530 350T430 297T308 278H205L136 0H6L174 676H383Z" />
<glyph unicode="&#x3a3;" glyph-name="u03A3" horiz-adv-x="738" d="M706 574H376L524 348L253 102H630L590 0H4L7 16L371 346L165 660L169 676H731L706 574Z" />
<glyph unicode="&#x3a4;" glyph-name="u03A4" horiz-adv-x="635" d="M620 574H380L237 0H107L250 574H7L46 676H635L620 574Z" />
<glyph unicode="&#x3a5;" glyph-name="u03A5" horiz-adv-x="716" d="M658 577Q625 589 609 589Q593 589 568 583T507 546T427 454T329 282L259 0H129L199 282Q199 369 192 422T171 509Q160 537 147 553T121 577T94 587T71 589Q58 589 16 578L8 675Q36 683 56 687T100
691Q119 691 151 683T216 650T273 582T301 465Q301 457 301 450T300 433Q341 515 390 565T486 644T572 681T632 691Q655 691 674 687T716 675L658 577Z" />
<glyph unicode="&#x3a6;" glyph-name="u03A6" horiz-adv-x="769" d="M354 472Q296 469 256 453T191 413T155 361T144 307Q144 287 151 269T175 237T219 214T287 201L354 472ZM415 201Q471 204 511 221T576 262T614 314T626 368Q626 387 619 405T594 437T550 460T482
472L415 201ZM509 574Q559 572 605 560T687 525T744 467T766 388Q766 342 750 303T705 232T640 176T561 135T475 109T390 99L366 0H236L260 99Q209 100 163 113T81 149T24 208T3 288Q3 358 38 410T128 499T249 553T379 574L404 676H534L509 574Z" />
<glyph unicode="&#x3a7;" glyph-name="u03A7" horiz-adv-x="822" d="M492 343L664 0H510L390 239L158 0H4L338 343L173 676H327L440 448L663 676H817L492 343Z" />
<glyph unicode="&#x3a8;" glyph-name="u03A8" horiz-adv-x="784" d="M727 589Q707 586 694 573T671 541T657 504T647 468Q635 418 604 380T533 316T445 276T353 259L289 0H159L223 259Q185 261 150 273T88 306T45 356T28 425Q28 451 37 480T46 540Q46 558 39 571T13
589L8 691H47Q74 691 98 685T140 663T168 624T178 564Q178 541 170 511T162 448Q162 413 184 390T249 362L327 676H457L379 362Q433 368 470 399T520 479Q535 539 559 580T614 645T677 680T745 691H784L727 589Z" />
<glyph unicode="&#x3a9;" glyph-name="u03A9" horiz-adv-x="783" d="M219 131Q195 138 171 153T127 193T96 249T84 321Q84 381 114 446T199 566T332 655T505 691Q573 691 623 672T707 621T756 547T773 457Q773 388 747 332T680 235T595 167T511 131L500 102H702L662
0H367L429 207Q464 215 502 233T573 281T625 352T646 449Q646 515 601 552T479 589Q423 589 375 567T292 510T236 431T216 346Q216 317 225 294T251 254T290 225T339 206L299 0H4L14 102H216L219 131Z" />
<glyph unicode="&#x3b1;" glyph-name="u03B1" horiz-adv-x="671" d="M361 261Q361 318 341 348T285 379Q255 379 228 361T180 313T148 248T136 175Q136 133 155 107T212 81Q235 81 256 93T296 124T330 165T357 209Q359 223 360 236T361 261ZM488 216Q489 201 491
179T500 134T523 97T567 81L563 65L508 -14Q488 -14 467 -13T428 -3T397 24T379 77H377Q362 61 344 45T302 16T247 -5T175 -14Q136 -14 105 -2T53 33T21 87T9 157Q9 206 31 261T92 364T188 442T314 473Q381 473 417 446T471 376L536 462H665L488 216Z" />
<glyph unicode="&#x3b2;" glyph-name="u03B2" horiz-adv-x="595" d="M382 454Q423 454 448 480T474 551Q474 569 464 583T427 597Q400 597 379 584T343 549T316 499T298 442L225 150Q237 115 252 98T300 81Q316 81 340 95T386 136T425 201T441 288Q441 313 432
327T406 349T366 357T316 359L320 375L382 454ZM170 410Q183 462 205 512T261 603T344 667T458 692Q485 692 509 684T553 661T583 624T594 574Q594 517 562 477T488 416L490 415Q528 405 547 372T567 296Q567 272 561 248Q547 193 521 145T458 62T376 7T281 -14Q252
-14 232 -5T193 24L160 -111Q145 -172 119 -205H1Q12 -188 22 -165T38 -117L170 410Z" />
<glyph unicode="&#x3b3;" glyph-name="u03B3" horiz-adv-x="496" d="M220 51L159 -194L143 -204L42 -180Q49 -157 58 -129T75 -71T92 -11T107 47Q116 84 121 120T126 192Q126 198 126 214T122 251T111 294T91 336T58 367T9 379L13 395L82 473Q116 473 142 454T187
405T214 337T223 261Q223 247 222 235T218 209H220L366 462H496L220 51Z" />
<glyph unicode="&#x3b4;" glyph-name="u03B4" horiz-adv-x="525" d="M344 266Q344 298 330 319T288 354Q258 352 229 338T178 298T142 241T128 171Q128 133 147 107T202 81Q237 81 263 99T308 145T335 205T344 266ZM446 539H429Q421 549 412 559T392 577T367 591T336
597Q327 597 316 594T294 585T276 568T269 544Q269 511 341 471Q370 455 394 437T435 397T462 348T472 286Q472 246 455 195T402 97T311 18T179 -14Q131 -14 98 0T43 37T13 91T3 154Q3 200 17 242T58 320T120 383T200 428Q175 445 161 466T146 518Q146 563 166
596T218 650T288 682T364 692Q389 692 412 689T455 678T492 656T520 618L446 539Z" />
<glyph unicode="&#x3b5;" glyph-name="u03B5" horiz-adv-x="472" d="M399 322H383Q376 340 368 351T350 368T326 376T294 378Q281 378 265 376T234 367T209 351T199 323Q199 312 206 306T222 297T243 294T262 293H330L306 198H228Q211 198 193 193T160 177Q149
169 143 157T136 131Q136 117 143 108T162 92T186 84T211 81Q256 81 300 98T370 154L406 79Q379 50 354 32T301 4T242 -10T171 -14Q144 -14 115 -10T62 7T21 40T5 95Q5 120 13 143T37 185T72 217T117 239V242Q99 253 88 271T77 311Q77 341 94 368T134 415Q169 444
217 458T312 473Q338 473 363 470T410 458T446 431T468 383L399 322Z" />
<glyph unicode="&#x3b6;" glyph-name="u03B6" horiz-adv-x="494" d="M485 539Q435 534 382 510T280 447Q255 427 230 397T183 331T149 254T135 175Q135 124 161 103T234 81H290Q311 81 333 76T373 60T402 31T413 -13Q413 -56 395 -91T346 -151T278 -191T201 -205Q182
-205 162 -201T131 -184L155 -86H171Q185 -103 199 -106T226 -110Q241 -110 256 -108T284 -98T304 -80T312 -50Q312 -39 306 -32T290 -21T268 -16T243 -14H153Q127 -14 101 -9T52 12T16 56T2 130Q2 177 17 228T59 327T124 421T208 501L209 504Q189 519 179 538T168
581Q168 590 170 603T179 632T194 663T216 692H232L304 675Q292 658 283 640T274 605Q274 594 279 584T296 568Q324 582 345 592T385 609T425 622T475 634H492L485 539Z" />
<glyph unicode="&#x3b7;" glyph-name="u03B7" horiz-adv-x="495" d="M221 411Q258 441 292 457T369 473Q429 473 458 448T488 374Q488 348 481 321L372 -116Q364 -148 364 -172Q364 -192 368 -205H241Q239 -200 239 -196T239 -186Q239 -171 243 -153T253 -110L358
309Q361 322 361 334Q361 359 347 368T310 378Q300 378 286 374T257 359T225 333T194 293L121 0H1L88 349Q92 363 93 376T94 401Q94 422 90 438L199 473H208Q212 467 215 455T219 422Q219 420 219 418T218 411H221Z" />
<glyph unicode="&#x3b8;" glyph-name="u03B8" horiz-adv-x="500" d="M136 293Q122 235 122 192Q122 142 138 112T185 81Q208 81 231 98T274 144T312 211T340 293H136ZM363 388Q375 436 375 481Q375 530 360 563T313 597Q288 597 265 579T221 532T185 465T159 388H363ZM494
471Q494 424 483 370T450 262T399 158T332 70T252 9T161 -14Q120 -14 91 3T43 51T15 122T6 208Q6 256 17 310T49 418T99 521T166 609T246 669T337 692Q378 692 407 675T456 627T485 557T494 471Z" />
<glyph unicode="&#x3b9;" glyph-name="u03B9" horiz-adv-x="255" d="M212 8Q168 -14 117 -14Q66 -14 36 7T5 79Q5 88 6 97T10 116L96 462H216L142 163Q136 137 136 122Q136 97 147 89T175 81Q204 81 235 108H251L212 8Z" />
<glyph unicode="&#x3ba;" glyph-name="u03BA" horiz-adv-x="558" d="M547 379Q502 375 468 366T406 342T351 308T295 267L464 0H309L192 187L168 167L127 0H7L121 462H241L201 299H203Q233 325 269 354T348 407T436 450T532 473L551 395L547 379Z" />
<glyph unicode="&#x3bb;" glyph-name="u03BB" horiz-adv-x="526" d="M518 65L452 -14Q427 -14 404 -8T363 17T334 70T323 161V298L131 0H0L320 459Q320 504 310 531T284 573T245 592T197 597L201 613L271 692Q302 692 328 682T375 648T407 582T422 478L434 222Q436
184 440 157T455 113T481 89T522 81L518 65Z" />
<glyph unicode="&#x3bc;" glyph-name="u03BC" horiz-adv-x="586" d="M509 155Q504 133 504 120Q504 103 514 92T553 81L549 65L494 -14Q474 -14 454 -12T417 -2T389 19T375 56H373Q348 21 316 4T256 -14Q233 -14 218 -11T191 10H189L159 -111Q144 -172 118 -205H4Q15
-188 25 -165T41 -117L185 462H305L228 149Q225 135 225 125Q225 100 240 91T277 81Q304 81 335 101T391 164L465 462H585L509 155Z" />
<glyph unicode="&#x3bd;" glyph-name="u03BD" horiz-adv-x="531" d="M527 473Q530 462 530 449Q530 400 511 347T458 242T378 144T276 63T158 7T32 -14H6L124 462H244L162 130H164Q210 143 252 172T328 242T381 328T401 423Q401 428 401 433T399 444L406 454L527 473Z" />
<glyph unicode="&#x3be;" glyph-name="u03BE" horiz-adv-x="486" d="M467 539Q432 539 398 533T336 516T293 487T276 449Q276 427 303 418Q345 432 387 435T466 439L473 434L442 344Q384 344 329 330T229 291T158 230T131 151Q131 81 234 81H295Q316 81 338 76T378
60T407 31T418 -13Q418 -56 400 -91T351 -151T283 -191T206 -205Q187 -205 167 -201T136 -184L160 -86H176Q190 -103 204 -106T231 -110Q246 -110 261 -108T289 -98T309 -80T317 -50Q317 -39 311 -32T295 -21T273 -16T248 -14H159Q89 -14 45 22T0 123Q0 159 14
195T53 265T115 326T195 374V377Q154 399 154 438Q154 468 172 499T225 554Q211 565 203 577T195 606Q195 631 205 651T236 692H252L325 675Q314 664 308 655T301 633Q301 625 305 617T321 602Q359 616 396 625T472 634L482 631L467 539Z" />
<glyph unicode="&#x3bf;" glyph-name="u03BF" horiz-adv-x="484" d="M352 295Q352 335 333 356T276 378Q245 378 219 359T174 310T145 243T134 170Q134 130 151 106T205 81Q234 81 256 94T294 127T322 173T339 221T349 265T352 295ZM477 298Q477 232 451 175T383
76T288 10T181 -14Q142 -14 110 -2T55 34T20 89T7 161Q7 229 33 286T102 384T198 449T306 473Q345 473 376 461T430 425T465 370T477 298Z" />
<glyph unicode="&#x3c0;" glyph-name="u03C0" horiz-adv-x="627" d="M598 367H499Q490 345 479 314T459 251T442 189T435 142Q435 116 452 102T512 81L507 64L448 -14Q423 -14 397 -11T349 4T314 36T300 93Q300 110 309 147T331 225T357 306T379 367H303Q280 279
259 210T207 93T130 17T10 -14L21 81Q54 90 74 98T110 133T141 210T180 355Q167 355 143 338T99 281L24 319Q68 396 123 429T248 462H621L598 367Z" />
<glyph unicode="&#x3c1;" glyph-name="u03C1" horiz-adv-x="572" d="M444 304Q444 378 381 378Q368 378 354 374T325 360T296 332T268 286Q256 261 247 228T226 150Q238 115 253 98T301 81Q333 81 359 103T404 159T433 232T444 304ZM100 125Q110 167 120 201T142
265T169 322T208 377Q235 410 263 429T318 457T369 470T414 473Q488 473 529 430T571 315Q571 283 562 247Q547 188 521 140T458 58T377 5T283 -14Q254 -14 234 -4T195 27L161 -111Q146 -172 120 -205H2Q13 -188 23 -165T39 -117L100 125Z" />
<glyph unicode="&#x3c2;" glyph-name="u03C2" horiz-adv-x="509" d="M420 311H403Q403 333 395 346T376 366T351 375T325 378Q280 378 245 359T185 309T148 241T135 167Q135 143 143 127T166 100T198 86T235 81H291Q312 81 334 76T374 60T403 31T414 -13Q414 -56
396 -91T347 -151T279 -191T202 -205Q183 -205 163 -201T132 -184L156 -86H172Q186 -103 200 -106T227 -110Q242 -110 257 -108T285 -98T305 -80T313 -50Q313 -39 307 -32T291 -21T269 -16T244 -14H164Q128 -14 99 -3T48 28T16 77T4 141Q4 210 34 270T114 376T226
447T350 473Q377 473 405 467T455 449T491 416T506 368L420 311Z" />
<glyph unicode="&#x3c3;" glyph-name="u03C3" horiz-adv-x="604" d="M344 251Q344 274 338 292T321 325T299 349T275 367Q248 367 223 352T179 309T148 246T136 169Q136 130 153 106T209 81Q245 81 270 101T312 149T336 205T344 251ZM580 367H415L414 365Q440
339 453 308T466 242Q466 231 465 221T461 200Q453 170 431 133T373 63T290 8T185 -14Q145 -14 113 -2T57 33T22 88T9 159Q9 236 40 293T117 387T213 443T302 462H603L580 367Z" />
<glyph unicode="&#x3c4;" glyph-name="u03C4" horiz-adv-x="509" d="M484 367H331Q325 350 317 329T302 284T287 237T275 192Q269 168 269 150Q269 119 289 104T355 81L350 64L291 -14Q266 -14 238 -11T187 4T149 38T133 97Q133 122 140 150Q146 174 156 205T177
267T198 325T215 367Q188 367 167 359T130 336T101 304T78 266L2 304Q24 342 46 371T93 421T146 451T210 462H507L484 367Z" />
<glyph unicode="&#x3c5;" glyph-name="u03C5" horiz-adv-x="482" d="M283 473Q324 473 359 463T420 433T460 381T475 306Q475 239 450 181T382 79T287 11T178 -14Q93 -14 52 20T10 118Q10 143 18 177L54 324Q59 346 63 368T68 408Q68 428 62 437L173 473H189Q192
465 194 454T197 428Q197 413 193 400L145 207Q142 194 140 181T138 156Q138 125 152 103T204 81Q238 81 264 102T309 156T338 225T348 292Q348 341 323 359T260 378L283 473Z" />
<glyph unicode="&#x3c6;" glyph-name="u03C6" horiz-adv-x="612" d="M331 81Q383 81 420 118T476 231Q493 297 493 331Q493 355 484 366T454 378Q436 378 423 365T400 329T380 276T363 212L331 81ZM238 183Q251 237 267 289T309 382T375 448T477 473Q501 473 525
463T568 431T598 379T610 306Q610 255 592 199T537 95T443 17T308 -14L260 -205H140L188 -14Q138 -14 104 -1T47 34T16 87T6 151Q6 188 20 235T60 328T122 409T204 461L259 403L256 391Q228 378 208 357T175 314T154 270T143 233Q133 194 133 164Q133 81 213 81L238
183Z" />
<glyph unicode="&#x3c7;" glyph-name="u03C7" horiz-adv-x="710" d="M409 121Q401 81 401 45Q401 16 406 -10T425 -58T459 -93T512 -110L508 -126L440 -205Q398 -205 371 -185T328 -133T306 -66T299 4V8L139 -195H2L294 139Q303 181 303 225Q303 255 297 281T277
329T240 363T181 379L185 395L254 473Q295 473 324 456T371 409T397 341T405 258V254L570 462H708L409 121Z" />
<glyph unicode="&#x3c8;" glyph-name="u03C8" horiz-adv-x="687" d="M642 379Q630 375 619 366T596 339T575 294T555 227Q543 177 522 136T469 64T393 13T289 -14L241 -205H121L169 -14Q84 -3 48 36T11 141Q11 162 15 188T24 240T34 288T38 323Q38 349 31 361T13
379V473Q88 473 127 434T167 332Q167 311 163 285T152 232T142 183T137 148Q137 117 150 103T193 81L287 462H407L313 81Q340 88 358 99T391 132T417 188T442 276Q452 318 475 354T530 416T602 458T687 473L642 379Z" />
<glyph unicode="&#x3c9;" glyph-name="u03C9" horiz-adv-x="689" d="M576 461Q628 445 653 398T678 292Q678 256 669 220Q654 160 628 116T570 43T500 0T424 -14Q381 -14 349 7T309 69H307Q280 28 237 7T151 -14Q86 -14 48 22T10 131Q10 176 25 227T70 326T140
410T233 461L304 410L300 394Q254 378 223 348T172 281T144 207T135 139Q135 113 144 97T175 81Q206 81 236 113T286 226L309 318L423 347L434 337L406 226Q401 204 398 186T395 153Q395 114 410 98T448 81Q467 81 486 98T519 142T542 204T551 274Q551 312 535
344T479 394L483 410L576 461Z" />
<glyph unicode="&#x3d1;" glyph-name="u03D1" horiz-adv-x="532" d="M379 507Q379 551 365 574T323 597Q306 597 289 581T272 535Q272 521 278 506T296 476T326 449T370 431Q379 474 379 507ZM505 285Q486 285 463 290L455 259Q438 192 409 141T343 56T261 4T169
-14Q85 -14 44 20T3 117Q3 142 11 177Q19 211 24 234T33 273T37 298T39 316Q39 334 33 345L143 381H159Q162 374 164 362T167 336Q167 333 167 328T163 310T154 273T138 207Q135 193 133 180T131 154Q131 124 145 103T195 81Q222 81 243 96T280 135T309 190T329
253Q334 274 337 288T345 321Q311 333 281 349T227 388T189 440T175 506Q175 552 190 587T231 645T287 680T348 692Q414 692 451 644T488 492Q488 469 487 444T480 389Q491 386 503 384T528 380L505 285Z" />
<glyph unicode="&#x3d5;" glyph-name="u03D5" d="M282 378Q237 378 197 344T137 231Q127 192 127 162Q127 120 147 101T208 81L282 378ZM326 81Q377 81 414 116T471 231Q476 248 477 263T479 292Q479 338 457 358T400 378L326 81ZM424 473Q475 473 509 461T566
427T597 376T607 312Q607 253 587 195T529 91T434 15T303 -14L255 -205H135L183 -14Q134 -14 100 -2T43 33T11 84T1 149Q1 207 20 265T76 369T171 444T304 473L359 692H479L424 473Z" />
<glyph unicode="&#x3d6;" glyph-name="u03D6" horiz-adv-x="885" d="M504 227Q499 204 496 186T493 153Q493 114 508 98T546 81Q565 81 584 98T617 142T641 204T650 274Q650 300 642 324T617 367H344Q314 346 293 318T259 260T240 199T234 144Q234 115 243 98T273
81Q304 81 334 113T384 227L399 289L514 318L524 308L504 227ZM857 367H765Q776 331 776 292Q776 262 769 230T750 168T723 112T692 67Q655 25 612 6T522 -14Q479 -14 449 6T407 69H405Q375 27 334 7T249 -14Q183 -14 146 22T108 131Q108 156 113 186T130 247T159
309T202 366Q179 364 161 355T129 332T104 301T84 266L8 304Q30 342 52 371T99 421T152 451T216 462H880L857 367Z" />
<glyph unicode="&#x3f0;" glyph-name="u03F0" horiz-adv-x="685" d="M496 296Q497 242 500 207T513 148T541 111T590 85L586 69L530 -10Q490 -6 466 17T429 72T410 142T404 212L170 0H5L187 166Q186 221 183 256T171 315T143 352T94 379L98 395L154 473Q194 468
218 445T255 388T272 318T279 248L514 462H680L496 296Z" />
<glyph unicode="&#x3f1;" glyph-name="u03F1" horiz-adv-x="492" d="M365 299Q365 337 348 357T293 378Q261 378 235 357T190 303T161 232T151 161Q151 123 168 102T222 81Q251 81 272 94T310 129T336 176T353 226T362 270T365 299ZM184 -205Q183 -192 171 -185T140
-168T98 -143T51 -97Q28 -67 18 -28T7 55Q7 127 28 201T89 335T189 434T323 473Q401 473 445 426T489 301Q489 235 464 178T398 78T305 11T198 -14Q170 -14 152 -7T116 19L113 17Q116 -8 130 -23T163 -49T205 -68T245 -87T276 -113T289 -153Q289 -159 288 -166T285
-181L201 -205H184Z" />
<glyph unicode="&#x3f4;" glyph-name="u03F4" horiz-adv-x="748" d="M149 296Q146 272 146 247Q146 171 187 127T312 83Q358 83 400 99T476 143T537 211T580 296H149ZM601 398Q602 406 602 412T602 425Q602 501 561 545T437 589Q395 589 356 576T282 537T221 477T175
398H601ZM740 434Q740 336 702 253T600 110T455 15T287 -19Q223 -19 172 -1T84 51T28 132T8 239Q8 336 47 419T150 562T296 657T463 691Q527 691 578 673T665 621T720 540T740 434Z" />
<glyph unicode="&#x2202;" glyph-name="u2202" horiz-adv-x="504" d="M348 295Q348 335 329 356T272 378Q241 378 215 359T170 310T141 243T130 170Q130 130 147 106T201 81Q230 81 252 94T290 127T318 173T335 221T345 265T348 295ZM236 691Q309 687 358 666T439
611T483 530T497 431Q497 384 489 333T462 232T418 138T356 60T276 6T177 -14Q98 -14 51 33T3 160Q3 225 28 282T95 381T189 448T296 473Q324 473 342 466T378 440L382 442Q373 523 324 559T198 596L185 608L236 691Z" />
<glyph unicode="&#x2207;" glyph-name="u2207" horiz-adv-x="646" d="M157 560L227 199L451 560H157ZM193 -30H165L6 664H646L193 -30Z" />
<glyph unicode="&#x220a;" glyph-name="u220A" horiz-adv-x="437" d="M400 319H384Q376 341 365 353T340 370T312 377T286 378Q271 378 253 373T218 358T185 330T159 290H308L284 195H134Q133 190 133 186T132 176Q132 136 155 112T221 88Q253 88 283 100T344
145L394 80Q364 53 340 35T291 6T239 -9T176 -14Q97 -14 52 32T6 154Q6 224 34 283T105 384T203 449T308 473Q340 473 374 468T431 443L400 319Z" />
</font>
</defs>
</svg>
