<?xml version="1.0" standalone="no"?> <!DOCTYPE svg PUBLIC "-//W3C//DTD SVG 1.0//EN" "http://www.w3.org/TR/2001/REC-SVG-20010904/DTD/svg10.dtd" > <svg xmlns="http://www.w3.org/2000/svg" width="100%" height="100%">
<defs >
<font horiz-adv-x="502" ><font-face
    font-family="STIXGeneralItalic"
    units-per-em="1000"
    panose-1="0 0 0 0 0 0 0 0 0 0"
    ascent="1055"
    descent="-455"
    alphabetic="0" />
<missing-glyph horiz-adv-x="250" />
<glyph unicode=" " glyph-name="space" horiz-adv-x="250" />
<glyph unicode="!" glyph-name="exclam" horiz-adv-x="333" d="M120 182Q130 229 138 265T152 330T162 384T171 434T180 487T191 551Q201 615 216 641T260 667Q304 667 304 616Q304 605 303 594T297 568T285 536T265 493Q248 456 234 425T206 360T176 282T137
177L120 182ZM145 41Q145 20 129 5T89 -11Q66 -11 53 4T39 43Q39 64 55 79T93 95Q116 95 130 79T145 41Z" />
<glyph unicode="&quot;" glyph-name="quotedbl" horiz-adv-x="420" d="M323 421Q329 496 335 551T345 624Q350 644 365 655T399 666Q412 666 422 658T432 638Q432 626 412 572T346 421H323ZM144 421Q150 496 156 551T166 624Q171 644 186 655T221 666Q234 666
243 658T253 638Q253 626 233 572T167 421H144Z" />
<glyph unicode="#" glyph-name="numbersign" horiz-adv-x="501" d="M529 410H425L371 267H465L454 213H350L271 0H209L289 213H159L80 0H18L98 213H2L13 267H119L173 410H76L87 464H193L273 676H334L254 464H384L464 676H525L445 464H540L529 410ZM234 410L180
267H310L364 410H234Z" />
<glyph unicode="$" glyph-name="dollar" horiz-adv-x="500" d="M469 497L454 499Q452 554 434 585T369 633L313 396Q357 364 384 340T428 293T449 246T455 190Q455 145 438 109T388 47Q367 31 350 22T313 8T271 2T215 0L194 -89H159L181 2Q137 10 98 27T32 68L58
191L74 194Q76 155 83 128T104 83T139 53T189 32L258 329Q221 353 196 373T154 413T131 456T123 508Q123 543 134 568T165 614Q181 631 197 641T232 658T273 666T323 668H341L358 731H392L376 663Q448 646 497 611L469 497ZM320 641Q293 641 271 632T234 608T210
573T201 532Q201 497 218 472T281 418L336 641H320ZM221 25Q380 38 380 169Q380 191 377 206T363 236T337 265T295 301L289 306L221 25Z" />
<glyph unicode="%" glyph-name="percent" horiz-adv-x="755" d="M705 213Q705 168 692 126T656 52T603 0T541 -19Q515 -19 493 -9T455 20T430 64T420 119Q420 159 436 197T478 264T539 312T609 330Q655 330 680 300T705 213ZM682 215Q682 254 665 278T619 302Q607
302 593 296T570 279Q553 261 539 237T515 186T498 130T492 76Q492 47 508 28T548 8Q574 8 598 25T641 72T671 138T682 215ZM210 -18H163L557 640Q529 608 503 596T436 583Q416 583 400 586T360 597Q362 584 363 575T364 553Q364 500 342 449T284 363Q264 343 244
335T198 326Q173 326 152 336T114 365T89 409T80 463Q80 505 96 544T138 612T200 658T273 676Q289 676 301 671T333 648Q359 626 380 618T429 609Q452 609 468 611T501 624T539 653T596 706H640L210 -18ZM340 569Q340 591 336 599T315 615Q304 620 294 627T271
649Q256 641 246 635T227 623T213 607T199 586Q176 549 164 507T151 423Q151 391 166 372T208 353Q235 353 259 370T301 418T329 487T340 569Z" />
<glyph unicode="&amp;" glyph-name="ampersand" horiz-adv-x="778" d="M723 52Q699 12 667 -3T591 -18Q558 -18 523 1T457 61Q427 38 402 23T352 -2T305 -14T258 -18Q174 -18 125 22T76 135Q76 177 95 216T151 286Q164 297 180 306T217 326T265 349T331 378Q326
410 325 437T324 472Q324 560 366 613T483 666Q529 666 557 639T586 572Q586 517 530 469Q510 451 485 436T414 397Q428 321 453 259T501 160Q524 187 539 207T564 243T576 272T580 299Q580 316 570 322T529 331V350H717V333Q698 331 686 328T662 315T638 288T606
243Q585 211 564 183T520 125Q550 74 578 53T642 31Q659 31 676 38T712 63L723 52ZM517 572Q517 634 478 634Q448 634 427 603T405 504Q405 484 406 468T410 428Q442 448 462 466T495 501T512 535T517 572ZM436 93Q410 125 385 187T333 345Q260 316 215 268T170
160Q170 104 204 69T298 34Q336 34 368 49T436 93Z" />
<glyph unicode="&apos;" glyph-name="quotesingle" horiz-adv-x="214" d="M132 421Q138 496 144 552T155 627Q159 644 171 655T206 666Q223 666 232 657T241 635Q241 623 221 570T155 421H132Z" />
<glyph unicode="(" glyph-name="parenleft" horiz-adv-x="333" d="M315 654Q258 600 219 533T156 392T122 240T111 85Q111 49 113 18T121 -43T136 -105T159 -175L141 -181Q93 -103 68 -10T42 180Q42 258 59 332T116 470Q131 494 149 516T189 561T239 611T302 669L315
654Z" />
<glyph unicode=")" glyph-name="parenright" horiz-adv-x="333" d="M190 669Q208 637 220 613T241 567T257 523T270 472Q279 430 284 388T289 304Q289 228 269 158T211 22Q182 -28 140 -74T29 -180L16 -165Q47 -132 70 -102T112 -41T144 23T171 97Q183 133 192
172T207 250T216 328T220 402Q220 477 209 540T171 664L190 669Z" />
<glyph unicode="*" glyph-name="asterisk" horiz-adv-x="500" d="M365 440Q374 435 389 429T428 420Q462 415 477 404T492 376Q492 357 482 348T454 339Q443 339 433 346T408 371Q398 383 390 391T374 406T358 419T337 433L319 446Q319 426 320 411T323 383T329
358T339 329Q344 315 345 309T347 295Q347 277 339 266T310 255Q290 255 282 265T273 293Q273 304 283 334Q293 361 297 384T301 446Q298 443 285 436Q273 429 265 423T249 411T233 395T214 373Q187 340 163 340Q149 340 139 348T128 372Q128 410 190 420Q208 423
220 426T243 433T266 444T294 460L282 467Q269 475 245 485T189 499Q128 506 128 543Q128 558 137 570T161 582Q173 582 184 575T210 551Q222 537 232 527T253 508T275 492T301 475Q301 491 300 503T297 527T292 552T283 582Q278 597 277 607T275 624Q275 643 283
654T310 666Q327 666 336 654T346 625Q346 617 343 606T335 577Q327 553 323 531T319 473Q335 484 345 491T365 506T387 527T419 561Q430 574 438 578T457 582Q474 582 483 571T492 543Q492 526 480 515T435 500Q417 498 405 495T380 488T356 476T328 459L365 440Z"
/>
<glyph unicode="+" glyph-name="plus" horiz-adv-x="675" d="M371 220V0H305V220H86V286H305V506H371V286H590V220H371Z" />
<glyph unicode="," glyph-name="comma" horiz-adv-x="250" d="M-5 -111Q35 -85 53 -63T71 -21Q71 -13 67 -7T51 8Q36 19 31 31T26 57Q26 75 40 88T77 101Q104 101 119 79T135 27Q135 -15 102 -55T5 -129L-5 -111Z" />
<glyph unicode="-" glyph-name="hyphen" horiz-adv-x="333" d="M269 192H49L63 255H282L269 192Z" />
<glyph unicode="." glyph-name="period" horiz-adv-x="250" d="M138 43Q138 20 121 5T80 -11Q59 -11 43 5T27 43Q27 67 43 83T82 100Q105 100 121 83T138 43Z" />
<glyph unicode="/" glyph-name="slash" horiz-adv-x="278" d="M8 -18H-65L313 666H386L8 -18Z" />
<glyph unicode="0" glyph-name="zero" horiz-adv-x="500" d="M497 425Q497 370 483 313T445 203T388 107T316 36Q255 -7 190 -7Q113 -7 73 52T32 216Q32 304 57 387T126 534T224 637T338 676Q415 676 456 612T497 425ZM418 518Q418 578 399 613T334 648Q267 648
214 553Q194 518 176 467T143 360T120 250T111 156Q111 92 133 57T192 21Q227 21 260 46T321 121Q343 159 360 207T391 309T411 415T418 518Z" />
<glyph unicode="1" glyph-name="one" horiz-adv-x="500" d="M404 676Q409 676 409 669Q409 661 403 640L260 121Q257 112 254 101T249 79T244 60T242 47Q242 15 308 15H329V0H50V15Q80 17 99 20T131 30T151 46T162 70L298 558Q302 572 304 580T306 594Q306 625
271 625H268Q254 625 239 625T209 623V638L232 643Q265 650 284 654T320 661T354 667T401 676H404Z" />
<glyph unicode="2" glyph-name="two" horiz-adv-x="500" d="M80 514Q98 559 117 586T162 634Q191 657 223 666T290 676Q326 676 356 663T407 627T440 574T452 507Q452 482 446 459T422 410T376 351T303 273L115 81V76H296Q318 76 333 79T360 89T381 109T399 141L416
134L366 0H12V17L222 241Q320 345 357 428Q366 447 366 482Q366 534 337 568T247 603Q202 603 165 581T101 507L80 514Z" />
<glyph unicode="3" glyph-name="three" horiz-adv-x="500" d="M162 572Q187 626 232 651T333 676Q392 676 428 642T465 554Q465 526 457 505T431 465T383 432T310 401V398Q361 378 383 344T405 254Q405 194 380 144T312 55Q275 23 228 8T127 -7Q73 -7 45 9T16
50Q16 69 27 81T59 93Q73 93 88 87T123 63Q143 46 161 39T194 31Q219 31 243 43T287 77Q307 100 316 134T325 203Q325 284 281 322T165 361H141V377Q175 383 200 389T246 402T283 417T316 437Q378 480 378 543Q378 585 354 609T290 634Q258 634 232 618T178 567L162
572Z" />
<glyph unicode="4" glyph-name="four" horiz-adv-x="500" d="M358 241H454L440 178H339L293 0H214L263 178H1L21 245L438 676H479L358 241ZM369 563L65 245V241H277L373 563H369Z" />
<glyph unicode="5" glyph-name="five" horiz-adv-x="500" d="M468 595H238L199 507Q248 498 289 481T358 437T403 373T419 284Q419 222 396 169T332 77T237 16T121 -7Q76 -7 46 6T15 50Q15 67 26 79T55 92Q67 92 80 86T111 64Q130 48 142 42T175 35Q209 35 240
52T296 98T335 166T350 246Q350 286 336 318T297 371Q283 382 269 391T236 407T192 421T131 432V448L235 666H491L468 595Z" />
<glyph unicode="6" glyph-name="six" horiz-adv-x="500" d="M521 670Q476 664 430 644T342 591T262 518T199 428L203 426Q223 438 248 442T295 447Q329 447 359 434T413 398T449 342T462 271Q462 214 442 164T388 75T307 15T208 -7Q118 -7 74 51T30 208Q30 310
78 404T214 568Q249 596 281 615T349 648T426 671T521 686V670ZM373 289Q373 343 341 377T256 411Q227 411 202 397T158 355Q147 338 138 314T121 263T110 206T106 150Q106 88 134 54T204 19Q239 19 265 36T315 88Q328 107 339 132T357 183T369 237T373 289Z" />
<glyph unicode="7" glyph-name="seven" horiz-adv-x="500" d="M149 -8H79L446 590L444 593H229Q204 593 186 590T153 578T123 556T90 520L75 530L157 666H530L537 656L149 -8Z" />
<glyph unicode="8" glyph-name="eight" horiz-adv-x="500" d="M225 361Q200 388 184 409T157 449T143 486T138 524Q138 560 151 588T189 635T246 665T320 676Q401 676 447 639T493 540Q493 511 484 488T456 445T405 411T329 382V381Q361 351 383 327T418 279T438
232T444 181Q444 139 428 105T383 46T315 7T229 -7Q191 -7 155 2T91 32T47 84T30 161Q30 232 82 283T225 360V361ZM425 530Q425 584 396 618T318 653Q270 653 243 624T216 545Q216 529 220 515T234 484T263 447T311 399Q376 430 400 459T425 530ZM369 155Q369 176
366 192T350 228T313 274T247 344Q179 318 139 267T98 149Q98 118 110 94T142 52T186 25T237 15Q267 15 291 27T332 59T359 104T369 155Z" />
<glyph unicode="9" glyph-name="nine" horiz-adv-x="500" d="M348 274Q308 249 279 239T219 229Q186 229 159 242T111 279T80 336T69 408Q69 468 94 524T162 619Q194 648 232 662T311 676Q399 676 445 617T492 458Q492 353 443 259T300 92Q270 69 242 52T181 23T111
1T23 -17V2Q53 8 77 16T125 37T172 65T224 105Q272 145 306 191T352 272L348 274ZM417 518Q417 581 391 615T318 650Q283 650 257 634T210 589Q184 555 171 509T157 414Q157 347 183 311T257 275Q287 275 316 287T365 321Q375 332 384 354T401 403T413 460T417
518Z" />
<glyph unicode=":" glyph-name="colon" horiz-adv-x="333" d="M261 384Q261 361 245 346T204 330Q181 330 166 345T150 384Q150 408 166 424T205 441Q228 441 244 425T261 384ZM161 43Q161 20 145 5T104 -11Q82 -11 66 5T50 43Q50 66 66 83T106 100Q129 100 145
83T161 43Z" />
<glyph unicode=";" glyph-name="semicolon" horiz-adv-x="333" d="M261 384Q261 361 245 346T204 330Q181 330 166 345T150 384Q150 408 166 424T205 441Q228 441 244 425T261 384ZM26 -111Q66 -85 84 -63T102 -21Q102 -13 98 -7T82 8Q67 19 62 31T57 57Q57 75
71 88T108 101Q135 101 150 79T166 27Q166 -15 133 -55T36 -129L26 -111Z" />
<glyph unicode="&lt;" glyph-name="less" horiz-adv-x="675" d="M84 220V286L592 516V444L172 253L592 62V-10L84 220Z" />
<glyph unicode="=" glyph-name="equal" horiz-adv-x="675" d="M86 320V386H590V320H86ZM86 120V186H590V120H86Z" />
<glyph unicode="&gt;" glyph-name="greater" horiz-adv-x="675" d="M84 -10V62L504 253L84 444V516L592 286V220L84 -10Z" />
<glyph unicode="?" glyph-name="question" horiz-adv-x="500" d="M198 177Q205 214 211 241T230 291T261 338T314 396Q363 445 380 483T398 560Q398 593 377 617T318 642Q285 642 267 630T248 594Q248 584 256 567Q260 559 261 554T262 542Q262 530 250 518T220
506Q202 506 193 519T184 555Q184 579 194 599T222 633T265 656T319 664Q393 664 432 634T472 540Q472 517 468 498T450 458T410 413T341 356Q313 335 293 317T260 280T237 242T223 202L216 174L198 177ZM237 38Q237 17 221 3T184 -12Q161 -12 147 1T132 38Q132
63 147 78T184 93Q206 93 221 77T237 38Z" />
<glyph unicode="@" glyph-name="at" horiz-adv-x="920" d="M698 39Q663 22 634 12T578 -6T526 -15T474 -18Q399 -18 334 8T221 79T146 186T118 319Q118 391 146 454T223 565T338 639T481 666Q556 666 616 642T718 577T783 483T806 373Q806 325 791 283T751 208T693
157T622 138Q587 138 564 156T533 210Q507 175 476 157T412 139Q374 139 348 167T321 244Q321 283 335 328T374 411T437 475T519 501Q542 501 559 489T587 449L597 486H666L605 250Q600 233 599 224T598 211Q598 191 609 181T638 171Q661 171 684 187T725 231T754
295T766 372Q766 425 743 473T681 557T590 614T479 635Q418 635 367 612T279 547T222 447T201 318Q201 253 221 199T279 105T368 43T486 21Q536 21 582 31T686 68L698 39ZM570 394Q570 422 561 439T530 456Q511 456 485 442T439 401Q417 372 405 338T392 265Q392
226 407 204T451 181Q472 181 493 200T532 249T559 317T570 394Z" />
<glyph unicode="A" glyph-name="A" horiz-adv-x="611" d="M319 0V16Q366 18 381 30T396 69Q396 75 396 81T394 95L374 226H154L95 115Q73 74 73 49Q73 35 86 27T135 16V0H-51V16Q-34 19 -22 25T5 48T37 94T83 172L368 668H394L486 115Q491 83 496 65T510 36T531
21T564 16V0H319ZM324 525L175 262H369L324 525Z" />
<glyph unicode="B" glyph-name="B" horiz-adv-x="611" d="M380 653Q588 653 588 503Q588 462 570 435T524 390Q501 374 473 366T413 351V350Q478 330 508 292T539 200Q539 150 519 113T463 50T376 13T264 0H-8V16Q13 19 26 23T48 35T63 58T75 96L196 532Q207 571
207 596Q207 618 192 625T130 637V653H380ZM286 363Q385 363 436 401T487 515Q487 571 459 597T370 623Q341 623 330 619T311 587L248 363H286ZM206 212Q191 155 181 119T171 72Q171 51 188 41T238 30Q281 30 316 41T377 73T417 126T431 200Q431 247 412 278T364
319Q349 324 318 327T238 331L206 212Z" />
<glyph unicode="C" glyph-name="C" horiz-adv-x="667" d="M652 464L634 467Q616 630 485 630Q429 630 379 604T286 533Q232 475 205 395T178 232Q178 126 223 77T353 27Q384 27 411 33T466 53T521 89T582 146L600 131Q566 91 534 63T468 17T401 -9T327 -18Q270
-18 222 -1T140 50T86 132T66 243Q66 296 79 346T118 442T177 525T253 593Q301 628 356 647T472 666Q497 666 527 663T589 649Q604 644 613 643T630 642Q645 642 653 647T668 664H689L652 464Z" />
<glyph unicode="D" glyph-name="D" horiz-adv-x="722" d="M408 653Q474 653 527 636T619 584T679 500T700 384Q700 290 657 215T540 83Q485 40 411 20T249 0H-8V16Q13 20 26 24T48 35T62 56T74 92L196 537Q207 576 207 596Q207 616 192 625T131 637V653H408ZM192
162Q186 139 182 123T175 96T171 79T170 67Q170 30 238 30Q314 30 373 52T479 120Q506 146 526 180T561 252T582 330T589 408Q589 468 569 514T511 588Q488 605 456 614T380 623Q351 623 335 617T310 584L192 162Z" />
<glyph unicode="E" glyph-name="E" horiz-adv-x="611" d="M603 499L581 501Q584 526 584 547Q584 569 576 583T547 606T489 617T392 620Q371 620 358 619T337 615T325 607T319 594L253 361H331Q365 361 385 364T420 377T445 407T470 458L488 454L420 222L400 227Q404
244 405 254T407 279Q407 303 400 310Q383 325 322 325H244L212 213Q193 147 185 112T176 67Q176 49 194 41T255 33Q328 33 374 42T458 72Q482 85 502 107T552 170L568 162L506 0H-1V16Q20 20 33 23T54 34T68 55T80 90L203 532Q208 547 211 567T214 596Q214 616
199 624T137 637V653H634L603 499Z" />
<glyph unicode="F" glyph-name="F" horiz-adv-x="611" d="M613 499L592 501Q594 518 594 523T595 534Q595 561 589 578T562 604T502 617T396 620Q361 620 347 614T328 588L264 361Q327 362 362 364T418 375T451 402T480 455L498 450L422 215L405 220Q410 243 411
256T413 281Q413 311 393 318T338 325Q321 325 302 325T255 328L196 115Q191 96 187 81T182 55Q182 37 198 28T259 16V0H8V16Q30 17 43 22T65 37T79 60T91 94L214 536Q224 572 224 597Q224 607 222 614T211 625T188 632T148 637V653H645L613 499Z" />
<glyph unicode="G" glyph-name="G" horiz-adv-x="722" d="M722 303Q698 301 682 298T655 287T638 266T625 231L576 44Q518 12 462 -3T339 -18Q273 -18 219 1T126 58Q91 94 72 147T52 251Q52 304 65 353T103 447T160 528T235 594Q284 628 339 647T455 666Q486 666
521 661T589 642Q606 635 615 634T633 632Q653 632 666 640T693 666L708 661L659 464L641 467Q638 531 604 573Q556 632 463 632Q403 632 354 606T268 533Q219 470 191 391T162 228Q162 129 214 74T364 19Q398 19 425 27T469 53Q473 57 477 63T485 79T494 107T508
154Q515 179 520 197T528 227T532 249T534 267Q534 296 487 300L455 303V319H722V303Z" />
<glyph unicode="H" glyph-name="H" horiz-adv-x="722" d="M769 637Q748 633 735 629T712 618T697 598T685 563L553 82Q550 70 550 58Q550 47 553 41T565 30T589 22T629 16V0H355V16Q382 18 399 23T427 38T445 61T457 93L521 326H236L170 82Q167 71 167 60Q167
49 169 42T179 30T200 22T237 16V0H-8V16Q13 18 26 22T49 36T64 62T78 102L196 532Q201 552 204 568T208 596Q208 618 193 625T131 637V653H402V637Q357 634 335 618T302 566L248 368H533L579 532Q584 552 588 567T593 595Q593 613 578 623T521 637V653H769V637Z"
/>
<glyph unicode="I" glyph-name="I" horiz-adv-x="333" d="M384 637Q363 634 350 631T329 619T314 597T302 560L182 131Q175 107 171 89T167 55Q167 34 180 28T236 16V0H-8V16Q13 20 26 24T49 36T64 57T76 91L196 532Q201 551 205 566T209 594Q209 613 194 624T137
637V653H384V637Z" />
<glyph unicode="J" glyph-name="J" horiz-adv-x="444" d="M491 637Q470 634 457 631T435 620T421 599T409 563L306 196Q290 139 273 101T235 37Q213 8 181 -5T111 -18Q58 -18 26 6T-6 70Q-6 94 6 110T39 126Q59 126 74 113T90 80Q90 71 89 66T87 53Q87 32 95 23T122
14Q140 14 153 31T175 78L302 532Q314 575 314 596Q314 616 299 624T237 637V653H491V637Z" />
<glyph unicode="K" glyph-name="K" horiz-adv-x="667" d="M722 637Q703 637 685 627T645 600L347 375L515 82Q527 62 535 50T555 31T580 21T619 16V0H344V16L373 19Q419 23 419 51Q419 67 408 88T382 133L259 348L194 111Q188 90 186 79T183 60Q183 37 198 29T254
16V0H7V16Q29 19 42 23T64 34T77 54T88 87L212 532Q217 551 221 566T226 594Q226 614 210 624T147 637V653H417V637Q378 634 354 620T318 563L265 369L418 478Q485 526 523 561T561 615Q561 629 525 634L501 637V653H722V637Z" />
<glyph unicode="L" glyph-name="L" horiz-adv-x="556" d="M501 0H-8V16Q13 18 26 21T47 33T61 56T74 94L196 532Q202 552 204 567T207 594Q207 616 192 625T130 637V653H403V637Q358 634 336 619T302 560L182 131Q177 114 175 101T172 77Q172 65 177 58T194 45T226
38T277 36Q314 36 340 37T386 43T422 54T457 74Q481 90 499 116T539 186L559 180L501 0Z" />
<glyph unicode="M" glyph-name="M" horiz-adv-x="833" d="M872 637Q851 634 838 629T816 616T802 595T791 563L668 120Q663 101 659 86T654 58Q654 38 671 28T735 16L734 0H463V16Q487 19 504 24T532 38T551 63T565 102L691 561L315 0H298L236 546L118 118Q114
104 112 88T109 64Q109 43 125 31T179 16V0H-18V16Q1 18 15 23T39 43T60 82T82 150L196 551Q208 591 208 603Q208 633 134 637V653H315L371 161L706 653H872V637Z" />
<glyph unicode="N" glyph-name="N" horiz-adv-x="667" d="M727 637Q703 632 690 627T666 608T648 567T625 492L479 -15H461L231 535L117 113Q108 81 108 59Q108 38 123 29T178 16V0H-20V16Q1 19 15 25T40 47T62 91T86 168L203 583Q192 609 172 623T117 637V653H277L484
154L590 542Q595 558 596 567T598 586Q598 599 595 608T585 623T564 632T529 637V653H727V637Z" />
<glyph unicode="O" glyph-name="O" horiz-adv-x="722" d="M699 418Q699 363 684 311T640 211T575 123T492 53Q443 20 389 1T278 -18Q229 -18 189 -3T121 43T76 116T60 216Q60 262 73 310T109 404T165 492T237 569Q289 614 349 640T474 666Q528 666 570 649T640
600T684 521T699 418ZM594 481Q594 552 560 592T465 633Q409 633 363 600T279 516Q252 479 231 437T195 351T173 264T165 184Q165 102 198 59T295 15Q346 15 388 41T465 110Q496 149 520 197T561 296T585 394T594 481Z" />
<glyph unicode="P" glyph-name="P" horiz-adv-x="611" d="M387 653Q498 653 551 615T605 505Q605 464 587 426T537 362Q468 305 332 305Q300 305 281 306T242 313L189 120Q184 100 180 84T175 57Q175 40 189 31T244 16V0H0V16Q21 19 34 23T56 35T71 59T84 98L200
512Q210 547 213 565T217 595Q217 615 203 623T146 637V653H387ZM251 347Q262 345 269 344T281 343T291 342T303 342Q350 342 379 347T431 366Q464 385 483 418T502 500Q502 567 468 595T372 623Q351 623 338 616T320 592L251 347Z" />
<glyph unicode="Q" glyph-name="Q" horiz-adv-x="722" d="M59 -153Q88 -133 106 -120T142 -92T181 -60T236 -12Q150 5 105 66T60 225Q60 318 105 409T233 572Q291 621 354 643T474 666Q525 666 567 648T638 598T683 523T699 429Q699 370 681 312T628 200T547 102T443
27Q423 16 406 9T369 -3T329 -11T279 -16L225 -73H250Q276 -73 308 -79T373 -93Q404 -101 431 -107T484 -114Q511 -114 532 -110T573 -97T612 -74T652 -37L668 -48Q657 -64 644 -78T616 -107Q578 -141 531 -161T425 -182Q396 -182 358 -176T277 -156Q245 -145 222
-142T184 -138Q125 -138 69 -169L59 -153ZM594 480Q594 552 560 592T465 633Q408 633 361 603T271 508Q249 475 230 435T197 351T174 264T165 183Q165 107 199 62T289 17Q403 17 487 141Q510 176 529 219T563 307T586 396T594 480Z" />
<glyph unicode="R" glyph-name="R" horiz-adv-x="611" d="M384 653Q484 653 536 615T588 512Q588 476 571 442T522 384Q499 366 470 355T391 333L480 98Q496 54 514 35T567 16V0H420L297 324L231 329L176 126Q168 97 166 84T163 63Q163 52 165 44T175 31T195 22T230
16V0H-13V16Q8 19 21 24T44 39T59 64T72 101L191 532Q196 552 199 567T203 595Q203 603 199 611T189 623Q181 628 172 630T132 637V653H384ZM243 366Q262 363 271 362T294 361Q384 361 433 401T483 511Q483 563 453 593T363 623Q314 623 306 593L243 366Z" />
<glyph unicode="S" glyph-name="S" horiz-adv-x="500" d="M468 467L450 470Q450 508 445 538T427 590T391 622T331 633Q279 633 249 607T219 533Q219 515 221 501T234 471T264 433T318 377Q352 342 374 316T408 267T426 223T431 177Q431 134 416 99T373 37T309
-3T229 -18Q206 -18 183 -13T125 5Q105 13 96 15T78 17Q63 17 52 10T35 -15H17L51 209L71 207Q69 200 69 195T69 184Q69 147 79 117T109 64T155 30T213 17Q271 17 307 52T344 145Q344 161 341 175T331 204T313 233T284 268L245 310Q234 321 225 331T206 352Q183
376 169 395T146 431T135 465T131 502Q131 541 145 571T184 623T240 655T309 666Q332 666 355 663T394 652Q423 641 440 641Q457 641 465 646T485 667H508L468 467Z" />
<glyph unicode="T" glyph-name="T" horiz-adv-x="556" d="M589 489L572 491Q575 516 575 537Q575 577 549 597T474 618H416L279 128Q274 112 270 96T265 62Q265 39 276 31T318 19L353 16V0H65V16Q91 18 109 22T139 35T158 57T172 91L315 618Q256 618 218 614T155
597T112 559T77 494L59 498L101 653H633L589 489Z" />
<glyph unicode="U" glyph-name="U" horiz-adv-x="722" d="M765 637Q742 632 728 626T704 606T685 565T661 488L578 203Q561 146 537 104T481 34Q449 6 411 -6T323 -18Q274 -18 234 -6T164 28T118 80T102 146Q102 187 114 238T146 362L198 551Q202 565 204 576T207
596Q207 616 191 625T127 637V653H399V637Q373 634 357 630T329 615T310 589T295 546L232 320Q212 248 202 203T192 141Q192 114 202 93T231 56T275 32T330 23Q372 23 405 36T465 77T512 149T550 255L614 488Q626 533 631 558T637 591Q637 614 622 623T567 637V653H765V637Z"
/>
<glyph unicode="V" glyph-name="V" horiz-adv-x="611" d="M688 637Q656 636 632 597L259 -18H240L158 485Q149 537 143 566T129 611T109 630T76 637V653H316V637Q269 632 255 622T240 586Q240 576 241 571L306 128L516 488Q539 528 552 558T565 603Q565 617 551
625T503 637V653H688V637Z" />
<glyph unicode="W" glyph-name="W" horiz-adv-x="833" d="M906 637Q892 632 882 628T864 616T848 596T829 562L528 -18H508L458 435H453L231 -18H212L151 496Q147 531 144 553T138 588T131 609T122 622Q115 629 105 631T71 637V653H306V637Q268 633 251 624T234
586Q234 582 234 577T235 566L279 162L451 510L443 575Q441 594 437 606T425 624T404 633T368 637V653H604V637Q566 633 551 623T536 589Q536 584 537 580T538 574L578 162L766 527Q776 546 782 563T789 595Q789 614 775 625T722 637V653H906V637Z" />
<glyph unicode="X" glyph-name="X" horiz-adv-x="611" d="M655 637Q639 632 625 625T595 606T565 580T530 542L361 348L462 93Q471 70 479 57T498 35T525 23T567 16V0H296V16Q341 17 357 26T373 53Q373 63 369 76T359 104L292 269L141 97Q130 85 124 73T118 49Q118
32 133 24T184 16V0H-29V16Q-8 20 9 29T50 59T107 118T191 216L274 313L171 568Q157 604 138 618T76 637V653H339V637Q297 632 283 624T268 596Q268 579 284 540L343 393L488 560Q509 584 509 603Q509 617 495 626T448 637V653H655V637Z" />
<glyph unicode="Y" glyph-name="Y" horiz-adv-x="556" d="M633 637Q622 633 615 629T600 618T584 601T563 576L344 306L308 183Q299 153 294 133T285 98T280 74T278 56Q278 37 290 29T331 19L367 16V0H78V16Q103 17 120 21T149 34T170 58T185 97L244 302L168 569Q162
588 158 600T145 619T125 630T91 637V653H330V637Q285 632 272 625T258 601Q258 590 267 556T294 457L325 347L364 393Q443 486 478 536T513 606Q513 619 504 625T473 634L444 637V653H633V637Z" />
<glyph unicode="Z" glyph-name="Z" horiz-adv-x="556" d="M123 36H284Q317 36 342 37T389 41T426 51T457 68Q498 98 534 172L553 169L499 0H-6V14L473 617H302Q254 617 219 611T160 590Q148 582 140 575T126 557T112 534T94 501L75 506L120 653H606V639L123 36Z" />
<glyph unicode="[" glyph-name="bracketleft" horiz-adv-x="389" d="M384 636H322Q300 636 290 627T275 598L117 -69Q111 -93 111 -98Q111 -126 160 -126H216L209 -153H21L218 663H391L384 636Z" />
<glyph unicode="\" glyph-name="backslash" horiz-adv-x="278" d="M248 -18L-41 666H31L319 -18H248Z" />
<glyph unicode="]" glyph-name="bracketright" horiz-adv-x="389" d="M185 -153H12L19 -126H81Q104 -126 113 -117T128 -85L288 585Q291 597 291 602T292 610Q292 636 243 636H186L193 663H382L185 -153Z" />
<glyph unicode="^" glyph-name="asciicircum" horiz-adv-x="422" d="M354 301L211 590H210L68 301H0L181 666H241L422 301H354Z" />
<glyph unicode="_" glyph-name="underscore" horiz-adv-x="500" d="M0 -125V-75H500V-125H0Z" />
<glyph unicode="`" glyph-name="grave" horiz-adv-x="333" d="M279 492L139 598Q120 613 120 630Q120 647 130 655T156 664Q167 664 176 659T196 641L311 492H279Z" />
<glyph unicode="a" glyph-name="a" horiz-adv-x="501" d="M476 100Q448 66 429 45T394 11T365 -5T337 -10Q297 -10 297 31Q297 40 297 48T300 67T307 97T320 146Q264 61 217 25T117 -11Q75 -11 46 18T17 105Q17 163 43 223T110 331T202 410T303 441Q370 441 383
383L394 431L397 434L458 441L465 438Q463 431 462 428T459 417Q441 353 425 291T397 179T378 95T370 54Q370 41 384 41Q391 41 402 49T436 82L463 111L476 100ZM365 361Q365 387 350 403T309 419Q241 419 178 327Q162 303 148 276T124 220T107 164T101 112Q101
70 117 54T161 38Q180 38 198 47T232 71T262 102T288 136Q323 187 344 247T365 361Z" />
<glyph unicode="b" glyph-name="b" horiz-adv-x="500" d="M164 290Q189 332 212 361T259 408T307 433T357 441Q408 441 440 410T473 321Q473 262 445 203T372 96T269 19T153 -11Q132 -11 109 -7T67 4T36 21T23 42V48L165 571Q174 607 174 618Q174 626 173 631T165
638T145 641T110 643V660Q135 663 155 665T193 671T227 677T263 683L268 678L247 596L163 290H164ZM388 306Q388 352 370 372T318 392Q282 392 248 362T181 277Q164 249 151 218T129 156T114 97T109 46Q109 12 155 12Q221 12 278 71Q300 94 320 123T355 184T379
246T388 306Z" />
<glyph unicode="c" glyph-name="c" horiz-adv-x="444" d="M366 97Q320 39 277 14T177 -11Q107 -11 69 27T30 143Q30 213 64 275T153 380Q190 409 232 425T320 441Q366 441 395 418T425 360Q425 340 411 326T377 312Q356 312 347 324T338 352Q338 366 345 376T353
400Q353 420 316 420Q286 420 258 408T207 372Q165 327 141 267T116 139Q116 85 139 55T205 25Q245 25 277 44T350 107L366 97Z" />
<glyph unicode="d" glyph-name="d" horiz-adv-x="500" d="M527 677L488 525L428 306Q416 263 405 222T384 146T369 89T363 60Q363 40 381 40Q387 40 393 42T408 52T430 74T463 111L475 101Q438 46 402 17T328 -13Q308 -13 298 -1T287 32Q287 41 287 49T289 66T293
89T300 121Q256 47 215 18T122 -11Q73 -11 44 19T15 106Q15 147 27 187T61 265T112 334T173 390T240 427T307 441Q339 441 353 427T372 383H373L418 546Q424 566 426 577T430 596T432 607T432 617Q432 633 421 637T368 643V660Q392 662 411 664T448 669T483 675T521
683L527 677ZM356 361Q356 388 341 403T309 418Q288 418 264 406T218 372Q193 346 172 314T136 246T111 176T102 110Q102 75 118 56T160 37Q194 37 229 66T292 141T338 246T356 361Z" />
<glyph unicode="e" glyph-name="e" horiz-adv-x="444" d="M370 97Q327 44 278 17T166 -11Q105 -11 68 26T31 126Q31 184 56 240T124 341T220 413T330 441Q370 441 391 423T412 373Q412 341 393 311T338 256T248 213T128 186Q120 171 119 154T118 125Q118 83 143
59T211 34Q227 34 242 37T274 49T311 72T358 109L370 97ZM135 208Q167 216 191 223T234 239T267 258T296 282Q319 305 332 330T346 379Q346 397 339 407T311 418Q290 418 267 405T223 369T184 316T152 252L135 208Z" />
<glyph unicode="f" glyph-name="f" horiz-adv-x="278" d="M134 428Q151 482 166 524T206 601Q229 633 260 655T338 678Q375 678 399 661T424 616Q424 599 412 586T382 573Q368 573 357 583T345 612Q345 625 350 630T355 643Q355 656 333 656Q291 656 262 602T211
428H318L312 396H204L132 76Q100 -64 51 -135T-68 -207Q-102 -207 -124 -190T-147 -146Q-147 -129 -136 -117T-109 -104Q-92 -104 -82 -114T-71 -141Q-71 -151 -75 -156T-80 -170Q-80 -186 -60 -186Q2 -186 37 -24L125 396H34L41 428H134Z" />
<glyph unicode="g" glyph-name="g" horiz-adv-x="500" d="M422 366Q429 352 430 340T431 315Q431 283 415 254T373 202T314 165T246 151Q228 151 215 154Q212 155 208 155Q195 155 184 143T172 114Q172 100 191 90T243 72Q315 55 350 23T385 -55Q385 -88 371 -115T330
-163T264 -194T175 -206Q98 -206 53 -179T8 -98Q8 -79 12 -64T29 -33T65 0T125 39Q111 47 105 57T98 78Q98 100 116 121T175 162Q133 177 115 204T96 270Q96 308 113 339T158 393T223 428T297 441Q355 441 395 413Q406 405 411 405H471V366H422ZM352 348Q352 388
338 403T296 419Q273 419 251 406T212 370T185 316T174 247Q174 212 189 192T234 172Q284 172 319 231Q334 257 343 286T352 348ZM325 -90Q325 -56 294 -32T182 17Q172 20 164 22T148 28Q145 28 136 23T117 9T98 -8T83 -24Q72 -38 68 -51T63 -82Q63 -135 96 -159T190
-184Q220 -184 245 -177T288 -156T315 -126T325 -90Z" />
<glyph unicode="h" glyph-name="h" horiz-adv-x="500" d="M478 105Q455 72 437 51T401 16T368 -3T332 -9Q312 -9 300 2T288 33Q288 50 308 125L363 332Q366 344 368 353T370 365Q370 376 365 383T342 390Q328 390 310 379T272 350T231 306T190 250Q175 227 164
207T142 160T120 96T94 0H19L165 554Q171 577 174 591T178 616Q178 629 165 635T137 641H110V656Q132 659 151 661T189 667T226 674T267 683L274 677L153 230Q221 340 278 390T383 441Q418 441 433 422T448 374Q448 355 436 304T400 181Q394 161 388 141T378 104T370
73T367 56Q367 48 371 43T383 38Q389 38 395 41T410 52T432 76T465 118L478 105Z" />
<glyph unicode="i" glyph-name="i" horiz-adv-x="278" d="M264 599Q264 578 250 563T215 548Q193 548 180 562T167 601Q167 624 180 639T214 654Q234 654 249 638T264 599ZM235 103Q214 71 197 50T165 15T133 -5T98 -11Q49 -11 49 44Q49 73 71 155L119 332Q123
346 125 358T128 376Q128 391 116 395T64 400V416Q79 417 91 418T121 422T162 429T224 441L228 438L134 95Q130 82 127 72T124 51Q124 36 138 36Q151 36 170 53T222 114L235 103Z" />
<glyph unicode="j" glyph-name="j" horiz-adv-x="278" d="M279 598Q279 578 264 563T229 548Q206 548 191 562T175 600Q175 623 191 637T228 652Q248 652 263 636T279 598ZM142 28Q111 -94 66 -150T-45 -207Q-80 -207 -102 -190T-124 -146Q-124 -128 -112 -115T-83
-102Q-63 -102 -54 -112T-44 -139Q-44 -147 -46 -151T-50 -159T-54 -164T-56 -173Q-56 -185 -38 -185Q-23 -185 -11 -176T12 -146T35 -90T59 -3L131 289Q140 326 143 343T147 369Q147 386 137 393T99 400H73V416Q97 418 138 424T242 441L246 438L142 28Z" />
<glyph unicode="k" glyph-name="k" horiz-adv-x="444" d="M461 412Q443 411 427 405T386 383T327 337T236 258L273 170Q302 101 321 71T354 41Q365 41 375 50T399 83Q403 89 406 95T414 109L429 98Q412 66 398 46T371 12T346 -6T318 -11Q296 -11 279 6T237 71Q230
84 222 101T206 138T191 176T177 212L137 180L89 0H14L155 528Q165 564 168 583T173 616Q171 630 160 635T122 640H104V656Q148 661 182 667T261 683L267 677L147 221L190 254Q333 364 333 394Q333 412 296 412H282V428H461V412Z" />
<glyph unicode="l" glyph-name="l" horiz-adv-x="278" d="M126 93Q118 64 118 50Q118 32 135 32Q146 32 163 45T202 89L227 124L241 114Q218 78 200 54T164 16T128 -5T90 -11Q41 -11 41 45Q41 51 42 59T45 75L182 599Q184 607 184 611T185 618Q185 627 173 633T136
640H118V656Q162 661 195 667T273 683L279 678L126 93Z" />
<glyph unicode="m" glyph-name="m" horiz-adv-x="722" d="M699 98Q659 42 625 17T555 -9Q515 -9 515 37Q515 45 517 59T528 103L586 330Q593 358 593 368Q593 377 587 383T573 389Q550 389 515 357T442 272Q424 246 410 222T384 168T361 98T334 0H259L286 93Q302
150 315 197T336 280T349 337T354 364Q354 389 332 389Q306 389 266 350T183 246Q170 226 161 208T141 163T118 98T87 0H12L55 144Q85 244 97 303T110 372Q110 394 69 394H44V410L206 441L209 439L151 230Q218 339 271 390T371 441Q401 441 416 425T431 381Q431
367 421 327T391 229Q417 271 438 301T479 355T515 393T551 421Q569 432 584 436T614 441Q642 441 657 423T672 378Q672 373 671 364T669 350L601 99Q596 82 594 70T591 54Q591 38 603 38Q616 38 630 50T668 91L689 117L704 105L699 98Z" />
<glyph unicode="n" glyph-name="n" horiz-adv-x="500" d="M474 104Q448 69 430 47T397 13T367 -4T334 -9Q315 -9 301 3T287 45Q287 49 287 53T289 66T294 87T303 120L347 282Q353 305 357 328T361 361Q361 390 337 390Q307 390 272 354T189 248Q172 223 161 204T140
159T119 96T89 0H14L110 350Q112 360 112 367Q112 382 99 387T47 394V410Q77 416 99 420T138 427T172 434T209 441L213 439L146 221Q183 281 215 323T275 391T328 429T377 441Q409 441 425 424T442 380Q442 366 440 351T432 320L376 117Q368 90 365 76T362 56Q362
49 365 44T378 38Q389 38 403 50T439 91Q444 97 449 103T460 117L474 104Z" />
<glyph unicode="o" glyph-name="o" horiz-adv-x="500" d="M468 301Q468 244 440 183T362 72Q318 28 271 9T174 -11Q103 -11 65 25T27 128Q27 170 40 211T78 290T135 359T207 411Q236 427 266 434T327 441Q388 441 428 404T468 301ZM384 326Q384 372 365 396T313
420Q246 420 185 329Q150 276 131 219T111 101Q111 56 132 33T189 10Q222 10 251 31T310 93Q327 117 341 145T364 204T379 266T384 326Z" />
<glyph unicode="p" glyph-name="p" horiz-adv-x="504" d="M186 328Q227 389 269 415T357 441Q413 441 442 408T472 316Q472 254 446 195T378 91T283 17T175 -11Q158 -11 142 -8T106 6Q100 -20 93 -47T80 -98T70 -138T66 -160Q66 -177 79 -183T128 -189V-205H-75V-189Q-43
-188 -30 -175T-7 -126L108 306Q116 336 120 354T124 377Q124 395 108 399T80 404H58L56 419L212 441Q217 441 217 437Q216 436 216 434Q216 432 216 431T215 428L186 328ZM382 313Q382 356 368 377T320 398Q300 398 280 389T241 364T209 327T185 284Q174 256 163
220T142 150T126 87T120 46Q120 29 133 19T168 8Q246 8 313 103Q349 154 365 207T382 313Z" />
<glyph unicode="q" glyph-name="q" horiz-adv-x="500" d="M319 -151Q317 -159 317 -162Q317 -193 374 -193H389V-209H152V-193Q199 -190 217 -178T243 -137L333 153Q303 105 278 74T228 24T179 -3T125 -11Q77 -11 51 20T25 105Q25 164 51 224T120 332T214 410T318
441Q349 441 368 427T395 379L411 428H484L319 -151ZM380 359Q380 384 363 401T321 419Q299 419 276 406T228 370Q202 346 181 315T144 251T120 184T111 119Q111 84 123 63T164 42Q183 42 204 51T246 78Q271 100 295 135T338 209T368 288T380 359Z" />
<glyph unicode="r" glyph-name="r" horiz-adv-x="389" d="M192 258Q206 290 230 327T286 396Q306 416 327 428T365 441Q386 441 399 427T412 390Q412 367 400 352T365 336Q351 336 344 343T330 362Q322 376 314 376Q287 376 232 282Q216 254 204 230T179 176T154
105T121 0H45L126 292Q131 311 134 323T139 344T141 359T142 374Q142 390 131 395T104 400Q98 400 91 400T73 397V414L228 441L231 439L176 223L192 258Z" />
<glyph unicode="s" glyph-name="s" horiz-adv-x="389" d="M346 302H330Q322 365 300 391T241 418Q215 418 199 404T182 361Q182 341 194 318T236 259Q274 215 289 184T304 123Q304 60 264 25T160 -11Q147 -11 135 -10T105 -1Q91 5 80 6T61 8Q53 8 45 4T32 -13H16L36
146H52Q63 74 88 42T152 10Q187 10 207 30T228 87Q228 111 215 138T172 202Q140 243 125 276T109 333Q109 383 141 412T230 441Q243 441 255 439T286 431Q300 426 308 425T322 424Q333 424 339 427T352 442H366L346 302Z" />
<glyph unicode="t" glyph-name="t" horiz-adv-x="278" d="M291 396H207L120 68Q118 60 118 54Q118 44 122 41T133 38Q139 38 145 41T161 54T183 78T214 117L227 110Q204 75 187 52T153 15T120 -5T84 -11Q64 -11 51 -2T38 26Q38 34 43 55T54 100L132 396H57Q56
397 56 400V402Q56 410 63 416T89 427Q101 430 118 439T154 464T190 498T222 537Q228 546 236 546Q245 546 245 538V535Q245 533 245 533T244 531L216 428H296L291 396Z" />
<glyph unicode="u" glyph-name="u" horiz-adv-x="500" d="M475 110Q451 73 433 50T400 13T370 -4T337 -9Q314 -9 302 3T289 39Q289 56 299 105T334 236Q290 163 257 116T197 40T146 1T95 -11Q42 -11 42 42Q42 56 48 85T69 170L104 309Q110 334 114 352T118 376Q118
388 107 394Q104 396 101 397T93 399T80 400T57 400V414Q78 417 96 419T132 425T167 432T207 441L211 438L122 83Q121 81 120 76T119 67Q119 42 139 42Q165 42 199 80T281 189Q299 216 311 238T335 287T360 347T391 432H465L386 133Q384 126 381 115T375 92T370
70T367 55Q367 38 378 38Q384 38 390 41T406 53T429 78T461 119L475 110Z" />
<glyph unicode="v" glyph-name="v" horiz-adv-x="444" d="M238 102Q265 130 290 163T333 228T363 287T375 333Q375 341 371 347T357 362Q343 374 338 384T332 407Q332 423 343 432T370 441Q382 441 392 436T410 422T422 403T426 382Q426 350 408 309T363 227Q346
201 328 177T294 132T264 96T244 74Q202 29 180 6T145 -18Q136 -18 136 9V33Q136 59 134 95T129 169T122 245T112 311Q107 339 102 357T91 386T75 400T51 404Q43 404 36 404T20 403V416Q54 421 81 426T132 437Q143 441 152 441Q155 441 157 439T162 425T169 390T182
327Q187 302 190 278T197 224T202 158T207 70L238 102Z" />
<glyph unicode="w" glyph-name="w" horiz-adv-x="667" d="M435 74Q484 135 516 177T566 249T592 298T600 334Q600 343 595 350T578 369Q566 380 562 389T557 410Q557 422 568 431T596 441Q619 441 633 425T648 385Q648 337 594 250T436 36L427 25Q407 0 398 -9T382
-18Q377 -18 375 -11T371 17L342 327L253 175Q239 152 226 128T198 76Q171 24 157 3T134 -18Q127 -18 125 -9T121 29L117 120Q115 153 113 188T107 255T99 316T90 362Q83 390 74 397T43 404H15V417Q38 421 62 424T110 434Q120 436 127 438T139 441Q147 441 150
436T158 407Q163 381 168 347T177 274T185 198T190 126L382 430Q388 440 395 440Q403 440 403 426L435 74Z" />
<glyph unicode="x" glyph-name="x" horiz-adv-x="444" d="M255 298Q281 338 302 365T340 409T373 433T406 441Q424 441 435 431T447 404Q447 388 438 378T413 368Q399 368 389 376T361 385Q347 385 322 354T263 264Q263 259 264 248T271 219L303 85Q313 44 333
44Q343 44 353 52T380 84Q387 93 391 98T401 112L416 103Q394 69 378 47T348 12T321 -6T294 -11Q270 -11 257 4T235 57L206 176L118 57Q101 35 89 22T66 1T45 -8T23 -11Q0 -11 -13 0T-27 31Q-27 46 -18 56T7 67Q19 67 39 56Q54 47 65 47Q73 47 86 60T116 96L198
212L170 336Q165 358 161 371T151 392T140 402T124 404Q112 404 85 397L67 392L64 408L75 412Q121 429 148 435T192 441Q211 441 221 424T243 355L255 298Z" />
<glyph unicode="y" glyph-name="y" horiz-adv-x="444" d="M264 76Q296 129 319 169T357 241T379 294T386 333Q386 344 380 350T360 365Q345 375 340 383T334 404Q334 421 345 431T374 441Q397 441 411 425T426 386Q426 343 392 264T295 81Q256 16 218 -36T144
-127T78 -185T27 -206Q4 -206 -10 -195T-24 -163Q-24 -146 -13 -135T15 -123Q28 -123 35 -127T49 -137T60 -146T76 -151Q86 -151 96 -144T124 -118Q131 -111 141 -98T163 -70T183 -44T195 -27Q205 -7 205 8Q205 18 201 42T190 97T174 163T156 232T139 294T123 340Q109
377 93 390T46 404Q30 404 15 400V417Q23 419 31 420T47 423Q62 426 87 430T154 441H158Q162 441 168 429T183 395T200 347T217 292T232 236T243 186L264 76Z" />
<glyph unicode="z" glyph-name="z" horiz-adv-x="389" d="M91 73Q113 68 128 63T157 49T183 26T211 -10Q231 -39 246 -49T281 -60Q293 -60 300 -56T308 -45Q308 -40 303 -30Q295 -14 295 -2Q296 11 306 21T328 32Q344 32 353 22T363 -5Q363 -35 338 -58T270 -81Q248
-81 222 -71T157 -37Q122 -15 97 -5T52 5Q29 5 7 -13L-2 -4L308 368H172Q152 368 139 366T115 358T96 339T81 308L65 312L97 428H380V417L91 73Z" />
<glyph unicode="{" glyph-name="braceleft" horiz-adv-x="400" d="M404 676Q381 670 364 661T334 638T312 603T295 552L250 384Q242 353 232 332T209 295T178 271T136 255Q165 242 178 227T192 192Q192 178 180 126T148 2Q136 -44 131 -66T126 -100Q126 -128 138
-143T179 -166L176 -177Q107 -175 79 -158T51 -99Q51 -81 58 -47T83 45Q100 102 108 141T117 198Q117 220 105 232T64 255Q88 261 104 269T133 291T153 323T170 369L218 547Q229 587 244 613T281 656T334 680T407 687L404 676Z" />
<glyph unicode="|" glyph-name="bar" horiz-adv-x="275" d="M105 -18V666H171V-18H105Z" />
<glyph unicode="}" glyph-name="braceright" horiz-adv-x="400" d="M224 687Q293 685 321 668T349 609Q349 592 342 557T317 465Q300 408 292 369T283 312Q283 290 295 278T336 255Q312 249 295 241T266 219T246 187T230 141L182 -37Q171 -77 156 -103T119 -146T66
-170T-7 -177L-4 -166Q19 -160 36 -151T66 -128T88 -93T105 -42L150 126Q158 157 167 178T190 215T221 239T264 255Q235 268 222 282T208 318Q208 332 220 384T252 508Q264 552 269 575T274 609Q274 637 262 652T221 676L224 687Z" />
<glyph unicode="~" glyph-name="asciitilde" horiz-adv-x="541" d="M502 273Q485 248 470 232T440 205T410 191T377 187Q343 187 321 196T274 220Q268 224 256 230T229 241T197 251T161 255Q138 255 114 238T76 183L40 233Q63 278 95 298T162 319Q196 319 222
310T276 288Q283 285 295 279T320 267T348 256T373 251Q388 251 399 254T420 266T441 288T466 323L502 273Z" />
<glyph unicode="&#xa0;" glyph-name="space" horiz-adv-x="250" />
</font>
</defs>
</svg>
