<?xml version="1.0" standalone="no"?> <!DOCTYPE svg PUBLIC "-//W3C//DTD SVG 1.0//EN" "http://www.w3.org/TR/2001/REC-SVG-20010904/DTD/svg10.dtd" > <svg xmlns="http://www.w3.org/2000/svg" width="100%" height="100%">
<defs >
<font horiz-adv-x="581" ><font-face
    font-family="STIXGeneralUnicodeBoldItalic"
    units-per-em="1000"
    panose-1="0 0 0 0 0 0 0 0 0 0"
    ascent="1042"
    descent="-455"
    alphabetic="0" />
<missing-glyph horiz-adv-x="250" />
<glyph unicode=" " glyph-name="space" horiz-adv-x="250" />
<glyph unicode="&#xa0;" glyph-name="uni00A0" horiz-adv-x="250" />
<glyph unicode="&#xa1;" glyph-name="exclamdown" horiz-adv-x="389" d="M320 423Q320 391 299 370T247 348Q232 348 219 354T196 370T180 394T174 423Q174 453 195 473T248 494Q280 494 300 474T320 423ZM222 267Q199 151 186 61T169 -87Q167 -118 165 -131T157
-159Q135 -205 88 -205Q56 -205 38 -185T19 -131Q19 -121 20 -113T25 -96T35 -74T50 -43Q93 39 127 116T193 275L222 267Z" />
<glyph unicode="&#xa2;" glyph-name="cent" horiz-adv-x="500" d="M386 449Q439 420 439 370Q439 341 421 322T374 302Q353 302 339 313L247 52Q279 54 306 75T365 141L392 123Q368 89 349 66T310 28T271 4T225 -10L178 -143H144L190 -13Q119 -8 81 31T42 138Q42
198 66 256T131 360T222 434T327 462Q334 462 340 462T355 459L396 576H431L386 449ZM339 415Q337 429 317 429Q272 429 231 356Q217 332 206 305T187 249T174 195T169 147Q169 83 214 57L339 413V415Z" />
<glyph unicode="&#xa3;" glyph-name="sterling" horiz-adv-x="500" d="M150 370Q159 416 169 451T190 514T215 564T248 607Q280 644 319 663T401 683Q449 683 479 657T510 592Q510 563 493 544T449 524Q426 524 411 538T396 575Q396 583 397 591T400 609Q403 619
403 628Q403 637 397 643T379 649Q334 649 319 572L280 370H394L384 310H269Q259 266 242 220T205 141L194 124Q239 107 266 100T319 92Q337 92 350 95T373 105T392 124T409 155H434Q425 111 415 87T389 41Q369 16 342 2T283 -12Q251 -12 223 1T156 49Q136 17 113
3T58 -11Q18 -11 -7 13T-32 75Q-32 114 -6 138T64 162Q80 162 92 159T125 148Q128 173 129 189T133 222T137 259T144 310H35L45 370H150ZM113 90Q95 107 81 113T49 120Q26 120 12 107T-2 70Q-2 47 13 33T54 19Q97 19 113 90Z" />
<glyph unicode="&#xa4;" glyph-name="currency" horiz-adv-x="500" d="M468 -10L372 88Q340 68 312 60T250 51Q217 51 189 59T128 88L32 -10L-26 48L72 146Q52 175 44 203T35 266Q35 301 43 329T72 388L-26 486L32 542L128 446Q158 465 186 473T250 481Q285 481
313 473T372 446L468 542L526 486L428 388Q448 356 456 329T465 266Q465 231 457 202T428 146L526 48L468 -10ZM377 264Q377 292 367 317T340 360T300 388T250 399Q223 399 200 389T160 361T133 319T123 266Q123 238 133 214T160 172T200 144T250 133Q276 133 299
143T339 172T367 213T377 264Z" />
<glyph unicode="&#xa5;" glyph-name="yen" horiz-adv-x="500" d="M628 644Q598 638 579 623T535 575L369 342H504L491 292H341L320 214H472L458 164H306L303 153Q294 120 291 101T287 68Q287 56 290 48T302 36T327 29T368 25V0H46V25Q75 27 93 30T123 42T142 63T155
97L174 164H33L47 214H188L210 292H68L82 342H207L128 581Q122 600 116 611T102 629T80 638T46 644V669H326V644Q283 642 267 636T251 612Q251 598 257 580L337 344L472 538Q488 561 493 572T498 598Q498 624 484 633T428 644V669H628V644Z" />
<glyph unicode="&#xa6;" glyph-name="brokenbar" horiz-adv-x="220" d="M66 426V685H154V426H66ZM66 -18V241H154V-18H66Z" />
<glyph unicode="&#xa7;" glyph-name="section" horiz-adv-x="500" d="M223 422Q168 483 168 551Q168 581 179 605T211 647T259 675T323 685Q383 685 421 658T459 587Q459 561 443 543T401 525Q378 525 362 541T346 580Q346 595 351 603T364 616T376 624T382 635Q382
646 364 654T323 663Q285 663 262 643T238 590Q238 566 253 539T307 468L376 387Q405 353 420 316T435 243Q435 182 401 152T318 121Q304 121 288 125L286 121Q318 80 331 52T345 -9Q345 -37 333 -61T298 -104T245 -132T181 -143Q150 -143 124 -135T78 -113T47
-79T36 -38Q36 -12 52 5T94 23Q119 23 134 9T150 -28Q150 -40 145 -47T133 -61T121 -74T115 -91Q115 -102 135 -111T182 -120Q220 -120 244 -99T268 -44Q268 -32 265 -21T253 4T228 40T184 93L118 173Q92 205 80 236T68 299Q68 362 98 393T172 425Q182 425 196
423T221 419L223 422ZM364 206Q364 231 346 264T301 328T246 379T195 400Q171 400 155 384T139 342Q139 326 146 306T168 266Q187 240 208 215T247 175Q264 160 276 154T305 148Q329 148 346 165T364 206Z" />
<glyph unicode="&#xa8;" glyph-name="dieresis" horiz-adv-x="333" d="M397 589Q397 563 378 544T331 525Q305 525 286 544T267 589Q267 616 286 635T331 655Q358 655 377 636T397 589ZM185 589Q185 563 166 544T119 525Q93 525 74 544T55 589Q55 616 74 635T119
655Q146 655 165 636T185 589Z" />
<glyph unicode="&#xa9;" glyph-name="copyright" horiz-adv-x="747" d="M527 178Q525 170 524 168T515 164Q513 163 511 162T503 160T489 156T463 149Q442 143 430 142T397 140Q295 140 238 191T180 335Q180 381 196 418T241 482T312 523T405 538Q432 538 455
534T505 520Q527 511 527 499V428H510Q491 518 400 518Q335 518 300 473T265 342Q265 255 301 209T403 163Q447 163 475 183T526 250H544L527 178ZM718 334Q718 259 692 195T618 83T508 9T369 -18Q299 -18 237 9T129 84T57 196T30 332Q30 406 56 470T129 582T239
657T374 685Q446 685 508 658T617 583T691 472T718 334ZM657 334Q657 396 635 451T574 548T484 614T374 639Q316 639 265 615T175 549T114 452T91 333Q91 271 113 216T174 119T262 53T370 28Q430 28 482 52T573 117T634 214T657 334Z" />
<glyph unicode="&#xaa;" glyph-name="ordfeminine" horiz-adv-x="266" d="M284 540Q272 504 267 484T262 451Q262 442 267 442Q278 442 308 478L313 484L326 475Q297 435 275 417T229 399Q211 399 198 410T185 437Q185 441 185 445T187 454T190 467T196 488Q168
439 144 420T86 400Q54 400 35 421T16 476Q16 512 32 549T75 616T133 666T196 685Q216 685 227 675T243 640L254 676L330 680L284 540ZM218 630Q218 641 213 649T198 658Q185 658 167 639T133 591T106 530T94 473Q94 462 101 454T118 445Q133 445 149 461T182 507Q189
521 195 538T207 572T215 604T218 630Z" />
<glyph unicode="&#xab;" glyph-name="guillemotleft" horiz-adv-x="500" d="M367 350Q385 363 394 370T414 387Q442 415 455 415Q460 415 464 412T468 403Q468 387 445 356T367 269Q354 255 346 245T322 220L362 137Q379 101 387 80T395 47Q395 41 391 37T380
32Q374 32 365 42Q347 62 304 106T197 217V226L367 350ZM182 350Q200 363 209 370T229 387Q257 415 270 415Q275 415 279 412T283 403Q283 387 260 356T182 269Q169 255 160 246T137 220L177 137Q194 101 202 80T210 47Q210 41 206 37T195 32Q189 32 180 42Q162
62 119 106T12 217V226L182 350Z" />
<glyph unicode="&#xac;" glyph-name="logicalnot" horiz-adv-x="606" d="M467 108V311H51V399H555V108H467Z" />
<glyph unicode="&#xad;" glyph-name="uni00AD" horiz-adv-x="333" d="M248 166H2L26 282H271L248 166Z" />
<glyph unicode="&#xae;" glyph-name="registered" horiz-adv-x="747" d="M492 151Q478 151 464 168T424 232Q417 244 412 254T400 273T388 293T372 317H328V216Q328 200 328 191T333 178T348 171T376 167V151H210V167Q228 169 237 171T251 177T256 191T257 216V463Q257
479 257 487T252 500T238 507T210 511V527H393Q447 527 478 502T510 432Q510 358 429 328L488 246Q511 213 528 194T562 162V151H492ZM369 337Q402 337 419 360T437 428Q437 506 368 506H328V337H369ZM718 334Q718 259 692 195T618 83T508 9T369 -18Q299 -18 237
9T129 84T57 196T30 332Q30 406 56 470T129 582T239 657T374 685Q446 685 508 658T617 583T691 472T718 334ZM657 334Q657 396 635 451T574 548T484 614T374 639Q316 639 265 615T175 549T114 452T91 333Q91 271 113 216T174 119T262 53T370 28Q430 28 482 52T573
117T634 214T657 334Z" />
<glyph unicode="&#xaf;" glyph-name="macron" horiz-adv-x="333" d="M377 553H51L68 623H393L377 553Z" />
<glyph unicode="&#xb0;" glyph-name="degree" horiz-adv-x="400" d="M369 545Q369 515 358 489T328 444T282 413T226 402Q196 402 170 413T125 443T94 489T83 545Q83 575 94 601T124 646T170 677T226 688Q256 688 282 677T327 647T358 601T369 545ZM314 545Q314
582 289 607T226 633Q189 633 164 608T138 545Q138 508 163 483T226 457Q263 457 288 482T314 545Z" />
<glyph unicode="&#xb1;" glyph-name="plusminus" horiz-adv-x="570" d="M329 271V128H241V271H33V359H241V568H329V359H537V271H329ZM33 0V88H537V0H33Z" />
<glyph unicode="&#xb2;" glyph-name="twosuperior" horiz-adv-x="300" d="M61 585Q114 683 205 683Q228 683 247 676T281 655T304 623T313 584Q313 548 292 516T221 444L96 343H185Q204 343 217 345T239 352T257 365T275 388H291L240 274H2V290Q39 326 63 348T102
386T128 412T150 435Q188 477 204 504T220 556Q220 587 205 604T161 622Q139 622 121 612T79 574L61 585Z" />
<glyph unicode="&#xb3;" glyph-name="threesuperior" horiz-adv-x="300" d="M89 603Q119 645 150 664T222 683Q264 683 292 660T321 602Q321 588 318 578T307 557T285 537T249 515L242 511Q271 491 282 472T294 423Q294 390 279 362T238 312T177 278T103 265Q61
265 39 278T17 315Q17 333 27 344T54 356Q78 356 97 328Q105 317 110 311T119 302T127 299T139 298Q169 298 189 324T210 390Q210 477 110 481L112 495Q233 517 233 580Q233 604 219 618T178 632Q157 632 141 623T103 590L89 603Z" />
<glyph unicode="&#xb4;" glyph-name="acute" horiz-adv-x="333" d="M261 647Q288 676 302 686T331 697Q351 697 365 684T379 650Q379 636 371 626T340 603L188 516H139L261 647Z" />
<glyph unicode="&#xb5;" glyph-name="mu" horiz-adv-x="576" d="M412 113Q407 96 407 86Q407 72 419 72Q430 72 444 86T482 134L504 118Q477 79 456 54T415 13T378 -7T338 -13Q310 -13 293 4T275 50Q275 64 277 76T286 118Q266 84 250 62T218 26T187 6T154 0Q136
0 118 6T92 24Q81 -8 75 -42T69 -109Q69 -156 49 -181T-10 -207Q-38 -207 -49 -189T-60 -141Q-60 -122 -53 -102T-36 -56T-12 0T14 74L125 449H260L167 137Q164 126 162 115T160 95Q160 70 179 70Q195 70 215 88T257 137T298 205T330 285L381 449H516L412 113Z"
/>
<glyph unicode="&#xb6;" glyph-name="paragraph" horiz-adv-x="617" d="M673 644Q644 644 627 642T601 633T585 610T572 568L406 -68Q403 -81 399 -97T395 -128Q395 -142 405 -153T440 -166L463 -168L456 -193H285L502 644H447L230 -193H60L67 -168Q105 -165 121
-162T145 -150Q148 -147 150 -143T156 -129T163 -106T173 -68L258 258Q191 258 152 290T113 391Q113 419 119 449T135 508T159 561T189 603Q250 669 384 669H679L673 644ZM358 644Q334 638 316 631T284 614T259 591T237 559Q217 524 205 479T192 394Q192 355 210
325T264 283L358 644Z" />
<glyph unicode="&#xb7;" glyph-name="periodcentered" horiz-adv-x="250" d="M199 331Q199 299 178 278T124 257Q92 257 72 278T51 331Q51 363 72 384T126 405Q156 405 177 383T199 331Z" />
<glyph unicode="&#xb8;" glyph-name="cedilla" horiz-adv-x="333" d="M40 -62Q48 -60 53 -60T66 -59Q105 -59 130 -79T156 -131Q156 -169 121 -193T32 -218Q5 -218 -21 -213T-80 -193L-58 -160Q-36 -170 -22 -173T9 -177Q35 -177 50 -166T65 -136Q65 -100 18 -100Q4
-100 -12 -104L-25 -92L41 5H85L40 -62Z" />
<glyph unicode="&#xb9;" glyph-name="onesuperior" horiz-adv-x="300" d="M201 353Q195 335 195 319Q195 302 206 298T254 293V274H30V293Q51 293 65 296T88 308T105 332T118 373Q120 379 123 389T131 414Q140 440 151 474T171 539T186 591T191 613Q186 634 165
634Q160 634 152 634T133 632L122 631L124 652Q151 656 173 659T215 666T256 674T301 683L201 353Z" />
<glyph unicode="&#xba;" glyph-name="ordmasculine" horiz-adv-x="300" d="M347 587Q347 549 331 516T289 456T230 415T162 400Q116 400 86 425T56 489Q56 526 71 561T113 624T173 668T243 685Q291 685 319 658T347 587ZM266 627Q266 644 260 654T241 665Q223
666 209 653T181 617Q172 602 164 581T150 538T141 493T137 455Q137 420 165 420Q183 420 198 435T230 485Q244 516 255 556T266 627Z" />
<glyph unicode="&#xbb;" glyph-name="guillemotright" horiz-adv-x="500" d="M298 97Q280 83 271 76T251 59Q222 32 210 32Q197 32 197 44Q197 60 220 91T298 178L343 227L303 310Q285 347 278 367T270 400Q270 406 274 410T285 415Q291 415 300 405Q315 388 329
372T363 337T407 293T468 230V221L298 97ZM113 97Q95 83 86 76T66 59Q37 32 25 32Q12 32 12 44Q12 60 35 91T113 178L158 227L118 310Q100 347 93 367T85 400Q85 406 89 410T100 415Q106 415 115 405Q130 388 144 372T178 337T222 293T283 230V221L113 97Z" />
<glyph unicode="&#xbc;" glyph-name="onequarter" horiz-adv-x="750" d="M643 149H688L671 88H627L599 0H513L540 88H381L397 155L675 410H721L643 149ZM425 149H557L609 319L425 149ZM194 -14H136L571 683H629L194 -14ZM178 353Q172 335 172 319Q172 302 183
298T231 293V274H7V293Q28 293 42 296T65 308T81 332T95 373Q97 382 100 392T108 414Q118 446 129 479T148 541T162 589T168 613Q168 621 161 627T142 634Q137 634 129 634T110 632L99 631L101 652Q128 656 150 659T192 666T233 674T278 683L178 353Z" />
<glyph unicode="&#xbd;" glyph-name="onehalf" horiz-adv-x="750" d="M471 311Q524 409 615 409Q638 409 657 402T691 381T714 349T723 310Q723 274 702 242T631 170L506 69H595Q614 69 627 71T649 78T667 91T685 114H701L650 0H412V16Q449 52 473 74T512 112T538
138T560 161Q598 203 614 230T630 282Q630 313 615 330T571 348Q549 348 531 338T489 300L471 311ZM179 -14H121L556 683H614L179 -14ZM162 353Q156 335 156 319Q156 302 167 298T215 293V274H-9V293Q12 293 26 296T49 308T65 332T79 373Q81 382 84 392T92 414Q102
446 113 479T132 541T146 589T152 613Q152 621 145 627T126 634Q121 634 113 634T94 632L83 631L85 652Q112 656 134 659T176 666T217 674T262 683L162 353Z" />
<glyph unicode="&#xbe;" glyph-name="threequarters" horiz-adv-x="750" d="M648 149H693L676 88H632L604 0H518L545 88H386L402 155L680 410H726L648 149ZM430 149H562L614 319L430 149ZM199 -14H141L576 683H634L199 -14ZM79 603Q109 645 140 664T212 683Q254
683 282 660T311 602Q311 588 308 578T297 557T275 537T239 515L232 511Q261 491 272 472T284 423Q284 390 269 362T228 312T167 278T93 265Q51 265 29 278T7 315Q7 333 17 344T44 356Q68 356 87 328Q95 317 100 311T109 302T117 299T129 298Q159 298 179 324T200
389Q200 477 100 481L102 495Q223 517 223 580Q223 604 209 618T168 632Q147 632 131 623T93 590L79 603Z" />
<glyph unicode="&#xbf;" glyph-name="questiondown" horiz-adv-x="500" d="M421 418Q421 386 400 365T346 344Q316 344 295 366T273 418Q273 450 294 471T348 492Q380 492 400 471T421 418ZM221 54Q187 12 172 -23T157 -94Q157 -132 175 -153T226 -174Q250 -174
269 -162T288 -136Q288 -128 277 -114Q259 -90 259 -69Q259 -43 276 -26T320 -9Q346 -9 363 -28T381 -76Q381 -104 368 -127T332 -168T276 -195T206 -205Q126 -205 78 -166T30 -61Q30 -13 59 26T156 110L222 153Q236 162 247 172T267 195T284 226T304 271L333 264Q329
222 313 186T262 105L221 54Z" />
<glyph unicode="&#xc0;" glyph-name="Agrave" horiz-adv-x="667" d="M290 0V25Q367 31 367 74Q367 78 367 81T365 89L353 208H138L81 112Q64 84 64 62Q64 44 78 35T128 25V0H-67L-68 25Q-40 28 -23 46T18 101L388 683H413L507 123Q512 92 517 74T532 45T555 30T593
25V0H290ZM309 491L161 248H346L309 491ZM470 766L338 854Q304 877 304 902Q304 920 317 933T349 947Q363 947 377 940T405 914L516 766H470Z" />
<glyph unicode="&#xc1;" glyph-name="Aacute" horiz-adv-x="667" d="M290 0V25Q367 31 367 74Q367 78 367 81T365 89L353 208H138L81 112Q64 84 64 62Q64 44 78 35T128 25V0H-67L-68 25Q-40 28 -23 46T18 101L388 683H413L507 123Q512 92 517 74T532 45T555 30T593
25V0H290ZM309 491L161 248H346L309 491ZM448 897Q475 926 489 936T518 947Q538 947 552 934T566 900Q566 886 558 876T527 853L375 766H326L448 897Z" />
<glyph unicode="&#xc2;" glyph-name="Acircumflex" horiz-adv-x="667" d="M290 0V25Q367 31 367 74Q367 78 367 81T365 89L353 208H138L81 112Q64 84 64 62Q64 44 78 35T128 25V0H-67L-68 25Q-40 28 -23 46T18 101L388 683H413L507 123Q512 92 517 74T532 45T555
30T593 25V0H290ZM309 491L161 248H346L309 491ZM536 766L448 861L317 766H260L420 940H501L587 766H536Z" />
<glyph unicode="&#xc3;" glyph-name="Atilde" horiz-adv-x="667" d="M612 905Q595 842 568 814T495 786Q481 786 470 788T438 799L379 822Q358 830 341 830Q324 830 314 821T293 787H253Q263 841 294 873T369 905Q407 905 466 879Q486 871 498 867T520 863Q537
863 548 872T571 905H612ZM290 0V25Q367 31 367 74Q367 78 367 81T365 89L353 208H138L81 112Q64 84 64 62Q64 44 78 35T128 25V0H-67L-68 25Q-40 28 -23 46T18 101L388 683H413L507 123Q512 92 517 74T532 45T555 30T593 25V0H290ZM309 491L161 248H346L309 491Z"
/>
<glyph unicode="&#xc4;" glyph-name="Adieresis" horiz-adv-x="667" d="M290 0V25Q367 31 367 74Q367 78 367 81T365 89L353 208H138L81 112Q64 84 64 62Q64 44 78 35T128 25V0H-67L-68 25Q-40 28 -23 46T18 101L388 683H413L507 123Q512 92 517 74T532 45T555
30T593 25V0H290ZM309 491L161 248H346L309 491ZM599 839Q599 813 580 794T533 775Q507 775 488 794T469 839Q469 866 488 885T533 905Q560 905 579 886T599 839ZM387 839Q387 813 368 794T321 775Q295 775 276 794T257 839Q257 866 276 885T321 905Q348 905 367
886T387 839Z" />
<glyph unicode="&#xc5;" glyph-name="Aring" horiz-adv-x="667" d="M290 0V25Q367 31 367 74Q367 78 367 81T365 89L353 208H138L81 112Q64 84 64 62Q64 44 78 35T128 25V0H-67L-68 25Q-40 28 -23 46T18 101L388 683H413L507 123Q512 92 517 74T532 45T555 30T593
25V0H290ZM309 491L161 248H346L309 491ZM546 898Q546 876 538 857T515 823T481 800T439 791Q391 791 362 821T333 899Q333 921 341 940T364 973T398 996T440 1004Q488 1004 517 974T546 898ZM498 896Q498 921 481 938T438 956Q415 956 398 939T381 897Q381 873
398 856T438 839Q463 839 480 856T498 896Z" />
<glyph unicode="&#xc6;" glyph-name="AE" horiz-adv-x="944" d="M873 479L849 484L847 524Q841 637 685 637Q669 637 659 636T643 632T633 622T626 605L561 370H580Q618 370 644 374T690 391T725 423T755 476L781 472L708 199L683 204Q685 216 685 229T686 250Q686
275 682 290T663 316T622 330T553 338L490 97Q485 77 485 69Q485 49 503 41T553 32Q612 32 650 42T723 79Q750 99 774 130T824 199L850 196L791 0H264V25Q283 28 296 33T318 48T333 72T345 106L388 255H196L82 98Q67 78 67 59Q67 42 81 35T131 25V0H-64V25Q-51
27 -46 28T-34 34Q-30 36 -17 50T25 102L389 574Q398 586 403 598T409 618Q409 632 394 637T329 646V669H918L873 479ZM478 627L225 294H398L490 627H478Z" />
<glyph unicode="&#xc7;" glyph-name="Ccedilla" horiz-adv-x="667" d="M626 451L594 457Q596 467 596 474T597 492Q597 566 562 608T466 650Q415 650 372 621T298 550Q248 485 217 396T186 209Q186 127 228 81T336 35Q384 35 426 53Q442 60 455 68T481 87T509
115T545 154L576 132Q552 99 536 81T498 47Q412 -18 304 -18Q288 -18 273 -18T240 -14L207 -62Q215 -60 220 -60T233 -59Q272 -59 297 -79T323 -131Q323 -169 288 -193T199 -218Q172 -218 146 -213T87 -193L109 -160Q130 -170 144 -173T176 -177Q202 -177 217 -166T232
-136Q232 -100 185 -100Q171 -100 155 -104L142 -92L201 -4Q119 23 76 87T32 241Q32 337 67 420T163 565Q218 621 289 653T440 685Q503 685 571 664Q595 656 609 656Q620 656 628 662T647 685H677L626 451Z" />
<glyph unicode="&#xc8;" glyph-name="Egrave" horiz-adv-x="667" d="M610 479L583 484Q582 511 581 529T575 562T562 586T538 607Q491 637 401 637Q386 637 375 636T357 629T344 613T334 586L275 370Q324 370 356 373T409 388T446 420T480 477L508 473L434 199L406
203Q408 217 409 226T410 247Q410 273 404 290T381 318T336 333T266 338L203 104Q199 89 197 80T195 66Q195 48 209 40T256 32Q322 32 374 46T470 93Q484 103 495 113T516 135T537 162T561 199L586 194L526 0H-27V25Q-8 28 5 32T27 45T42 68T55 105L174 537Q181
562 183 579T186 607Q186 622 177 629T145 640L112 644V669H653L610 479ZM485 766L353 854Q319 877 319 902Q319 920 332 933T364 947Q378 947 392 940T420 914L531 766H485Z" />
<glyph unicode="&#xc9;" glyph-name="Eacute" horiz-adv-x="667" d="M610 479L583 484Q582 511 581 529T575 562T562 586T538 607Q491 637 401 637Q386 637 375 636T357 629T344 613T334 586L275 370Q324 370 356 373T409 388T446 420T480 477L508 473L434 199L406
203Q408 217 409 226T410 247Q410 273 404 290T381 318T336 333T266 338L203 104Q199 89 197 80T195 66Q195 48 209 40T256 32Q322 32 374 46T470 93Q484 103 495 113T516 135T537 162T561 199L586 194L526 0H-27V25Q-8 28 5 32T27 45T42 68T55 105L174 537Q181
562 183 579T186 607Q186 622 177 629T145 640L112 644V669H653L610 479ZM428 897Q455 926 469 936T498 947Q518 947 532 934T546 900Q546 886 538 876T507 853L355 766H306L428 897Z" />
<glyph unicode="&#xca;" glyph-name="Ecircumflex" horiz-adv-x="667" d="M610 479L583 484Q582 511 581 529T575 562T562 586T538 607Q491 637 401 637Q386 637 375 636T357 629T344 613T334 586L275 370Q324 370 356 373T409 388T446 420T480 477L508 473L434
199L406 203Q408 217 409 226T410 247Q410 273 404 290T381 318T336 333T266 338L203 104Q199 89 197 80T195 66Q195 48 209 40T256 32Q322 32 374 46T470 93Q484 103 495 113T516 135T537 162T561 199L586 194L526 0H-27V25Q-8 28 5 32T27 45T42 68T55 105L174
537Q181 562 183 579T186 607Q186 622 177 629T145 640L112 644V669H653L610 479ZM535 766L447 861L316 766H259L419 940H500L586 766H535Z" />
<glyph unicode="&#xcb;" glyph-name="Edieresis" horiz-adv-x="667" d="M610 479L583 484Q582 511 581 529T575 562T562 586T538 607Q491 637 401 637Q386 637 375 636T357 629T344 613T334 586L275 370Q324 370 356 373T409 388T446 420T480 477L508 473L434
199L406 203Q408 217 409 226T410 247Q410 273 404 290T381 318T336 333T266 338L203 104Q199 89 197 80T195 66Q195 48 209 40T256 32Q322 32 374 46T470 93Q484 103 495 113T516 135T537 162T561 199L586 194L526 0H-27V25Q-8 28 5 32T27 45T42 68T55 105L174
537Q181 562 183 579T186 607Q186 622 177 629T145 640L112 644V669H653L610 479ZM601 839Q601 813 582 794T535 775Q509 775 490 794T471 839Q471 866 490 885T535 905Q562 905 581 886T601 839ZM389 839Q389 813 370 794T323 775Q297 775 278 794T259 839Q259
866 278 885T323 905Q350 905 369 886T389 839Z" />
<glyph unicode="&#xcc;" glyph-name="Igrave" horiz-adv-x="389" d="M406 644Q388 642 375 638T352 626T335 603T322 564L210 152Q199 114 196 96T193 65Q193 44 207 36T264 25V0H-32V25Q-14 27 -1 30T21 41T37 65T51 107L168 536Q174 558 178 578T182 607Q182
635 140 640L108 644V669H406V644ZM358 766L226 854Q192 877 192 902Q192 920 205 933T237 947Q251 947 265 940T293 914L404 766H358Z" />
<glyph unicode="&#xcd;" glyph-name="Iacute" horiz-adv-x="389" d="M406 644Q388 642 375 638T352 626T335 603T322 564L210 152Q199 114 196 96T193 65Q193 44 207 36T264 25V0H-32V25Q-14 27 -1 30T21 41T37 65T51 107L168 536Q174 558 178 578T182 607Q182
635 140 640L108 644V669H406V644ZM322 897Q349 926 363 936T392 947Q412 947 426 934T440 900Q440 886 432 876T401 853L249 766H200L322 897Z" />
<glyph unicode="&#xce;" glyph-name="Icircumflex" horiz-adv-x="389" d="M406 644Q388 642 375 638T352 626T335 603T322 564L210 152Q199 114 196 96T193 65Q193 44 207 36T264 25V0H-32V25Q-14 27 -1 30T21 41T37 65T51 107L168 536Q174 558 178 578T182 607Q182
635 140 640L108 644V669H406V644ZM418 766L330 861L199 766H142L302 940H383L469 766H418Z" />
<glyph unicode="&#xcf;" glyph-name="Idieresis" horiz-adv-x="389" d="M406 644Q388 642 375 638T352 626T335 603T322 564L210 152Q199 114 196 96T193 65Q193 44 207 36T264 25V0H-32V25Q-14 27 -1 30T21 41T37 65T51 107L168 536Q174 558 178 578T182 607Q182
635 140 640L108 644V669H406V644ZM480 839Q480 813 461 794T414 775Q388 775 369 794T350 839Q350 866 369 885T414 905Q441 905 460 886T480 839ZM268 839Q268 813 249 794T202 775Q176 775 157 794T138 839Q138 866 157 885T202 905Q229 905 248 886T268 839Z"
/>
<glyph unicode="&#xd0;" glyph-name="Eth" horiz-adv-x="722" d="M399 669Q470 669 526 651T620 597T679 511T700 396Q700 310 667 238T574 113T433 30T255 0H-31V25Q-13 27 0 31T22 44T37 65T49 97L112 329H10L22 373H124L170 543Q177 568 179 581T182 602Q182
620 172 627T140 639L109 644V669H399ZM204 122Q199 102 196 90T192 68Q192 50 204 42T246 34Q319 34 373 63T469 152Q488 181 504 216T530 291T547 373T553 457Q553 638 388 638Q363 638 351 630T333 600L272 373H394L382 329H260L204 122Z" />
<glyph unicode="&#xd1;" glyph-name="Ntilde" horiz-adv-x="722" d="M660 905Q643 842 616 814T543 786Q529 786 518 788T486 799L427 822Q406 830 389 830Q372 830 362 821T341 787H301Q311 841 342 873T417 905Q455 905 514 879Q534 871 546 867T568 863Q585
863 596 872T619 905H660ZM748 644Q727 640 714 634T690 612T669 568T646 491L503 -15H475L218 532L119 178Q110 146 105 122T100 84Q100 55 117 42T179 25V0H-27V25Q-6 29 6 34T29 55T49 99T74 180L194 587Q187 603 181 613T167 630T146 639T112 644V669H305L521
202L602 491Q610 522 615 546T621 585Q621 614 603 629T540 644V669H748V644Z" />
<glyph unicode="&#xd2;" glyph-name="Ograve" horiz-adv-x="722" d="M691 444Q691 396 678 346T641 249T584 158T511 78Q458 31 396 7T263 -18Q210 -18 167 -3T92 43T44 118T27 221Q27 272 40 323T78 424T137 516T213 593Q267 637 326 661T449 685Q500 685 544
668T621 620T672 544T691 444ZM547 528Q547 591 519 621T446 651Q398 651 360 623T284 531Q261 493 241 445T205 344T180 240T171 143Q171 86 198 51T273 16Q321 16 357 45T430 130Q455 167 476 218T513 323T538 432T547 528ZM534 766L402 854Q368 877 368 902Q368
920 381 933T413 947Q427 947 441 940T469 914L580 766H534Z" />
<glyph unicode="&#xd3;" glyph-name="Oacute" horiz-adv-x="722" d="M691 444Q691 396 678 346T641 249T584 158T511 78Q458 31 396 7T263 -18Q210 -18 167 -3T92 43T44 118T27 221Q27 272 40 323T78 424T137 516T213 593Q267 637 326 661T449 685Q500 685 544
668T621 620T672 544T691 444ZM547 528Q547 591 519 621T446 651Q398 651 360 623T284 531Q261 493 241 445T205 344T180 240T171 143Q171 86 198 51T273 16Q321 16 357 45T430 130Q455 167 476 218T513 323T538 432T547 528ZM477 897Q504 926 518 936T547 947Q567
947 581 934T595 900Q595 886 587 876T556 853L404 766H355L477 897Z" />
<glyph unicode="&#xd4;" glyph-name="Ocircumflex" horiz-adv-x="722" d="M691 444Q691 396 678 346T641 249T584 158T511 78Q458 31 396 7T263 -18Q210 -18 167 -3T92 43T44 118T27 221Q27 272 40 323T78 424T137 516T213 593Q267 637 326 661T449 685Q500 685
544 668T621 620T672 544T691 444ZM547 528Q547 591 519 621T446 651Q398 651 360 623T284 531Q261 493 241 445T205 344T180 240T171 143Q171 86 198 51T273 16Q321 16 357 45T430 130Q455 167 476 218T513 323T538 432T547 528ZM587 766L499 861L368 766H311L471
940H552L638 766H587Z" />
<glyph unicode="&#xd5;" glyph-name="Otilde" horiz-adv-x="722" d="M661 905Q644 842 617 814T544 786Q530 786 519 788T487 799L428 822Q407 830 390 830Q373 830 363 821T342 787H302Q312 841 343 873T418 905Q456 905 515 879Q535 871 547 867T569 863Q586
863 597 872T620 905H661ZM691 444Q691 396 678 346T641 249T584 158T511 78Q458 31 396 7T263 -18Q210 -18 167 -3T92 43T44 118T27 221Q27 272 40 323T78 424T137 516T213 593Q267 637 326 661T449 685Q500 685 544 668T621 620T672 544T691 444ZM547 528Q547
591 519 621T446 651Q398 651 360 623T284 531Q261 493 241 445T205 344T180 240T171 143Q171 86 198 51T273 16Q321 16 357 45T430 130Q455 167 476 218T513 323T538 432T547 528Z" />
<glyph unicode="&#xd6;" glyph-name="Odieresis" horiz-adv-x="722" d="M691 444Q691 396 678 346T641 249T584 158T511 78Q458 31 396 7T263 -18Q210 -18 167 -3T92 43T44 118T27 221Q27 272 40 323T78 424T137 516T213 593Q267 637 326 661T449 685Q500 685
544 668T621 620T672 544T691 444ZM547 528Q547 591 519 621T446 651Q398 651 360 623T284 531Q261 493 241 445T205 344T180 240T171 143Q171 86 198 51T273 16Q321 16 357 45T430 130Q455 167 476 218T513 323T538 432T547 528ZM651 839Q651 813 632 794T585
775Q559 775 540 794T521 839Q521 866 540 885T585 905Q612 905 631 886T651 839ZM439 839Q439 813 420 794T373 775Q347 775 328 794T309 839Q309 866 328 885T373 905Q400 905 419 886T439 839Z" />
<glyph unicode="&#xd7;" glyph-name="multiply" horiz-adv-x="570" d="M460 16L285 192L110 16L48 78L223 253L48 428L110 490L285 314L460 490L522 428L346 253L522 78L460 16Z" />
<glyph unicode="&#xd8;" glyph-name="Oslash" horiz-adv-x="722" d="M570 656Q598 643 620 622T658 574T682 516T691 453Q691 338 642 243T508 77Q453 31 394 7T268 -18Q245 -18 226 -16T183 -5L113 -125H65L144 11Q85 43 56 94T27 212Q27 305 61 391T154 542T289
646T449 685Q472 685 489 683T531 672L584 764H633L570 656ZM506 630Q492 641 478 646T443 651Q351 651 278 521Q256 482 237 433T203 331T180 229T171 141Q171 108 182 77L506 630ZM208 38Q223 26 239 21T275 16Q298 16 321 26T367 54T408 97T441 151Q460 190
479 239T513 340T537 440T547 527Q547 544 544 560T533 593L208 38Z" />
<glyph unicode="&#xd9;" glyph-name="Ugrave" horiz-adv-x="722" d="M744 644Q723 640 710 636T687 617T666 575T642 497L577 263Q554 182 528 123T456 29Q427 6 387 -6T290 -18Q241 -18 200 -8T130 23T84 74T67 145Q67 175 77 221T104 334L155 527Q163 555 166
575T170 605Q170 622 162 630T129 641L97 644V669H408V644Q385 643 370 639T344 627T327 605T314 568L233 274Q223 239 218 218T209 182T206 159T205 139Q205 85 237 62T327 38Q369 38 398 50T450 85Q482 118 502 168T540 282L597 491Q606 524 611 549T616 587Q616
614 598 629T537 644V669H744V644ZM532 766L400 854Q366 877 366 902Q366 920 379 933T411 947Q425 947 439 940T467 914L578 766H532Z" />
<glyph unicode="&#xda;" glyph-name="Uacute" horiz-adv-x="722" d="M744 644Q723 640 710 636T687 617T666 575T642 497L577 263Q554 182 528 123T456 29Q427 6 387 -6T290 -18Q241 -18 200 -8T130 23T84 74T67 145Q67 175 77 221T104 334L155 527Q163 555 166
575T170 605Q170 622 162 630T129 641L97 644V669H408V644Q385 643 370 639T344 627T327 605T314 568L233 274Q223 239 218 218T209 182T206 159T205 139Q205 85 237 62T327 38Q369 38 398 50T450 85Q482 118 502 168T540 282L597 491Q606 524 611 549T616 587Q616
614 598 629T537 644V669H744V644ZM476 897Q503 926 517 936T546 947Q566 947 580 934T594 900Q594 886 586 876T555 853L403 766H354L476 897Z" />
<glyph unicode="&#xdb;" glyph-name="Ucircumflex" horiz-adv-x="722" d="M744 644Q723 640 710 636T687 617T666 575T642 497L577 263Q554 182 528 123T456 29Q427 6 387 -6T290 -18Q241 -18 200 -8T130 23T84 74T67 145Q67 175 77 221T104 334L155 527Q163 555
166 575T170 605Q170 622 162 630T129 641L97 644V669H408V644Q385 643 370 639T344 627T327 605T314 568L233 274Q223 239 218 218T209 182T206 159T205 139Q205 85 237 62T327 38Q369 38 398 50T450 85Q482 118 502 168T540 282L597 491Q606 524 611 549T616
587Q616 614 598 629T537 644V669H744V644ZM586 766L498 861L367 766H310L470 940H551L637 766H586Z" />
<glyph unicode="&#xdc;" glyph-name="Udieresis" horiz-adv-x="722" d="M744 644Q723 640 710 636T687 617T666 575T642 497L577 263Q554 182 528 123T456 29Q427 6 387 -6T290 -18Q241 -18 200 -8T130 23T84 74T67 145Q67 175 77 221T104 334L155 527Q163 555
166 575T170 605Q170 622 162 630T129 641L97 644V669H408V644Q385 643 370 639T344 627T327 605T314 568L233 274Q223 239 218 218T209 182T206 159T205 139Q205 85 237 62T327 38Q369 38 398 50T450 85Q482 118 502 168T540 282L597 491Q606 524 611 549T616
587Q616 614 598 629T537 644V669H744V644ZM648 839Q648 813 629 794T582 775Q556 775 537 794T518 839Q518 866 537 885T582 905Q609 905 628 886T648 839ZM436 839Q436 813 417 794T370 775Q344 775 325 794T306 839Q306 866 325 885T370 905Q397 905 416 886T436
839Z" />
<glyph unicode="&#xdd;" glyph-name="Yacute" horiz-adv-x="611" d="M659 644Q630 640 611 623T567 572L378 308L326 117Q322 102 319 90T316 66Q316 45 332 35T395 25V0H72V25Q97 27 114 30T142 42T162 65T176 103L233 311L146 581Q140 599 135 609T122 626T102
636T71 644V669H356V644Q315 642 301 635T287 605Q287 591 293 568T316 495L362 352L490 535Q506 558 512 573T518 602Q518 625 505 633T452 644V669H659V644ZM479 897Q506 926 520 936T549 947Q569 947 583 934T597 900Q597 886 589 876T558 853L406 766H357L479
897Z" />
<glyph unicode="&#xde;" glyph-name="Thorn" horiz-adv-x="611" d="M356 534Q466 534 519 498T573 386Q573 344 557 307T509 243Q473 214 420 198T300 182Q280 182 263 183T219 187L203 126Q196 100 196 86T195 64Q195 44 209 36T266 25V0H-27V25Q-8 28 5 33T28
47T43 69T54 102L174 538Q186 584 186 607Q186 622 176 629T143 640L112 644V669H407L406 644Q386 641 374 638T353 627T339 606T325 572L312 534H356ZM229 219Q242 218 251 218T271 217Q314 217 341 229T388 269Q397 282 404 299T416 336T424 375T427 411Q427
455 405 478T343 502Q317 502 308 491T292 451L229 219Z" />
<glyph unicode="&#xdf;" glyph-name="germandbls" horiz-adv-x="500" d="M76 403Q108 552 171 628T327 705Q359 705 385 696T431 671T462 631T473 579Q473 533 457 503T404 444Q384 429 358 421T291 399V398Q357 387 396 353T435 255Q435 200 413 150T362 65Q302
-7 213 -7Q190 -7 175 -2T142 15L162 50L166 45Q172 37 185 32T211 27Q231 27 244 42T272 87Q281 107 289 134T303 191T312 250T315 304Q315 351 291 369Q283 374 272 377T239 384L246 421H263Q280 421 300 433T333 474Q346 502 354 540T362 614Q362 675 316 675Q281
675 258 636T214 509L125 111Q105 24 82 -35T31 -131T-30 -184T-103 -200Q-148 -200 -174 -179T-200 -123Q-200 -99 -186 -83T-148 -67Q-125 -67 -113 -79T-101 -113Q-101 -123 -103 -128T-109 -137T-115 -144T-118 -154Q-118 -160 -115 -164T-102 -169Q-67 -169
-53 -135Q-33 -96 -16 -20L76 403Z" />
<glyph unicode="&#xe0;" glyph-name="agrave" horiz-adv-x="500" d="M456 112Q434 77 414 53T374 14T336 -7T300 -14Q272 -14 255 2T237 50Q237 61 239 74T251 119Q209 47 171 17T87 -13Q38 -13 9 22T-21 114Q-21 174 3 234T66 345Q106 398 154 430T252 462Q284
462 301 445T326 390H327L344 449L455 456L380 205Q371 175 365 154T356 118T352 92T350 72Q350 57 362 57Q374 57 389 71T435 127L456 112ZM303 373Q303 393 293 406T266 420Q250 420 235 410T207 384T181 347T158 305Q145 278 135 251T117 198T106 151T102 115Q102
85 113 72T145 58Q165 58 188 77T231 133Q246 159 259 191T281 256T297 319T303 373ZM370 516L238 604Q204 627 204 652Q204 670 217 683T249 697Q263 697 277 690T305 664L416 516H370Z" />
<glyph unicode="&#xe1;" glyph-name="aacute" horiz-adv-x="500" d="M456 112Q434 77 414 53T374 14T336 -7T300 -14Q272 -14 255 2T237 50Q237 61 239 74T251 119Q209 47 171 17T87 -13Q38 -13 9 22T-21 114Q-21 174 3 234T66 345Q106 398 154 430T252 462Q284
462 301 445T326 390H327L344 449L455 456L380 205Q371 175 365 154T356 118T352 92T350 72Q350 57 362 57Q374 57 389 71T435 127L456 112ZM303 373Q303 393 293 406T266 420Q250 420 235 410T207 384T181 347T158 305Q145 278 135 251T117 198T106 151T102 115Q102
85 113 72T145 58Q165 58 188 77T231 133Q246 159 259 191T281 256T297 319T303 373ZM314 647Q341 676 355 686T384 697Q404 697 418 684T432 650Q432 636 424 626T393 603L241 516H192L314 647Z" />
<glyph unicode="&#xe2;" glyph-name="acircumflex" horiz-adv-x="500" d="M456 112Q434 77 414 53T374 14T336 -7T300 -14Q272 -14 255 2T237 50Q237 61 239 74T251 119Q209 47 171 17T87 -13Q38 -13 9 22T-21 114Q-21 174 3 234T66 345Q106 398 154 430T252 462Q284
462 301 445T326 390H327L344 449L455 456L380 205Q371 175 365 154T356 118T352 92T350 72Q350 57 362 57Q374 57 389 71T435 127L456 112ZM303 373Q303 393 293 406T266 420Q250 420 235 410T207 384T181 347T158 305Q145 278 135 251T117 198T106 151T102 115Q102
85 113 72T145 58Q165 58 188 77T231 133Q246 159 259 191T281 256T297 319T303 373ZM424 516L336 611L205 516H148L308 690H389L475 516H424Z" />
<glyph unicode="&#xe3;" glyph-name="atilde" horiz-adv-x="500" d="M497 655Q480 592 453 564T380 536Q366 536 355 538T323 549L264 572Q243 580 226 580Q209 580 199 571T178 537H138Q148 591 179 623T254 655Q292 655 351 629Q371 621 383 617T405 613Q422
613 433 622T456 655H497ZM456 112Q434 77 414 53T374 14T336 -7T300 -14Q272 -14 255 2T237 50Q237 61 239 74T251 119Q209 47 171 17T87 -13Q38 -13 9 22T-21 114Q-21 174 3 234T66 345Q106 398 154 430T252 462Q284 462 301 445T326 390H327L344 449L455 456L380
205Q371 175 365 154T356 118T352 92T350 72Q350 57 362 57Q374 57 389 71T435 127L456 112ZM303 373Q303 393 293 406T266 420Q250 420 235 410T207 384T181 347T158 305Q145 278 135 251T117 198T106 151T102 115Q102 85 113 72T145 58Q165 58 188 77T231 133Q246
159 259 191T281 256T297 319T303 373Z" />
<glyph unicode="&#xe4;" glyph-name="adieresis" horiz-adv-x="500" d="M456 112Q434 77 414 53T374 14T336 -7T300 -14Q272 -14 255 2T237 50Q237 61 239 74T251 119Q209 47 171 17T87 -13Q38 -13 9 22T-21 114Q-21 174 3 234T66 345Q106 398 154 430T252 462Q284
462 301 445T326 390H327L344 449L455 456L380 205Q371 175 365 154T356 118T352 92T350 72Q350 57 362 57Q374 57 389 71T435 127L456 112ZM303 373Q303 393 293 406T266 420Q250 420 235 410T207 384T181 347T158 305Q145 278 135 251T117 198T106 151T102 115Q102
85 113 72T145 58Q165 58 188 77T231 133Q246 159 259 191T281 256T297 319T303 373ZM485 589Q485 563 466 544T419 525Q393 525 374 544T355 589Q355 616 374 635T419 655Q446 655 465 636T485 589ZM273 589Q273 563 254 544T207 525Q181 525 162 544T143 589Q143
616 162 635T207 655Q234 655 253 636T273 589Z" />
<glyph unicode="&#xe5;" glyph-name="aring" horiz-adv-x="500" d="M456 112Q434 77 414 53T374 14T336 -7T300 -14Q272 -14 255 2T237 50Q237 61 239 74T251 119Q209 47 171 17T87 -13Q38 -13 9 22T-21 114Q-21 174 3 234T66 345Q106 398 154 430T252 462Q284
462 301 445T326 390H327L344 449L455 456L380 205Q371 175 365 154T356 118T352 92T350 72Q350 57 362 57Q374 57 389 71T435 127L456 112ZM303 373Q303 393 293 406T266 420Q250 420 235 410T207 384T181 347T158 305Q145 278 135 251T117 198T106 151T102 115Q102
85 113 72T145 58Q165 58 188 77T231 133Q246 159 259 191T281 256T297 319T303 373ZM426 650Q426 628 418 609T395 575T361 552T319 543Q271 543 242 573T213 651Q213 673 221 692T244 725T278 748T320 756Q368 756 397 726T426 650ZM378 648Q378 673 361 690T318
708Q295 708 278 691T261 649Q261 625 278 608T318 591Q343 591 360 608T378 648Z" />
<glyph unicode="&#xe6;" glyph-name="ae" horiz-adv-x="722" d="M453 394Q482 431 509 445T573 459Q621 459 647 437T673 372Q673 341 658 312T613 258T541 215T443 187L406 181Q403 166 402 156T401 135Q401 95 418 73T467 50Q539 50 591 140L619 123Q587 57
538 22T425 -13Q358 -13 324 20T282 118Q240 48 200 18T109 -12Q59 -12 27 17T-5 106Q-5 174 25 242T102 365Q140 409 183 435T270 462Q303 462 320 448T352 396L370 454L473 459L453 394ZM413 214Q445 218 475 234T530 274T568 327T583 388Q583 429 548 429Q510
429 479 381T418 231L413 214ZM333 363Q333 388 320 403T285 419Q262 419 241 403T201 360T168 302T143 236T127 174T121 124Q121 92 133 75T169 58Q195 58 217 78T262 137Q277 162 290 193T312 255T327 314T333 363Z" />
<glyph unicode="&#xe7;" glyph-name="ccedilla" horiz-adv-x="444" d="M91 -4Q46 10 21 45T-5 138Q-5 203 23 264T96 373Q135 414 184 438T279 462Q302 462 322 456T358 437T383 408T392 371Q392 339 375 320T330 301Q304 301 288 316T272 354Q272 363 275 370T282
384T289 397T293 412Q293 420 287 424T271 429Q239 429 216 404T175 342Q162 316 153 287T137 230T127 179T123 140Q123 100 143 76T196 51Q228 51 255 71T318 141L346 123Q321 85 297 56T243 10Q203 -13 148 -13Q143 -13 139 -13T130 -12L96 -62Q104 -60 109 -60T122
-59Q161 -59 186 -79T212 -131Q212 -169 177 -193T88 -218Q61 -218 35 -213T-24 -193L-2 -160Q19 -170 33 -173T65 -177Q91 -177 106 -166T121 -136Q121 -100 74 -100Q60 -100 44 -104L31 -92L91 -4Z" />
<glyph unicode="&#xe8;" glyph-name="egrave" horiz-adv-x="444" d="M346 126Q304 51 257 19T151 -13Q85 -13 45 23T5 134Q5 196 29 255T94 360T187 434T293 462Q342 462 370 438T398 375Q398 343 379 311T329 253Q313 239 295 229T255 211T205 195T141 182Q138
167 137 156T135 133Q135 51 199 51Q215 51 229 55T257 71T285 99T317 143L346 126ZM306 390Q306 407 300 418T275 429Q239 429 207 374T148 214Q182 221 211 238T261 278T294 330T306 390ZM342 516L210 604Q176 627 176 652Q176 670 189 683T221 697Q235 697 249
690T277 664L388 516H342Z" />
<glyph unicode="&#xe9;" glyph-name="eacute" horiz-adv-x="444" d="M346 126Q304 51 257 19T151 -13Q85 -13 45 23T5 134Q5 196 29 255T94 360T187 434T293 462Q342 462 370 438T398 375Q398 343 379 311T329 253Q313 239 295 229T255 211T205 195T141 182Q138
167 137 156T135 133Q135 51 199 51Q215 51 229 55T257 71T285 99T317 143L346 126ZM306 390Q306 407 300 418T275 429Q239 429 207 374T148 214Q182 221 211 238T261 278T294 330T306 390ZM301 647Q328 676 342 686T371 697Q391 697 405 684T419 650Q419 636 411
626T380 603L228 516H179L301 647Z" />
<glyph unicode="&#xea;" glyph-name="ecircumflex" horiz-adv-x="444" d="M346 126Q304 51 257 19T151 -13Q85 -13 45 23T5 134Q5 196 29 255T94 360T187 434T293 462Q342 462 370 438T398 375Q398 343 379 311T329 253Q313 239 295 229T255 211T205 195T141 182Q138
167 137 156T135 133Q135 51 199 51Q215 51 229 55T257 71T285 99T317 143L346 126ZM306 390Q306 407 300 418T275 429Q239 429 207 374T148 214Q182 221 211 238T261 278T294 330T306 390ZM411 516L323 611L192 516H135L295 690H376L462 516H411Z" />
<glyph unicode="&#xeb;" glyph-name="edieresis" horiz-adv-x="444" d="M346 126Q304 51 257 19T151 -13Q85 -13 45 23T5 134Q5 196 29 255T94 360T187 434T293 462Q342 462 370 438T398 375Q398 343 379 311T329 253Q313 239 295 229T255 211T205 195T141 182Q138
167 137 156T135 133Q135 51 199 51Q215 51 229 55T257 71T285 99T317 143L346 126ZM306 390Q306 407 300 418T275 429Q239 429 207 374T148 214Q182 221 211 238T261 278T294 330T306 390ZM470 589Q470 563 451 544T404 525Q378 525 359 544T340 589Q340 616 359
635T404 655Q431 655 450 636T470 589ZM258 589Q258 563 239 544T192 525Q166 525 147 544T128 589Q128 616 147 635T192 655Q219 655 238 636T258 589Z" />
<glyph unicode="&#xec;" glyph-name="igrave" horiz-adv-x="278" d="M238 128Q213 87 192 61T152 19T112 -3T70 -9Q39 -9 21 6T2 54Q2 76 17 130L72 333Q77 351 78 361T80 378Q80 407 34 407H20V434Q79 439 130 446T223 462L132 128Q128 115 126 100T123 77Q123
68 127 65T138 61Q149 61 165 77T202 122L216 142L238 128ZM248 516L116 604Q82 627 82 652Q82 670 95 683T127 697Q141 697 155 690T183 664L294 516H248Z" />
<glyph unicode="&#xed;" glyph-name="iacute" horiz-adv-x="278" d="M238 128Q213 87 192 61T152 19T112 -3T70 -9Q39 -9 21 6T2 54Q2 76 17 130L72 333Q77 351 78 361T80 378Q80 407 34 407H20V434Q79 439 130 446T223 462L132 128Q128 115 126 100T123 77Q123
68 127 65T138 61Q149 61 165 77T202 122L216 142L238 128ZM192 647Q219 676 233 686T262 697Q282 697 296 684T310 650Q310 636 302 626T271 603L119 516H70L192 647Z" />
<glyph unicode="&#xee;" glyph-name="icircumflex" horiz-adv-x="278" d="M238 128Q213 87 192 61T152 19T112 -3T70 -9Q39 -9 21 6T2 54Q2 76 17 130L72 333Q77 351 78 361T80 378Q80 407 34 407H20V434Q79 439 130 446T223 462L132 128Q128 115 126 100T123
77Q123 68 127 65T138 61Q149 61 165 77T202 122L216 142L238 128ZM302 516L214 611L83 516H26L186 690H267L353 516H302Z" />
<glyph unicode="&#xef;" glyph-name="idieresis" horiz-adv-x="278" d="M238 128Q213 87 192 61T152 19T112 -3T70 -9Q39 -9 21 6T2 54Q2 76 17 130L72 333Q77 351 78 361T80 378Q80 407 34 407H20V434Q79 439 130 446T223 462L132 128Q128 115 126 100T123 77Q123
68 127 65T138 61Q149 61 165 77T202 122L216 142L238 128ZM362 589Q362 563 343 544T296 525Q270 525 251 544T232 589Q232 616 251 635T296 655Q323 655 342 636T362 589ZM150 589Q150 563 131 544T84 525Q58 525 39 544T20 589Q20 616 39 635T84 655Q111 655
130 636T150 589Z" />
<glyph unicode="&#xf0;" glyph-name="eth" horiz-adv-x="500" d="M347 608Q372 580 390 554T419 501T436 444T441 380Q441 302 420 231T361 105T271 19T155 -13Q120 -13 91 -2T41 29T9 75T-3 134Q-3 200 20 259T82 364T170 435T272 462Q295 462 312 453T343 420L345
424Q342 465 327 500T283 574L164 512L131 543L253 607Q223 636 195 651T136 672L181 699Q218 694 249 680T313 639L420 696L454 664L347 608ZM322 375Q322 402 310 417T276 433Q254 433 234 415T196 367T163 300T138 224T122 149T116 86Q116 16 165 16Q184 16
200 27T229 56T254 97T274 145Q284 172 293 203T308 266T318 325T322 375Z" />
<glyph unicode="&#xf1;" glyph-name="ntilde" horiz-adv-x="556" d="M507 655Q490 592 463 564T390 536Q376 536 365 538T333 549L274 572Q253 580 236 580Q219 580 209 571T188 537H148Q158 591 189 623T264 655Q302 655 361 629Q381 621 393 617T415 613Q432
613 443 622T466 655H507ZM494 122Q453 49 416 20T334 -9Q302 -9 284 5T266 51Q266 71 273 105T292 176L347 341Q349 349 351 358T354 369Q354 382 347 386T329 390Q315 390 295 373T260 336Q237 306 218 274T182 203T148 115T115 0H-6L51 204Q76 294 86 334T96
383Q96 397 85 401T41 407V434Q83 436 137 443T240 461L178 263H179Q204 300 221 324T251 366T275 395T301 421Q321 441 347 451T401 462Q439 462 456 442T474 385Q474 367 466 336T446 269L411 165Q397 123 392 104T387 76Q387 59 401 59Q407 59 413 62T428 73T446
97T472 135L494 122Z" />
<glyph unicode="&#xf2;" glyph-name="ograve" horiz-adv-x="500" d="M284 462Q357 462 399 421T441 311Q441 240 412 174T336 62Q261 -13 161 -13Q126 -13 96 -4T44 24T10 70T-3 135Q-3 210 24 275T97 385Q135 423 182 442T280 462H284ZM322 372Q322 401 310 417T275
433Q243 433 215 402Q192 377 174 338T143 255T123 164T116 80Q116 47 129 32T165 16Q206 16 236 65Q254 95 270 134T297 216T315 298T322 372ZM359 516L227 604Q193 627 193 652Q193 670 206 683T238 697Q252 697 266 690T294 664L405 516H359Z" />
<glyph unicode="&#xf3;" glyph-name="oacute" horiz-adv-x="500" d="M284 462Q357 462 399 421T441 311Q441 240 412 174T336 62Q261 -13 161 -13Q126 -13 96 -4T44 24T10 70T-3 135Q-3 210 24 275T97 385Q135 423 182 442T280 462H284ZM322 372Q322 401 310 417T275
433Q243 433 215 402Q192 377 174 338T143 255T123 164T116 80Q116 47 129 32T165 16Q206 16 236 65Q254 95 270 134T297 216T315 298T322 372ZM301 647Q328 676 342 686T371 697Q391 697 405 684T419 650Q419 636 411 626T380 603L228 516H179L301 647Z" />
<glyph unicode="&#xf4;" glyph-name="ocircumflex" horiz-adv-x="500" d="M284 462Q357 462 399 421T441 311Q441 240 412 174T336 62Q261 -13 161 -13Q126 -13 96 -4T44 24T10 70T-3 135Q-3 210 24 275T97 385Q135 423 182 442T280 462H284ZM322 372Q322 401
310 417T275 433Q243 433 215 402Q192 377 174 338T143 255T123 164T116 80Q116 47 129 32T165 16Q206 16 236 65Q254 95 270 134T297 216T315 298T322 372ZM411 516L323 611L192 516H135L295 690H376L462 516H411Z" />
<glyph unicode="&#xf5;" glyph-name="otilde" horiz-adv-x="500" d="M485 655Q468 592 441 564T368 536Q354 536 343 538T311 549L252 572Q231 580 214 580Q197 580 187 571T166 537H126Q136 591 167 623T242 655Q280 655 339 629Q359 621 371 617T393 613Q410
613 421 622T444 655H485ZM284 462Q357 462 399 421T441 311Q441 240 412 174T336 62Q261 -13 161 -13Q126 -13 96 -4T44 24T10 70T-3 135Q-3 210 24 275T97 385Q135 423 182 442T280 462H284ZM322 372Q322 401 310 417T275 433Q243 433 215 402Q192 377 174 338T143
255T123 164T116 80Q116 47 129 32T165 16Q206 16 236 65Q254 95 270 134T297 216T315 298T322 372Z" />
<glyph unicode="&#xf6;" glyph-name="odieresis" horiz-adv-x="500" d="M284 462Q357 462 399 421T441 311Q441 240 412 174T336 62Q261 -13 161 -13Q126 -13 96 -4T44 24T10 70T-3 135Q-3 210 24 275T97 385Q135 423 182 442T280 462H284ZM322 372Q322 401 310
417T275 433Q243 433 215 402Q192 377 174 338T143 255T123 164T116 80Q116 47 129 32T165 16Q206 16 236 65Q254 95 270 134T297 216T315 298T322 372ZM470 589Q470 563 451 544T404 525Q378 525 359 544T340 589Q340 616 359 635T404 655Q431 655 450 636T470
589ZM258 589Q258 563 239 544T192 525Q166 525 147 544T128 589Q128 616 147 635T192 655Q219 655 238 636T258 589Z" />
<glyph unicode="&#xf7;" glyph-name="divide" horiz-adv-x="570" d="M359 461Q359 429 338 408T284 387Q252 387 232 408T211 461Q211 493 232 514T286 535Q316 535 337 513T359 461ZM33 209V297H537V209H33ZM359 45Q359 13 338 -8T284 -29Q252 -29 232 -8T211
45Q211 77 232 98T286 119Q316 119 337 97T359 45Z" />
<glyph unicode="&#xf8;" glyph-name="oslash" horiz-adv-x="500" d="M359 444Q402 423 421 391T441 311Q441 248 418 190T355 86T264 14T157 -13Q143 -13 132 -12T106 -5L42 -119H2L74 7Q-3 51 -3 134Q-3 198 21 257T85 361T177 434T286 462Q297 462 305 461T328
456L387 560H424L359 444ZM307 419Q293 433 275 433Q227 433 189 365Q175 341 162 305T139 229T123 152T116 86V78L307 419ZM128 34Q142 16 165 16Q194 16 218 42T266 125Q277 151 287 184T305 252T317 317T322 372Q322 375 321 377L128 34Z" />
<glyph unicode="&#xf9;" glyph-name="ugrave" horiz-adv-x="556" d="M493 120Q454 53 417 22T334 -9Q266 -9 266 51Q266 73 272 96T292 161H291Q256 109 230 76T181 24T138 -2T93 -9Q55 -9 35 10T15 70Q15 89 20 113T37 176L74 304Q80 326 85 346T91 379Q91 390
80 397T33 407V434Q52 434 78 437T134 443T191 452T243 462L150 160Q145 143 142 132T137 113T135 100T134 88Q134 75 140 69T158 63Q172 63 188 76T228 118Q250 146 267 173T300 237T333 323T370 449H488L410 183Q400 148 393 119T385 80Q385 72 388 66T399 59Q412
59 428 75T471 133L493 120ZM376 516L244 604Q210 627 210 652Q210 670 223 683T255 697Q269 697 283 690T311 664L422 516H376Z" />
<glyph unicode="&#xfa;" glyph-name="uacute" horiz-adv-x="556" d="M493 120Q454 53 417 22T334 -9Q266 -9 266 51Q266 73 272 96T292 161H291Q256 109 230 76T181 24T138 -2T93 -9Q55 -9 35 10T15 70Q15 89 20 113T37 176L74 304Q80 326 85 346T91 379Q91 390
80 397T33 407V434Q52 434 78 437T134 443T191 452T243 462L150 160Q145 143 142 132T137 113T135 100T134 88Q134 75 140 69T158 63Q172 63 188 76T228 118Q250 146 267 173T300 237T333 323T370 449H488L410 183Q400 148 393 119T385 80Q385 72 388 66T399 59Q412
59 428 75T471 133L493 120ZM318 647Q345 676 359 686T388 697Q408 697 422 684T436 650Q436 636 428 626T397 603L245 516H196L318 647Z" />
<glyph unicode="&#xfb;" glyph-name="ucircumflex" horiz-adv-x="556" d="M493 120Q454 53 417 22T334 -9Q266 -9 266 51Q266 73 272 96T292 161H291Q256 109 230 76T181 24T138 -2T93 -9Q55 -9 35 10T15 70Q15 89 20 113T37 176L74 304Q80 326 85 346T91 379Q91
390 80 397T33 407V434Q52 434 78 437T134 443T191 452T243 462L150 160Q145 143 142 132T137 113T135 100T134 88Q134 75 140 69T158 63Q172 63 188 76T228 118Q250 146 267 173T300 237T333 323T370 449H488L410 183Q400 148 393 119T385 80Q385 72 388 66T399
59Q412 59 428 75T471 133L493 120ZM430 516L342 611L211 516H154L314 690H395L481 516H430Z" />
<glyph unicode="&#xfc;" glyph-name="udieresis" horiz-adv-x="556" d="M493 120Q454 53 417 22T334 -9Q266 -9 266 51Q266 73 272 96T292 161H291Q256 109 230 76T181 24T138 -2T93 -9Q55 -9 35 10T15 70Q15 89 20 113T37 176L74 304Q80 326 85 346T91 379Q91
390 80 397T33 407V434Q52 434 78 437T134 443T191 452T243 462L150 160Q145 143 142 132T137 113T135 100T134 88Q134 75 140 69T158 63Q172 63 188 76T228 118Q250 146 267 173T300 237T333 323T370 449H488L410 183Q400 148 393 119T385 80Q385 72 388 66T399
59Q412 59 428 75T471 133L493 120ZM489 589Q489 563 470 544T423 525Q397 525 378 544T359 589Q359 616 378 635T423 655Q450 655 469 636T489 589ZM277 589Q277 563 258 544T211 525Q185 525 166 544T147 589Q147 616 166 635T211 655Q238 655 257 636T277 589Z"
/>
<glyph unicode="&#xfd;" glyph-name="yacute" horiz-adv-x="444" d="M241 110Q267 160 284 194T310 252T324 290T328 317Q328 327 323 333T303 351Q286 365 279 375T272 405Q272 424 287 443T330 462Q355 462 373 443T392 398Q392 360 372 300T317 171T237 32T143
-99Q101 -150 56 -177T-32 -205Q-58 -205 -76 -188T-94 -145Q-94 -123 -79 -106T-44 -89Q-26 -89 -15 -94T7 -107T26 -119T50 -125Q63 -125 82 -111T117 -73Q142 -38 142 -2Q142 21 130 92T92 286Q82 331 73 359T52 399Q44 407 38 409T12 411V438Q36 440 56 442T93
448T127 454T162 462Q176 427 195 355T228 188L239 110H241ZM283 647Q310 676 324 686T353 697Q373 697 387 684T401 650Q401 636 393 626T362 603L210 516H161L283 647Z" />
<glyph unicode="&#xfe;" glyph-name="thorn" horiz-adv-x="500" d="M188 356Q226 413 261 437T339 462Q388 462 417 429T446 341Q446 276 422 213T359 99T270 18T169 -13Q153 -13 140 -9T101 9Q98 -2 97 -8T90 -32Q76 -85 70 -110T64 -146Q64 -164 77 -170T129
-178V-205H-120V-178Q-102 -178 -90 -174T-70 -161T-55 -135T-42 -93L120 537Q130 574 133 590T137 612Q137 642 92 642H74V669Q108 673 134 676T185 682T231 690T280 699L185 359L188 356ZM321 334Q321 359 312 375T282 391Q262 391 239 374T197 328Q191 319 187
310T177 287T165 254T151 207Q131 138 122 105T113 58Q113 43 124 33T152 22Q202 22 249 104Q262 128 275 158T298 218T315 279T321 334Z" />
<glyph unicode="&#xff;" glyph-name="ydieresis" horiz-adv-x="444" d="M241 110Q267 160 284 194T310 252T324 290T328 317Q328 327 323 333T303 351Q286 365 279 375T272 405Q272 424 287 443T330 462Q355 462 373 443T392 398Q392 360 372 300T317 171T237
32T143 -99Q101 -150 56 -177T-32 -205Q-58 -205 -76 -188T-94 -145Q-94 -123 -79 -106T-44 -89Q-26 -89 -15 -94T7 -107T26 -119T50 -125Q63 -125 82 -111T117 -73Q142 -38 142 -2Q142 21 130 92T92 286Q82 331 73 359T52 399Q44 407 38 409T12 411V438Q36 440
56 442T93 448T127 454T162 462Q176 427 195 355T228 188L239 110H241ZM460 589Q460 563 441 544T394 525Q368 525 349 544T330 589Q330 616 349 635T394 655Q421 655 440 636T460 589ZM248 589Q248 563 229 544T182 525Q156 525 137 544T118 589Q118 616 137 635T182
655Q209 655 228 636T248 589Z" />
<glyph unicode="&#x100;" glyph-name="uni0100" horiz-adv-x="667" d="M290 25Q367 31 367 74Q367 78 367 81T365 89L353 208H138L81 112Q64 84 64 62Q64 44 78 35T128 25V0H-67L-68 25Q-40 28 -23 46T18 101L388 683H413L507 123Q512 92 517 74T532 45T555 30T593
25V0H290V25ZM346 248L309 491L161 248H346ZM555 723H229L246 793H571L555 723Z" />
<glyph unicode="&#x101;" glyph-name="uni0101" horiz-adv-x="500" d="M456 112Q434 77 414 53T374 14T336 -7T300 -14Q272 -14 255 2T237 50Q237 61 239 74T251 119Q209 47 171 17T87 -13Q38 -13 9 22T-21 114Q-21 174 3 234T66 345Q106 398 154 430T252 462Q284
462 301 445T326 390H327L344 449L455 456L380 205Q371 175 365 154T356 118T352 92T350 72Q350 57 362 57Q374 57 389 71T435 127L456 112ZM266 420Q250 420 235 410T207 384T181 347T158 305Q145 278 135 251T117 198T106 151T102 115Q102 85 113 72T145 58Q165
58 188 77T231 133Q246 159 259 191T281 256T297 319T303 373Q303 393 293 406T266 420ZM470 516H144L161 586H486L470 516Z" />
<glyph unicode="&#x102;" glyph-name="uni0102" horiz-adv-x="667" d="M290 25Q367 31 367 74Q367 78 367 81T365 89L353 208H138L81 112Q64 84 64 62Q64 44 78 35T128 25V0H-67L-68 25Q-40 28 -23 46T18 101L388 683H413L507 123Q512 92 517 74T532 45T555 30T593
25V0H290V25ZM346 248L309 491L161 248H346ZM558 885Q542 807 498 765T380 723Q310 723 276 761T242 872V885H285Q289 842 312 819T384 795Q434 795 465 815T519 885H558Z" />
<glyph unicode="&#x103;" glyph-name="uni0103" horiz-adv-x="500" d="M456 112Q434 77 414 53T374 14T336 -7T300 -14Q272 -14 255 2T237 50Q237 61 239 74T251 119Q209 47 171 17T87 -13Q38 -13 9 22T-21 114Q-21 174 3 234T66 345Q106 398 154 430T252 462Q284
462 301 445T326 390H327L344 449L455 456L380 205Q371 175 365 154T356 118T352 92T350 72Q350 57 362 57Q374 57 389 71T435 127L456 112ZM266 420Q250 420 235 410T207 384T181 347T158 305Q145 278 135 251T117 198T106 151T102 115Q102 85 113 72T145 58Q165
58 188 77T231 133Q246 159 259 191T281 256T297 319T303 373Q303 393 293 406T266 420ZM483 678Q467 600 423 558T305 516Q235 516 201 554T167 665V678H210Q214 635 237 612T309 588Q359 588 390 608T444 678H483Z" />
<glyph unicode="&#x104;" glyph-name="uni0104" horiz-adv-x="667" d="M290 0V25Q367 31 367 74Q367 78 367 81T365 89L353 208H138L81 112Q64 84 64 62Q64 44 78 35T128 25V0H-67L-68 25Q-40 28 -23 46T18 101L388 683H413L507 123Q512 92 517 74T532 45T555
30T593 25V0H501Q498 -14 497 -24T495 -42Q495 -76 511 -90T556 -104Q568 -104 578 -102T604 -91Q610 -88 612 -87T618 -84L640 -98Q621 -133 587 -153T514 -173Q468 -173 440 -153T411 -92Q411 -69 420 -49T453 0H290ZM346 248L309 491L161 248H346Z" />
<glyph unicode="&#x105;" glyph-name="uni0105" horiz-adv-x="500" d="M507 -98Q488 -133 454 -153T381 -173Q335 -173 307 -153T278 -92Q278 -72 285 -55T310 -13Q306 -14 300 -14Q272 -14 255 2T237 50Q237 61 239 74T251 119Q209 47 171 17T87 -13Q38 -13 9
22T-21 114Q-21 174 3 234T66 345Q106 398 154 430T252 462Q284 462 301 445T326 390H327L344 449L455 456L380 205Q371 175 365 154T356 118T352 92T350 72Q350 57 362 57Q374 57 389 71T435 127L456 112Q433 75 412 51T371 12Q366 -8 364 -20T362 -42Q362 -76
378 -90T423 -104Q435 -104 445 -102T471 -91Q477 -88 479 -87T485 -84L507 -98ZM266 420Q250 420 235 410T207 384T181 347T158 305Q145 278 135 251T117 198T106 151T102 115Q102 85 113 72T145 58Q165 58 188 77T231 133Q246 159 259 191T281 256T297 319T303
373Q303 393 293 406T266 420Z" />
<glyph unicode="&#x106;" glyph-name="uni0106" horiz-adv-x="667" d="M626 450L594 456Q597 475 597 492Q597 562 564 606T466 650Q426 650 388 630T321 577Q263 511 225 416T186 209Q186 127 228 81T341 35Q374 35 400 43T451 66T497 103T545 154L576 132Q552
99 536 81T498 47Q455 15 404 -1T299 -18Q238 -18 189 0T105 51T51 130T32 234Q32 346 75 438T191 592Q243 636 306 660T440 685Q503 685 571 664Q595 656 609 656Q620 656 628 662T647 685H677L626 450ZM360 723L482 854Q509 883 523 893T552 904Q572 904 586
891T600 857Q600 843 592 833T561 810L409 723H360Z" />
<glyph unicode="&#x107;" glyph-name="uni0107" horiz-adv-x="444" d="M346 124Q317 85 291 54T231 5Q196 -13 148 -13Q79 -13 37 25T-5 138Q-5 207 24 268T100 377Q138 416 183 439T280 462Q302 462 322 456T358 437T383 409T392 372Q392 340 375 321T330 301Q304
301 288 316T272 354Q272 365 275 372T282 386T289 398T293 412Q293 420 286 424T269 429Q240 429 219 404T176 341Q151 295 137 243T123 140Q123 96 143 74T196 51Q228 51 255 71T318 142L346 124ZM139 516L261 647Q288 676 302 686T331 697Q351 697 365 684T379
650Q379 636 371 626T340 603L188 516H139Z" />
<glyph unicode="&#x108;" glyph-name="uni0108" horiz-adv-x="667" d="M626 450L594 456Q597 475 597 492Q597 562 564 606T466 650Q426 650 388 630T321 577Q263 511 225 416T186 209Q186 127 228 81T341 35Q374 35 400 43T451 66T497 103T545 154L576 132Q552
99 536 81T498 47Q455 15 404 -1T299 -18Q238 -18 189 0T105 51T51 130T32 234Q32 346 75 438T191 592Q243 636 306 660T440 685Q503 685 571 664Q595 656 609 656Q620 656 628 662T647 685H677L626 450ZM485 818L354 723H297L457 897H538L624 723H573L485 818Z"
/>
<glyph unicode="&#x109;" glyph-name="uni0109" horiz-adv-x="444" d="M346 124Q317 85 291 54T231 5Q196 -13 148 -13Q79 -13 37 25T-5 138Q-5 207 24 268T100 377Q138 416 183 439T280 462Q302 462 322 456T358 437T383 409T392 372Q392 340 375 321T330 301Q304
301 288 316T272 354Q272 365 275 372T282 386T289 398T293 412Q293 420 286 424T269 429Q240 429 219 404T176 341Q151 295 137 243T123 140Q123 96 143 74T196 51Q228 51 255 71T318 142L346 124ZM276 611L145 516H88L248 690H329L415 516H364L276 611Z" />
<glyph unicode="&#x10a;" glyph-name="uni010A" horiz-adv-x="667" d="M626 450L594 456Q597 475 597 492Q597 562 564 606T466 650Q426 650 388 630T321 577Q263 511 225 416T186 209Q186 127 228 81T341 35Q374 35 400 43T451 66T497 103T545 154L576 132Q552
99 536 81T498 47Q455 15 404 -1T299 -18Q238 -18 189 0T105 51T51 130T32 234Q32 346 75 438T191 592Q243 636 306 660T440 685Q503 685 571 664Q595 656 609 656Q620 656 628 662T647 685H677L626 450ZM449 862Q476 862 495 843T515 796Q515 770 496 751T449
732Q423 732 404 751T385 796Q385 823 404 842T449 862Z" />
<glyph unicode="&#x10b;" glyph-name="uni010B" horiz-adv-x="444" d="M346 124Q317 85 291 54T231 5Q196 -13 148 -13Q79 -13 37 25T-5 138Q-5 207 24 268T100 377Q138 416 183 439T280 462Q302 462 322 456T358 437T383 409T392 372Q392 340 375 321T330 301Q304
301 288 316T272 354Q272 365 275 372T282 386T289 398T293 412Q293 420 286 424T269 429Q240 429 219 404T176 341Q151 295 137 243T123 140Q123 96 143 74T196 51Q228 51 255 71T318 142L346 124ZM279 655Q306 655 325 636T345 589Q345 563 326 544T279 525Q253
525 234 544T215 589Q215 616 234 635T279 655Z" />
<glyph unicode="&#x10c;" glyph-name="uni010C" horiz-adv-x="667" d="M626 450L594 456Q597 475 597 492Q597 562 564 606T466 650Q426 650 388 630T321 577Q263 511 225 416T186 209Q186 127 228 81T341 35Q374 35 400 43T451 66T497 103T545 154L576 132Q552
99 536 81T498 47Q455 15 404 -1T299 -18Q238 -18 189 0T105 51T51 130T32 234Q32 346 75 438T191 592Q243 636 306 660T440 685Q503 685 571 664Q595 656 609 656Q620 656 628 662T647 685H677L626 450ZM454 723H372L284 897H335L425 800L559 897H616L454 723Z"
/>
<glyph unicode="&#x10d;" glyph-name="uni010D" horiz-adv-x="444" d="M346 124Q317 85 291 54T231 5Q196 -13 148 -13Q79 -13 37 25T-5 138Q-5 207 24 268T100 377Q138 416 183 439T280 462Q302 462 322 456T358 437T383 409T392 372Q392 340 375 321T330 301Q304
301 288 316T272 354Q272 365 275 372T282 386T289 398T293 412Q293 420 286 424T269 429Q240 429 219 404T176 341Q151 295 137 243T123 140Q123 96 143 74T196 51Q228 51 255 71T318 142L346 124ZM275 516H193L105 690H156L246 593L380 690H437L275 516Z" />
<glyph unicode="&#x10e;" glyph-name="uni010E" horiz-adv-x="722" d="M152 531Q162 566 164 580T167 602Q167 620 159 628T128 639L94 644V669H384Q455 669 511 651T605 598T664 515T685 405Q685 323 654 247T566 117Q506 62 424 31T242 0H-46V25Q-28 27 -15
32T7 46T24 70T37 109L152 531ZM192 135Q184 106 181 92T177 68Q177 34 235 34Q365 34 445 139Q492 200 515 281T538 457Q538 638 373 638Q348 638 336 630T318 600L192 135ZM424 723H342L254 897H305L395 800L529 897H586L424 723Z" />
<glyph unicode="&#x10f;" glyph-name="uni010F" horiz-adv-x="658" d="M522 419Q640 482 640 535Q640 546 634 554T610 572Q586 586 578 601T570 637Q570 673 591 691T643 710Q683 710 704 684T726 616Q726 549 676 491T535 394L522 419ZM400 278Q374 183 362
133T349 75Q349 70 352 65T360 60Q371 60 389 78T428 131L450 115Q408 49 373 19T300 -11Q271 -11 256 5T240 50Q240 62 242 75T251 118Q212 47 172 17T85 -13Q39 -13 9 18T-21 112Q-21 149 -11 188T17 264T59 334T110 394Q142 426 178 444T248 462Q270 462 288
455T323 429L341 493Q350 526 356 548T365 583T369 604T370 615Q370 643 329 643H308V670Q345 673 374 676T427 682T473 690T517 699L400 278ZM308 371Q308 392 298 406T271 420Q255 420 239 411T209 386T181 350T157 308Q132 258 118 206T103 122Q103 95 114 77T144
59Q189 59 230 133Q243 157 257 191T282 259T301 324T308 371Z" />
<glyph unicode="&#x110;" glyph-name="uni0110" horiz-adv-x="722" d="M170 543Q177 568 179 581T182 602Q182 620 172 627T140 639L109 644V669H399Q470 669 526 651T620 597T679 511T700 396Q700 310 667 238T574 113T433 30T255 0H-31V25Q-13 27 0 31T22 44T37
65T49 97L112 329H10L22 373H124L170 543ZM394 373L382 329H260L204 122Q199 102 196 90T192 68Q192 50 204 42T246 34Q319 34 373 63T469 152Q488 181 504 216T530 291T547 373T553 457Q553 638 388 638Q363 638 351 630T333 600L272 373H394Z" />
<glyph unicode="&#x111;" glyph-name="uni0111" horiz-adv-x="500" d="M361 568Q366 590 368 600T370 615Q370 643 329 643H308V670Q345 673 374 676T427 682T473 690T517 699L480 568H541L527 518H466L400 278Q374 183 362 133T349 75Q349 70 352 65T360 60Q371
60 389 78T428 131L450 115Q408 49 373 19T300 -11Q271 -11 256 5T240 50Q240 62 242 75T251 118Q212 47 172 17T85 -13Q39 -13 9 18T-21 112Q-21 149 -11 188T17 264T59 334T110 394Q142 426 178 444T248 462Q270 462 288 455T323 429L348 518H166L180 568H361ZM271
420Q255 420 239 411T209 386T181 350T157 308Q132 258 118 206T103 122Q103 95 114 77T144 59Q189 59 230 133Q243 157 257 191T282 259T301 324T308 371Q308 392 298 406T271 420Z" />
<glyph unicode="&#x112;" glyph-name="uni0112" horiz-adv-x="667" d="M526 0H-27V25Q-8 28 5 32T27 45T42 68T55 105L174 537Q181 562 183 579T186 607Q186 622 177 629T145 640L112 644V669H653L610 479L583 484Q582 511 581 529T575 562T562 586T538 607Q491
637 401 637Q386 637 375 636T357 629T344 613T334 586L275 370Q324 370 356 373T409 388T446 420T480 477L508 473L434 199L406 203Q408 217 409 226T410 247Q410 273 404 290T381 318T336 333T266 338L203 104Q199 89 197 80T195 66Q195 48 209 40T256 32Q322
32 374 46T470 93Q484 103 495 113T516 135T537 162T561 199L586 194L526 0ZM585 723H259L276 793H601L585 723Z" />
<glyph unicode="&#x113;" glyph-name="uni0113" horiz-adv-x="444" d="M346 126Q304 51 257 19T151 -13Q85 -13 45 23T5 134Q5 196 29 255T94 360T187 434T293 462Q342 462 370 438T398 375Q398 343 379 311T329 253Q313 239 295 229T255 211T205 195T141 182Q138
167 137 156T135 133Q135 51 199 51Q215 51 229 55T257 71T285 99T317 143L346 126ZM148 214Q182 221 211 238T261 278T294 330T306 390Q306 407 300 418T275 429Q239 429 207 374T148 214ZM415 516H89L106 586H431L415 516Z" />
<glyph unicode="&#x114;" glyph-name="uni0114" horiz-adv-x="667" d="M526 0H-27V25Q-8 28 5 32T27 45T42 68T55 105L174 537Q181 562 183 579T186 607Q186 622 177 629T145 640L112 644V669H653L610 479L583 484Q582 511 581 529T575 562T562 586T538 607Q491
637 401 637Q386 637 375 636T357 629T344 613T334 586L275 370Q324 370 356 373T409 388T446 420T480 477L508 473L434 199L406 203Q408 217 409 226T410 247Q410 273 404 290T381 318T336 333T266 338L203 104Q199 89 197 80T195 66Q195 48 209 40T256 32Q322
32 374 46T470 93Q484 103 495 113T516 135T537 162T561 199L586 194L526 0ZM608 885Q592 807 548 765T430 723Q360 723 326 761T292 872V885H335Q339 842 362 819T434 795Q484 795 515 815T569 885H608Z" />
<glyph unicode="&#x115;" glyph-name="uni0115" horiz-adv-x="444" d="M346 126Q304 51 257 19T151 -13Q85 -13 45 23T5 134Q5 196 29 255T94 360T187 434T293 462Q342 462 370 438T398 375Q398 343 379 311T329 253Q313 239 295 229T255 211T205 195T141 182Q138
167 137 156T135 133Q135 51 199 51Q215 51 229 55T257 71T285 99T317 143L346 126ZM148 214Q182 221 211 238T261 278T294 330T306 390Q306 407 300 418T275 429Q239 429 207 374T148 214ZM478 678Q462 600 418 558T300 516Q230 516 196 554T162 665V678H205Q209
635 232 612T304 588Q354 588 385 608T439 678H478Z" />
<glyph unicode="&#x116;" glyph-name="uni0116" horiz-adv-x="667" d="M526 0H-27V25Q-8 28 5 32T27 45T42 68T55 105L174 537Q181 562 183 579T186 607Q186 622 177 629T145 640L112 644V669H653L610 479L583 484Q582 511 581 529T575 562T562 586T538 607Q491
637 401 637Q386 637 375 636T357 629T344 613T334 586L275 370Q324 370 356 373T409 388T446 420T480 477L508 473L434 199L406 203Q408 217 409 226T410 247Q410 273 404 290T381 318T336 333T266 338L203 104Q199 89 197 80T195 66Q195 48 209 40T256 32Q322
32 374 46T470 93Q484 103 495 113T516 135T537 162T561 199L586 194L526 0ZM429 862Q456 862 475 843T495 796Q495 770 476 751T429 732Q403 732 384 751T365 796Q365 823 384 842T429 862Z" />
<glyph unicode="&#x117;" glyph-name="uni0117" horiz-adv-x="444" d="M346 126Q304 51 257 19T151 -13Q85 -13 45 23T5 134Q5 196 29 255T94 360T187 434T293 462Q342 462 370 438T398 375Q398 343 379 311T329 253Q313 239 295 229T255 211T205 195T141 182Q138
167 137 156T135 133Q135 51 199 51Q215 51 229 55T257 71T285 99T317 143L346 126ZM148 214Q182 221 211 238T261 278T294 330T306 390Q306 407 300 418T275 429Q239 429 207 374T148 214ZM289 655Q316 655 335 636T355 589Q355 563 336 544T289 525Q263 525 244
544T225 589Q225 616 244 635T289 655Z" />
<glyph unicode="&#x118;" glyph-name="uni0118" horiz-adv-x="667" d="M-27 0V25Q-8 28 5 32T27 45T42 68T55 105L174 537Q181 562 183 579T186 607Q186 622 177 629T145 640L112 644V669H653L610 479L583 484Q582 511 581 529T575 562T562 586T538 607Q491 637
401 637Q386 637 375 636T357 629T344 613T334 586L275 370Q324 370 356 373T409 388T446 420T480 477L508 473L434 199L406 203Q408 217 409 226T410 247Q410 273 404 290T381 318T336 333T266 338L203 104Q199 89 197 80T195 66Q195 48 209 40T256 32Q322 32
374 46T470 93Q484 103 495 113T516 135T537 162T561 199L586 194L526 0H354Q350 -18 348 -29T346 -51Q346 -85 362 -99T407 -113Q419 -113 429 -111T455 -100Q461 -97 463 -96T469 -93L491 -107Q472 -142 438 -162T365 -182Q319 -182 291 -162T262 -101Q262 -76
273 -55T311 0H-27Z" />
<glyph unicode="&#x119;" glyph-name="uni0119" horiz-adv-x="444" d="M151 -13Q85 -13 45 23T5 134Q5 196 29 255T94 360T187 434T293 462Q342 462 370 438T398 375Q398 343 379 311T329 253Q313 239 295 229T255 211T205 195T141 182Q138 167 137 156T135 133Q135
51 199 51Q215 51 229 55T257 71T285 99T317 143L346 126Q314 69 280 38T205 -6Q198 -34 198 -51Q198 -85 214 -99T259 -113Q271 -113 281 -111T307 -100Q313 -97 315 -96T321 -93L343 -107Q324 -142 290 -162T217 -182Q171 -182 143 -162T114 -101Q114 -79 122
-60T153 -13H151ZM148 214Q182 221 211 238T261 278T294 330T306 390Q306 407 300 418T275 429Q239 429 207 374T148 214Z" />
<glyph unicode="&#x11a;" glyph-name="uni011A" horiz-adv-x="667" d="M526 0H-27V25Q-8 28 5 32T27 45T42 68T55 105L174 537Q181 562 183 579T186 607Q186 622 177 629T145 640L112 644V669H653L610 479L583 484Q582 511 581 529T575 562T562 586T538 607Q491
637 401 637Q386 637 375 636T357 629T344 613T334 586L275 370Q324 370 356 373T409 388T446 420T480 477L508 473L434 199L406 203Q408 217 409 226T410 247Q410 273 404 290T381 318T336 333T266 338L203 104Q199 89 197 80T195 66Q195 48 209 40T256 32Q322
32 374 46T470 93Q484 103 495 113T516 135T537 162T561 199L586 194L526 0ZM454 723H372L284 897H335L425 800L559 897H616L454 723Z" />
<glyph unicode="&#x11b;" glyph-name="uni011B" horiz-adv-x="444" d="M346 126Q304 51 257 19T151 -13Q85 -13 45 23T5 134Q5 196 29 255T94 360T187 434T293 462Q342 462 370 438T398 375Q398 343 379 311T329 253Q313 239 295 229T255 211T205 195T141 182Q138
167 137 156T135 133Q135 51 199 51Q215 51 229 55T257 71T285 99T317 143L346 126ZM148 214Q182 221 211 238T261 278T294 330T306 390Q306 407 300 418T275 429Q239 429 207 374T148 214ZM324 516H242L154 690H205L295 593L429 690H486L324 516Z" />
<glyph unicode="&#x11c;" glyph-name="uni011C" horiz-adv-x="722" d="M705 304Q686 302 674 299T654 285T638 257T623 208L579 41L551 28Q530 18 502 10T442 -5T379 -14T317 -18Q251 -18 197 1T103 55T43 141T21 256Q21 354 65 442T184 593Q296 685 448 685Q483
685 511 680T572 664Q586 659 593 657T608 655Q623 655 632 661T650 685H681L630 464L601 468Q599 514 594 540T577 587Q541 649 462 649Q410 649 366 621T289 551Q238 485 208 398T177 216Q177 118 219 69T341 20Q370 20 397 28T435 50L466 154Q474 182 479 200T488
230T492 250T493 268Q493 275 490 282T481 292Q473 297 462 299T418 304V330H705V304ZM475 818L344 723H287L447 897H528L614 723H563L475 818Z" />
<glyph unicode="&#x11d;" glyph-name="uni011D" horiz-adv-x="500" d="M477 373H411Q416 364 416 354T417 331Q417 250 346 199Q311 174 278 164T201 153Q188 153 174 155T150 161Q140 161 131 152T122 125Q122 113 137 102T176 84L226 72Q308 52 341 24T375 -51Q375
-81 359 -108T313 -157T238 -190T138 -203Q51 -203 0 -178T-52 -102Q-52 -69 -39 -48T-5 -15T38 1T81 7Q48 18 34 33T19 73Q19 101 39 124T115 170Q35 204 35 280Q35 319 52 352T98 410T167 448T253 462Q288 462 316 456T367 429H477V373ZM115 -6Q108 -7 91 -16T64
-36Q35 -64 35 -91Q35 -126 66 -147T148 -169Q202 -169 234 -148T266 -100Q266 -63 224 -42Q216 -38 200 -32T166 -21T134 -11T115 -6ZM255 431Q238 431 224 422T198 399Q186 384 177 364T162 323T154 281T151 243Q151 184 193 184Q239 184 271 253Q284 281 292
313T300 372Q300 398 290 414T255 431ZM315 611L184 516H127L287 690H368L454 516H403L315 611Z" />
<glyph unicode="&#x11e;" glyph-name="uni011E" horiz-adv-x="722" d="M705 304Q686 302 674 299T654 285T638 257T623 208L579 41L551 28Q530 18 502 10T442 -5T379 -14T317 -18Q251 -18 197 1T103 55T43 141T21 256Q21 354 65 442T184 593Q296 685 448 685Q483
685 511 680T572 664Q586 659 593 657T608 655Q623 655 632 661T650 685H681L630 464L601 468Q599 514 594 540T577 587Q541 649 462 649Q410 649 366 621T289 551Q238 485 208 398T177 216Q177 118 219 69T341 20Q370 20 397 28T435 50L466 154Q474 182 479 200T488
230T492 250T493 268Q493 275 490 282T481 292Q473 297 462 299T418 304V330H705V304ZM618 885Q602 807 558 765T440 723Q370 723 336 761T302 872V885H345Q349 842 372 819T444 795Q494 795 525 815T579 885H618Z" />
<glyph unicode="&#x11f;" glyph-name="uni011F" horiz-adv-x="500" d="M477 373H411Q416 364 416 354T417 331Q417 250 346 199Q311 174 278 164T201 153Q188 153 174 155T150 161Q140 161 131 152T122 125Q122 113 137 102T176 84L226 72Q308 52 341 24T375 -51Q375
-81 359 -108T313 -157T238 -190T138 -203Q51 -203 0 -178T-52 -102Q-52 -69 -39 -48T-5 -15T38 1T81 7Q48 18 34 33T19 73Q19 101 39 124T115 170Q35 204 35 280Q35 319 52 352T98 410T167 448T253 462Q288 462 316 456T367 429H477V373ZM115 -6Q108 -7 91 -16T64
-36Q35 -64 35 -91Q35 -126 66 -147T148 -169Q202 -169 234 -148T266 -100Q266 -63 224 -42Q216 -38 200 -32T166 -21T134 -11T115 -6ZM255 431Q238 431 224 422T198 399Q186 384 177 364T162 323T154 281T151 243Q151 184 193 184Q239 184 271 253Q284 281 292
313T300 372Q300 398 290 414T255 431ZM468 678Q452 600 408 558T290 516Q220 516 186 554T152 665V678H195Q199 635 222 612T294 588Q344 588 375 608T429 678H468Z" />
<glyph unicode="&#x120;" glyph-name="uni0120" horiz-adv-x="722" d="M705 304Q686 302 674 299T654 285T638 257T623 208L579 41L551 28Q530 18 502 10T442 -5T379 -14T317 -18Q251 -18 197 1T103 55T43 141T21 256Q21 354 65 442T184 593Q296 685 448 685Q483
685 511 680T572 664Q586 659 593 657T608 655Q623 655 632 661T650 685H681L630 464L601 468Q599 514 594 540T577 587Q541 649 462 649Q410 649 366 621T289 551Q238 485 208 398T177 216Q177 118 219 69T341 20Q370 20 397 28T435 50L466 154Q474 182 479 200T488
230T492 250T493 268Q493 275 490 282T481 292Q473 297 462 299T418 304V330H705V304ZM459 862Q486 862 505 843T525 796Q525 770 506 751T459 732Q433 732 414 751T395 796Q395 823 414 842T459 862Z" />
<glyph unicode="&#x121;" glyph-name="uni0121" horiz-adv-x="500" d="M477 373H411Q416 364 416 354T417 331Q417 250 346 199Q311 174 278 164T201 153Q188 153 174 155T150 161Q140 161 131 152T122 125Q122 113 137 102T176 84L226 72Q308 52 341 24T375 -51Q375
-81 359 -108T313 -157T238 -190T138 -203Q51 -203 0 -178T-52 -102Q-52 -69 -39 -48T-5 -15T38 1T81 7Q48 18 34 33T19 73Q19 101 39 124T115 170Q35 204 35 280Q35 319 52 352T98 410T167 448T253 462Q288 462 316 456T367 429H477V373ZM115 -6Q108 -7 91 -16T64
-36Q35 -64 35 -91Q35 -126 66 -147T148 -169Q202 -169 234 -148T266 -100Q266 -63 224 -42Q216 -38 200 -32T166 -21T134 -11T115 -6ZM255 431Q238 431 224 422T198 399Q186 384 177 364T162 323T154 281T151 243Q151 184 193 184Q239 184 271 253Q284 281 292
313T300 372Q300 398 290 414T255 431ZM279 655Q306 655 325 636T345 589Q345 563 326 544T279 525Q253 525 234 544T215 589Q215 616 234 635T279 655Z" />
<glyph unicode="&#x122;" glyph-name="uni0122" horiz-adv-x="722" d="M705 304Q686 302 674 299T654 285T638 257T623 208L579 41L551 28Q530 18 502 10T442 -5T379 -14T317 -18Q251 -18 197 1T103 55T43 141T21 256Q21 354 65 442T184 593Q296 685 448 685Q483
685 511 680T572 664Q586 659 593 657T608 655Q623 655 632 661T650 685H681L630 464L601 468Q599 514 594 540T577 587Q541 649 462 649Q410 649 366 621T289 551Q238 485 208 398T177 216Q177 118 219 69T341 20Q370 20 397 28T435 50L466 154Q474 182 479 200T488
230T492 250T493 268Q493 275 490 282T481 292Q473 297 462 299T418 304V330H705V304ZM158 -334Q276 -271 276 -218Q276 -207 270 -199T246 -181Q222 -167 214 -152T206 -116Q206 -84 227 -64T279 -43Q319 -43 340 -69T362 -137Q362 -204 312 -262T171 -359L158
-334Z" />
<glyph unicode="&#x123;" glyph-name="uni0123" horiz-adv-x="500" d="M477 373H411Q416 364 416 354T417 331Q417 250 346 199Q311 174 278 164T201 153Q188 153 174 155T150 161Q140 161 131 152T122 125Q122 113 137 102T176 84L226 72Q308 52 341 24T375 -51Q375
-81 359 -108T313 -157T238 -190T138 -203Q51 -203 0 -178T-52 -102Q-52 -69 -39 -48T-5 -15T38 1T81 7Q48 18 34 33T19 73Q19 101 39 124T115 170Q35 204 35 280Q35 319 52 352T98 410T167 448T253 462Q288 462 316 456T367 429H477V373ZM115 -6Q108 -7 91 -16T64
-36Q35 -64 35 -91Q35 -126 66 -147T148 -169Q202 -169 234 -148T266 -100Q266 -63 224 -42Q216 -38 200 -32T166 -21T134 -11T115 -6ZM255 431Q238 431 224 422T198 399Q186 384 177 364T162 323T154 281T151 243Q151 184 193 184Q239 184 271 253Q284 281 292
313T300 372Q300 398 290 414T255 431ZM383 807Q265 744 265 691Q265 680 271 672T295 654Q319 640 327 625T335 589Q335 553 314 535T262 516Q222 516 201 542T179 610Q179 677 229 735T370 832L383 807Z" />
<glyph unicode="&#x124;" glyph-name="uni0124" horiz-adv-x="778" d="M266 329L212 132Q204 105 202 91T200 65Q200 59 202 53T211 42T233 32T271 25V0H-24V25Q-5 28 7 31T29 43T44 64T57 99L178 546Q184 567 186 581T189 604Q189 621 180 629T147 640L116 644V669H432V644Q408
643 392 640T364 628T345 604T330 564L278 373H517L564 546Q568 560 571 579T574 607Q574 622 565 629T533 640L502 644V669H799V644Q762 644 745 627T717 570L606 162Q595 119 590 98T584 66Q584 44 599 36T657 25V0H341V25Q366 26 382 30T410 42T429 65T443 104L505
329H266ZM495 818L364 723H307L467 897H548L634 723H583L495 818Z" />
<glyph unicode="&#x125;" glyph-name="uni0125" horiz-adv-x="556" d="M498 127Q473 88 453 62T413 21T374 -2T331 -9Q302 -9 284 8T265 55Q265 70 267 86T276 127T295 188T326 280L346 339Q353 360 353 369Q353 381 348 385T333 390Q291 390 227 296Q209 269
195 244T168 187T141 110T108 0H-13L139 562Q144 579 146 590T149 609Q149 642 107 642H85V669Q115 672 141 674T191 681T240 689T294 699L186 283Q223 336 251 370T304 425T350 454T399 462Q436 462 455 442T475 387Q475 373 468 345T446 269L387 87Q385 81 385
79T384 75Q384 70 389 65T401 59Q411 59 427 77T476 142L498 127ZM355 818L224 723H167L327 897H408L494 723H443L355 818Z" />
<glyph unicode="&#x126;" glyph-name="uni0126" horiz-adv-x="778" d="M62 540H176Q184 566 186 580T189 604Q189 621 180 629T147 640L116 644V669H432V644Q408 643 392 640T364 628T345 604T330 564L323 540H562Q567 559 570 578T574 607Q574 622 565 629T533
640L502 644V669H799V644Q762 644 745 627T717 570L709 540H800V496H697L606 162Q595 119 590 98T584 66Q584 44 599 36T657 25V0H341V25Q366 26 382 30T410 42T429 65T443 104L505 329H266L212 132Q204 105 202 91T200 65Q200 59 202 53T211 42T233 32T271 25V0H-24V25Q-5
28 7 31T29 43T44 64T57 99L164 496H62V540ZM517 373L550 496H311L278 373H517Z" />
<glyph unicode="&#x127;" glyph-name="uni0127" horiz-adv-x="556" d="M77 558H138Q149 597 149 609Q149 642 107 642H85V669Q115 672 141 674T191 681T240 689T294 699L257 558H416L404 514H246L186 283Q223 336 251 370T304 425T350 454T399 462Q436 462 455
442T475 387Q475 373 468 345T446 269L387 87Q385 81 385 79T384 75Q384 70 389 65T401 59Q411 59 427 77T476 142L498 127Q473 88 453 62T413 21T374 -2T331 -9Q302 -9 284 8T265 55Q265 70 267 86T276 127T295 188T326 280L346 339Q353 360 353 369Q353 381 348
385T333 390Q291 390 227 296Q209 269 195 244T168 187T141 110T108 0H-13L126 514H65L77 558Z" />
<glyph unicode="&#x128;" glyph-name="uni0128" horiz-adv-x="389" d="M168 536Q174 558 178 578T182 607Q182 635 140 640L108 644V669H406V644Q388 642 375 638T352 626T335 603T322 564L210 152Q199 114 196 96T193 65Q193 44 207 36T264 25V0H-32V25Q-14 27
-1 30T21 41T37 65T51 107L168 536ZM470 862Q453 799 426 771T353 743Q339 743 328 745T296 756L237 779Q216 787 199 787Q182 787 172 778T151 744H111Q121 798 152 830T227 862Q265 862 324 836Q344 828 356 824T378 820Q395 820 406 829T429 862H470Z" />
<glyph unicode="&#x129;" glyph-name="uni0129" horiz-adv-x="278" d="M238 128Q213 87 192 61T152 19T112 -3T70 -9Q39 -9 21 6T2 54Q2 76 17 130L72 333Q77 351 78 361T80 378Q80 407 34 407H20V434Q79 439 130 446T223 462L132 128Q128 115 126 100T123 77Q123
68 127 65T138 61Q149 61 165 77T202 122L216 142L238 128ZM350 655Q333 592 306 564T233 536Q219 536 208 538T176 549L117 572Q96 580 79 580Q62 580 52 571T31 537H-9Q1 591 32 623T107 655Q145 655 204 629Q224 621 236 617T258 613Q275 613 286 622T309 655H350Z"
/>
<glyph unicode="&#x12a;" glyph-name="uni012A" horiz-adv-x="389" d="M168 536Q174 558 178 578T182 607Q182 635 140 640L108 644V669H406V644Q388 642 375 638T352 626T335 603T322 564L210 152Q199 114 196 96T193 65Q193 44 207 36T264 25V0H-32V25Q-14 27
-1 30T21 41T37 65T51 107L168 536ZM435 723H109L126 793H451L435 723Z" />
<glyph unicode="&#x12b;" glyph-name="uni012B" horiz-adv-x="278" d="M238 128Q213 87 192 61T152 19T112 -3T70 -9Q39 -9 21 6T2 54Q2 76 17 130L72 333Q77 351 78 361T80 378Q80 407 34 407H20V434Q79 439 130 446T223 462L132 128Q128 115 126 100T123 77Q123
68 127 65T138 61Q149 61 165 77T202 122L216 142L238 128ZM315 516H-11L6 586H331L315 516Z" />
<glyph unicode="&#x12c;" glyph-name="uni012C" horiz-adv-x="389" d="M168 536Q174 558 178 578T182 607Q182 635 140 640L108 644V669H406V644Q388 642 375 638T352 626T335 603T322 564L210 152Q199 114 196 96T193 65Q193 44 207 36T264 25V0H-32V25Q-14 27
-1 30T21 41T37 65T51 107L168 536ZM458 885Q442 807 398 765T280 723Q210 723 176 761T142 872V885H185Q189 842 212 819T284 795Q334 795 365 815T419 885H458Z" />
<glyph unicode="&#x12d;" glyph-name="uni012D" horiz-adv-x="278" d="M238 128Q213 87 192 61T152 19T112 -3T70 -9Q39 -9 21 6T2 54Q2 76 17 130L72 333Q77 351 78 361T80 378Q80 407 34 407H20V434Q79 439 130 446T223 462L132 128Q128 115 126 100T123 77Q123
68 127 65T138 61Q149 61 165 77T202 122L216 142L238 128ZM328 678Q312 600 268 558T150 516Q80 516 46 554T12 665V678H55Q59 635 82 612T154 588Q204 588 235 608T289 678H328Z" />
<glyph unicode="&#x12e;" glyph-name="uni012E" horiz-adv-x="389" d="M-32 0V25Q-14 27 -1 30T21 41T37 65T51 107L168 536Q174 558 178 578T182 607Q182 635 140 640L108 644V669H406V644Q388 642 375 638T352 626T335 603T322 564L210 152Q199 114 196 96T193
65Q193 44 207 36T264 25V0H138Q135 -14 134 -24T132 -42Q132 -76 148 -90T193 -104Q205 -104 215 -102T241 -91Q247 -88 249 -87T255 -84L277 -98Q258 -133 224 -153T151 -173Q105 -173 77 -153T48 -92Q48 -69 57 -49T90 0H-32Z" />
<glyph unicode="&#x12f;" glyph-name="uni012F" horiz-adv-x="278" d="M244 -98Q225 -133 191 -153T118 -173Q72 -173 44 -153T15 -92Q15 -71 23 -52T51 -7Q28 -3 15 12T2 54Q2 76 17 130L72 333Q77 351 78 361T80 378Q80 407 34 407H20V434Q79 439 130 446T223
462L132 128Q128 115 126 100T123 77Q123 68 127 65T138 61Q149 61 165 77T202 122L216 142L238 128Q218 96 201 73T168 34T136 9T104 -5Q102 -17 101 -25T99 -42Q99 -76 115 -90T160 -104Q172 -104 182 -102T208 -91Q214 -88 216 -87T222 -84L244 -98ZM193 684Q222
684 242 664T262 616Q262 588 243 569T194 550Q165 550 147 570T128 619Q128 645 147 664T193 684Z" />
<glyph unicode="&#x130;" glyph-name="uni0130" horiz-adv-x="389" d="M168 536Q174 558 178 578T182 607Q182 635 140 640L108 644V669H406V644Q388 642 375 638T352 626T335 603T322 564L210 152Q199 114 196 96T193 65Q193 44 207 36T264 25V0H-32V25Q-14 27
-1 30T21 41T37 65T51 107L168 536ZM279 862Q306 862 325 843T345 796Q345 770 326 751T279 732Q253 732 234 751T215 796Q215 823 234 842T279 862Z" />
<glyph unicode="&#x131;" glyph-name="dotlessi" horiz-adv-x="278" d="M238 128Q213 87 192 61T152 19T112 -3T70 -9Q39 -9 21 6T2 54Q2 76 17 130L72 333Q77 351 78 361T80 378Q80 407 34 407H20V434Q79 439 130 446T223 462L132 128Q128 115 126 100T123 77Q123
68 127 65T138 61Q149 61 165 77T202 122L216 142L238 128Z" />
<glyph unicode="&#x132;" glyph-name="uni0132" horiz-adv-x="823" d="M168 536Q174 558 178 578T182 607Q182 635 140 640L108 644V669H406V644Q388 642 375 638T352 626T335 603T322 564L210 152Q199 114 196 96T193 65Q193 44 207 36T264 25V0H-32V25Q-14 27
-1 30T21 41T37 65T51 107L168 536ZM706 102Q679 0 623 -49T491 -99Q425 -99 384 -73T343 2Q343 32 361 53T407 74Q433 74 451 57T470 9Q470 -3 467 -10T459 -22T451 -33T447 -45Q447 -63 474 -63Q488 -63 498 -56T518 -31T538 21T562 107L676 539Q684 568 686
581T689 603Q689 617 680 626T648 639L615 644V669H913V644Q895 642 882 639T860 627T843 603T828 559L706 102Z" />
<glyph unicode="&#x133;" glyph-name="uni0133" horiz-adv-x="552" d="M193 684Q222 684 242 664T262 616Q262 588 243 569T194 550Q165 550 147 570T128 619Q128 645 147 664T193 684ZM238 128Q213 87 192 61T152 19T112 -3T70 -9Q39 -9 21 6T2 54Q2 76 17 130L72
333Q77 351 78 361T80 378Q80 407 34 407H20V434Q79 439 130 446T223 462L132 128Q128 115 126 100T123 77Q123 68 127 65T138 61Q149 61 165 77T202 122L216 142L238 128ZM388 18Q356 -102 306 -154T181 -207Q133 -207 105 -185T76 -130Q76 -108 90 -93T125 -77Q147
-77 160 -90T174 -126Q174 -134 172 -138T167 -146T162 -152T159 -161Q159 -169 166 -172T183 -176Q204 -176 221 -146T257 -40L346 310Q358 355 358 377Q358 407 317 407H295V434Q337 438 366 441T419 447T461 453T504 462L388 18ZM475 685Q504 685 524 665T544
617Q544 589 524 570T475 550Q447 550 428 570T409 619Q409 645 429 665T475 685Z" />
<glyph unicode="&#x134;" glyph-name="uni0134" horiz-adv-x="500" d="M317 102Q290 0 234 -49T102 -99Q36 -99 -5 -73T-46 2Q-46 32 -28 53T18 74Q44 74 62 57T81 9Q81 -3 78 -10T70 -22T62 -33T58 -45Q58 -63 85 -63Q99 -63 109 -56T129 -31T149 21T173 107L287
539Q295 568 297 581T300 603Q300 617 291 626T259 639L226 644V669H524V644Q506 642 493 639T471 627T454 603T439 559L317 102ZM415 818L284 723H227L387 897H468L554 723H503L415 818Z" />
<glyph unicode="&#x135;" glyph-name="uni0135" horiz-adv-x="278" d="M123 18Q91 -102 41 -154T-84 -207Q-132 -207 -160 -185T-189 -130Q-189 -108 -175 -93T-140 -77Q-118 -77 -105 -90T-91 -126Q-91 -134 -93 -138T-98 -146T-103 -152T-106 -161Q-106 -169
-99 -172T-82 -176Q-61 -176 -44 -146T-8 -40L81 310Q93 355 93 377Q93 407 52 407H30V434Q72 438 101 441T154 447T196 453T239 462L202 322L123 18ZM175 611L44 516H-13L147 690H228L314 516H263L175 611Z" />
<glyph unicode="&#x136;" glyph-name="uni0136" horiz-adv-x="667" d="M549 64Q557 46 570 37T612 25V0H332L333 25L359 29Q379 32 388 36T397 52Q397 68 382 101L271 337L204 88Q202 78 202 71Q202 46 215 37T267 25V0H-21V25Q-4 27 8 30T30 41T46 60T58 93L181
546Q187 567 189 581T192 604Q192 621 183 629T151 640L118 644V669H429V644Q385 640 365 626T335 572L273 345L470 520Q514 559 530 581T547 617Q547 639 512 642L491 644V669H702V644Q686 642 676 640T655 633T635 620T608 596L392 397L549 64ZM148 -334Q266
-271 266 -218Q266 -207 260 -199T236 -181Q212 -167 204 -152T196 -116Q196 -84 217 -64T269 -43Q309 -43 330 -69T352 -137Q352 -204 302 -262T161 -359L148 -334Z" />
<glyph unicode="&#x137;" glyph-name="uni0137" horiz-adv-x="500" d="M99 0H-23L134 566Q139 584 140 592T141 608Q141 629 134 635T111 642H77V669Q106 670 131 672T181 679T231 688T286 699L162 238Q209 275 241 301T292 347T319 378T327 401Q327 413 317 417T277
424V449H483V424Q466 422 452 419T424 407T391 385T348 348L284 290Q299 217 310 173T330 104T347 71T363 63Q377 63 392 77T427 127L449 116Q415 45 382 19T311 -8Q288 -8 271 2T239 37T212 106T188 215L149 188L99 0ZM38 -334Q156 -271 156 -218Q156 -207 150
-199T126 -181Q102 -167 94 -152T86 -116Q86 -84 107 -64T159 -43Q199 -43 220 -69T242 -137Q242 -204 192 -262T51 -359L38 -334Z" />
<glyph unicode="&#x138;" glyph-name="uni0138" horiz-adv-x="600" d="M446 0Q426 2 408 24T377 76Q371 89 369 100T364 122T357 146T346 179Q336 205 320 216T290 233Q286 232 281 232T263 232L223 87Q220 76 218 67T216 50Q216 37 225 31T258 24L251 0H6L13
24Q39 30 55 41T80 86L164 391Q168 403 168 415Q168 432 157 438T127 446L134 470H379L372 446Q356 444 346 441T328 432T315 416T306 390L277 282Q291 282 299 282T316 285Q358 294 380 301T418 317Q444 333 465 353T508 405Q521 424 531 437T552 457T578 467T618
470Q646 470 667 454T689 414Q689 394 675 383T639 372Q622 372 613 378T598 391T587 405T574 412Q561 412 553 406T536 384Q513 346 485 318T428 272Q436 269 444 262T461 238Q465 227 472 209T485 170T498 130T510 100Q517 82 525 69T546 47T577 33T621 24L614
0H446Z" />
<glyph unicode="&#x139;" glyph-name="uni0139" horiz-adv-x="611" d="M530 0H-22V25Q-1 28 12 32T34 46T48 69T60 103L181 546Q185 560 188 579T192 607Q192 622 183 629T151 639Q143 641 134 642T117 644V669H435V644Q410 642 394 639T366 628T348 607T336 574L207
101Q204 89 203 79T201 62Q201 46 220 39T273 32Q326 32 369 43T451 77Q470 89 485 100T513 126T538 158T566 200L590 195L530 0ZM262 723L384 854Q411 883 425 893T454 904Q474 904 488 891T502 857Q502 843 494 833T463 810L311 723H262Z" />
<glyph unicode="&#x13a;" glyph-name="uni013A" horiz-adv-x="278" d="M239 127Q213 88 193 62T153 20T114 -2T70 -9Q39 -9 21 9T2 54Q2 71 11 113T36 209L110 468Q126 523 135 559T144 613Q144 643 102 643Q98 643 93 643T80 642V669Q108 672 132 674T181 680T231
688T290 699L145 176Q123 97 123 76Q123 70 126 66T138 61Q152 61 169 78T217 141L239 127ZM104 723L226 854Q253 883 267 893T296 904Q316 904 330 891T344 857Q344 843 336 833T305 810L153 723H104Z" />
<glyph unicode="&#x13b;" glyph-name="uni013B" horiz-adv-x="611" d="M530 0H-22V25Q-1 28 12 32T34 46T48 69T60 103L181 546Q185 560 188 579T192 607Q192 622 183 629T151 639Q143 641 134 642T117 644V669H435V644Q410 642 394 639T366 628T348 607T336 574L207
101Q204 89 203 79T201 62Q201 46 220 39T273 32Q326 32 369 43T451 77Q470 89 485 100T513 126T538 158T566 200L590 195L530 0ZM128 -334Q246 -271 246 -218Q246 -207 240 -199T216 -181Q192 -167 184 -152T176 -116Q176 -84 197 -64T249 -43Q289 -43 310 -69T332
-137Q332 -204 282 -262T141 -359L128 -334Z" />
<glyph unicode="&#x13c;" glyph-name="uni013C" horiz-adv-x="278" d="M239 127Q213 88 193 62T153 20T114 -2T70 -9Q39 -9 21 9T2 54Q2 71 11 113T36 209L110 468Q126 523 135 559T144 613Q144 643 102 643Q98 643 93 643T80 642V669Q108 672 132 674T181 680T231
688T290 699L145 176Q123 97 123 76Q123 70 126 66T138 61Q152 61 169 78T217 141L239 127ZM-62 -334Q56 -271 56 -218Q56 -207 50 -199T26 -181Q2 -167 -6 -152T-14 -116Q-14 -84 7 -64T59 -43Q99 -43 120 -69T142 -137Q142 -204 92 -262T-49 -359L-62 -334Z"
/>
<glyph unicode="&#x13d;" glyph-name="uni013D" horiz-adv-x="611" d="M530 0H-22V25Q-1 28 12 32T34 46T48 69T60 103L181 546Q185 560 188 579T192 607Q192 622 183 629T151 639Q143 641 134 642T117 644V669H435V644Q410 642 394 639T366 628T348 607T336 574L207
101Q204 89 203 79T201 62Q201 46 220 39T273 32Q326 32 369 43T451 77Q470 89 485 100T513 126T538 158T566 200L590 195L530 0ZM463 394Q581 457 581 510Q581 521 575 529T551 547Q527 561 519 576T511 612Q511 648 532 666T584 685Q624 685 645 659T667 591Q667
524 617 466T476 369L463 394Z" />
<glyph unicode="&#x13e;" glyph-name="uni013E" horiz-adv-x="451" d="M295 419Q413 482 413 535Q413 546 407 554T383 572Q359 586 351 601T343 637Q343 673 364 691T416 710Q456 710 477 684T499 616Q499 549 449 491T308 394L295 419ZM145 176Q123 97 123 76Q123
70 126 66T138 61Q152 61 169 78T217 141L239 127Q213 88 193 62T153 20T114 -2T70 -9Q39 -9 21 9T2 54Q2 71 11 113T36 209L110 468Q126 523 135 559T144 613Q144 643 102 643Q98 643 93 643T80 642V669Q108 672 132 674T181 680T231 688T290 699L145 176Z" />
<glyph unicode="&#x13f;" glyph-name="uni013F" horiz-adv-x="611" d="M530 0H-22V25Q-1 28 12 32T34 46T48 69T60 103L181 546Q185 560 188 579T192 607Q192 622 183 629T151 639Q143 641 134 642T117 644V669H435V644Q410 642 394 639T366 628T348 607T336 574L207
101Q204 89 203 79T201 62Q201 46 220 39T273 32Q326 32 369 43T451 77Q470 89 485 100T513 126T538 158T566 200L590 195L530 0ZM415 409Q445 409 466 387T488 335Q488 303 467 282T413 261Q381 261 361 282T340 335Q340 367 361 388T415 409Z" />
<glyph unicode="&#x140;" glyph-name="uni0140" horiz-adv-x="375" d="M239 127Q213 88 193 62T153 20T114 -2T70 -9Q39 -9 21 9T2 54Q2 71 11 113T36 209L110 468Q126 523 135 559T144 613Q144 643 102 643Q98 643 93 643T80 642V669Q108 672 132 674T181 680T231
688T290 699L145 176Q123 97 123 76Q123 70 126 66T138 61Q152 61 169 78T217 141L239 127ZM309 402Q339 402 360 380T382 328Q382 296 361 275T307 254Q275 254 255 275T234 328Q234 360 255 381T309 402Z" />
<glyph unicode="&#x141;" glyph-name="Lslash" horiz-adv-x="611" d="M530 0H-22V25Q-3 28 9 32T31 44T46 64T58 97L108 279L4 223L26 293L126 346L181 546Q185 560 188 579T191 607Q191 622 182 628T150 639L118 644V669H435V644Q410 642 394 639T366 627T347
605T334 569L290 411L440 492L419 422L271 339L205 94Q200 76 200 64Q200 32 269 32Q323 32 368 42T450 76Q469 89 484 101T512 127T538 158T566 199L590 194L530 0Z" />
<glyph unicode="&#x142;" glyph-name="lslash" horiz-adv-x="278" d="M238 127Q214 88 194 62T155 21T115 -2T71 -9Q36 -9 19 7T2 53Q2 63 4 80T14 126T33 199T64 310L-13 267L6 337L84 380Q101 441 112 483T131 552T141 594T144 615Q144 643 102 643Q97 643 93
643T80 642V669Q108 672 132 674T181 680T231 688T290 699L215 428L301 475L282 407L196 360L145 176Q134 137 129 112T123 76Q123 70 128 66T139 61Q153 61 169 78T216 141L238 127Z" />
<glyph unicode="&#x143;" glyph-name="uni0143" horiz-adv-x="722" d="M521 202L602 491Q610 522 615 546T621 585Q621 614 603 629T540 644V669H748V644Q727 640 714 634T690 612T669 568T646 491L503 -15H475L218 532L119 178Q110 146 105 122T100 84Q100 55
117 42T179 25V0H-27V25Q-6 29 6 34T29 55T49 99T74 180L194 587Q187 603 181 613T167 630T146 639T112 644V669H305L521 202ZM350 723L472 854Q499 883 513 893T542 904Q562 904 576 891T590 857Q590 843 582 833T551 810L399 723H350Z" />
<glyph unicode="&#x144;" glyph-name="uni0144" horiz-adv-x="556" d="M494 122Q453 49 416 20T334 -9Q302 -9 284 5T266 51Q266 71 273 105T292 176L347 341Q349 349 351 358T354 369Q354 382 347 386T329 390Q315 390 295 373T260 336Q237 306 218 274T182 203T148
115T115 0H-6L51 204Q76 294 86 334T96 383Q96 397 85 401T41 407V434Q83 436 137 443T240 461L178 263H179Q204 300 221 324T251 366T275 395T301 421Q321 441 347 451T401 462Q439 462 456 442T474 385Q474 367 466 336T446 269L411 165Q397 123 392 104T387
76Q387 59 401 59Q407 59 413 62T428 73T446 97T472 135L494 122ZM161 516L283 647Q310 676 324 686T353 697Q373 697 387 684T401 650Q401 636 393 626T362 603L210 516H161Z" />
<glyph unicode="&#x145;" glyph-name="uni0145" horiz-adv-x="722" d="M521 202L602 491Q610 522 615 546T621 585Q621 614 603 629T540 644V669H748V644Q727 640 714 634T690 612T669 568T646 491L503 -15H475L218 532L119 178Q110 146 105 122T100 84Q100 55
117 42T179 25V0H-27V25Q-6 29 6 34T29 55T49 99T74 180L194 587Q187 603 181 613T167 630T146 639T112 644V669H305L521 202ZM128 -334Q246 -271 246 -218Q246 -207 240 -199T216 -181Q192 -167 184 -152T176 -116Q176 -84 197 -64T249 -43Q289 -43 310 -69T332
-137Q332 -204 282 -262T141 -359L128 -334Z" />
<glyph unicode="&#x146;" glyph-name="uni0146" horiz-adv-x="556" d="M494 122Q453 49 416 20T334 -9Q302 -9 284 5T266 51Q266 71 273 105T292 176L347 341Q349 349 351 358T354 369Q354 382 347 386T329 390Q315 390 295 373T260 336Q237 306 218 274T182 203T148
115T115 0H-6L51 204Q76 294 86 334T96 383Q96 397 85 401T41 407V434Q83 436 137 443T240 461L178 263H179Q204 300 221 324T251 366T275 395T301 421Q321 441 347 451T401 462Q439 462 456 442T474 385Q474 367 466 336T446 269L411 165Q397 123 392 104T387
76Q387 59 401 59Q407 59 413 62T428 73T446 97T472 135L494 122ZM68 -334Q186 -271 186 -218Q186 -207 180 -199T156 -181Q132 -167 124 -152T116 -116Q116 -84 137 -64T189 -43Q229 -43 250 -69T272 -137Q272 -204 222 -262T81 -359L68 -334Z" />
<glyph unicode="&#x147;" glyph-name="uni0147" horiz-adv-x="722" d="M521 202L602 491Q610 522 615 546T621 585Q621 614 603 629T540 644V669H748V644Q727 640 714 634T690 612T669 568T646 491L503 -15H475L218 532L119 178Q110 146 105 122T100 84Q100 55
117 42T179 25V0H-27V25Q-6 29 6 34T29 55T49 99T74 180L194 587Q187 603 181 613T167 630T146 639T112 644V669H305L521 202ZM474 723H392L304 897H355L445 800L579 897H636L474 723Z" />
<glyph unicode="&#x148;" glyph-name="uni0148" horiz-adv-x="556" d="M494 122Q453 49 416 20T334 -9Q302 -9 284 5T266 51Q266 71 273 105T292 176L347 341Q349 349 351 358T354 369Q354 382 347 386T329 390Q315 390 295 373T260 336Q237 306 218 274T182 203T148
115T115 0H-6L51 204Q76 294 86 334T96 383Q96 397 85 401T41 407V434Q83 436 137 443T240 461L178 263H179Q204 300 221 324T251 366T275 395T301 421Q321 441 347 451T401 462Q439 462 456 442T474 385Q474 367 466 336T446 269L411 165Q397 123 392 104T387
76Q387 59 401 59Q407 59 413 62T428 73T446 97T472 135L494 122ZM344 516H262L174 690H225L315 593L449 690H506L344 516Z" />
<glyph unicode="&#x149;" glyph-name="uni0149" horiz-adv-x="700" d="M657 122Q616 49 579 20T497 -9Q465 -9 447 5T429 51Q429 71 436 105T455 176L510 341Q512 349 514 358T517 369Q517 382 510 386T492 390Q478 390 458 373T423 336Q400 306 381 274T345 203T311
115T278 0H157L214 204Q239 294 249 334T259 383Q259 397 248 401T204 407V434Q246 436 300 443T403 461L341 263H342Q367 300 384 324T414 366T438 395T464 421Q484 441 510 451T564 462Q602 462 619 442T637 385Q637 367 629 336T609 269L574 165Q560 123 555
104T550 76Q550 59 564 59Q570 59 576 62T591 73T609 97T635 135L657 122ZM42 419Q160 482 160 535Q160 546 154 554T130 572Q106 586 98 601T90 637Q90 673 111 691T163 710Q203 710 224 684T246 616Q246 549 196 491T55 394L42 419Z" />
<glyph unicode="&#x14a;" glyph-name="uni014A" horiz-adv-x="722" d="M384 669Q455 669 511 651T605 598T664 515T685 405Q685 352 672 287T634 154T573 22T493 -92T395 -172T283 -203Q217 -203 176 -177T135 -102Q135 -72 153 -51T199 -30Q225 -30 243 -47T262
-95Q262 -107 259 -114T251 -126T243 -137T239 -149Q239 -167 266 -167Q289 -167 318 -140T378 -66T437 43T488 175T524 316T538 457Q538 638 373 638Q348 638 336 630T318 600L150 0H-46V25Q-28 27 -15 32T7 46T24 70T37 109L152 531Q162 566 164 580T167 602Q167
620 159 628T128 639L94 644V669H384Z" />
<glyph unicode="&#x14b;" glyph-name="uni014B" horiz-adv-x="543" d="M344 316Q345 319 346 325T349 339T352 355T354 369Q354 382 347 386T329 390Q315 390 295 373T260 336Q237 306 218 274T182 203T148 115T115 0H-6L51 204Q76 294 86 334T96 383Q96 397 85
402T41 407V434Q62 435 87 437T138 443T190 451T240 461L178 263H179Q204 300 221 324T251 366T275 395T301 421Q321 441 347 451T401 462Q439 462 456 442T474 385Q474 376 471 360T459 305T432 200T386 24Q354 -96 303 -151T177 -207Q129 -207 101 -185T72 -130Q72
-108 86 -93T121 -77Q143 -77 156 -90T170 -126Q170 -134 168 -138T163 -146T158 -152T155 -161Q155 -169 162 -172T179 -176Q200 -176 214 -145T249 -38L344 316Z" />
<glyph unicode="&#x14c;" glyph-name="uni014C" horiz-adv-x="722" d="M449 685Q500 685 544 668T621 620T672 544T691 444Q691 396 678 346T641 249T584 158T511 78Q458 31 396 7T263 -18Q210 -18 167 -3T92 43T44 118T27 221Q27 272 40 323T78 424T137 516T213
593Q267 637 326 661T449 685ZM446 651Q398 651 360 623T284 531Q261 493 241 445T205 344T180 240T171 143Q171 86 198 51T273 16Q321 16 357 45T430 130Q455 167 476 218T513 323T538 432T547 528Q547 591 519 621T446 651ZM635 723H309L326 793H651L635 723Z"
/>
<glyph unicode="&#x14d;" glyph-name="uni014D" horiz-adv-x="500" d="M284 462Q357 462 399 421T441 311Q441 240 412 174T336 62Q261 -13 161 -13Q126 -13 96 -4T44 24T10 70T-3 135Q-3 210 24 275T97 385Q135 423 182 442T280 462H284ZM275 433Q243 433 215
402Q192 377 174 338T143 255T123 164T116 80Q116 47 129 32T165 16Q206 16 236 65Q254 95 270 134T297 216T315 298T322 372Q322 401 310 417T275 433ZM445 516H119L136 586H461L445 516Z" />
<glyph unicode="&#x14e;" glyph-name="uni014E" horiz-adv-x="722" d="M449 685Q500 685 544 668T621 620T672 544T691 444Q691 396 678 346T641 249T584 158T511 78Q458 31 396 7T263 -18Q210 -18 167 -3T92 43T44 118T27 221Q27 272 40 323T78 424T137 516T213
593Q267 637 326 661T449 685ZM446 651Q398 651 360 623T284 531Q261 493 241 445T205 344T180 240T171 143Q171 86 198 51T273 16Q321 16 357 45T430 130Q455 167 476 218T513 323T538 432T547 528Q547 591 519 621T446 651ZM668 885Q652 807 608 765T490 723Q420
723 386 761T352 872V885H395Q399 842 422 819T494 795Q544 795 575 815T629 885H668Z" />
<glyph unicode="&#x14f;" glyph-name="uni014F" horiz-adv-x="500" d="M284 462Q357 462 399 421T441 311Q441 240 412 174T336 62Q261 -13 161 -13Q126 -13 96 -4T44 24T10 70T-3 135Q-3 210 24 275T97 385Q135 423 182 442T280 462H284ZM275 433Q243 433 215
402Q192 377 174 338T143 255T123 164T116 80Q116 47 129 32T165 16Q206 16 236 65Q254 95 270 134T297 216T315 298T322 372Q322 401 310 417T275 433ZM488 678Q472 600 428 558T310 516Q240 516 206 554T172 665V678H215Q219 635 242 612T314 588Q364 588 395
608T449 678H488Z" />
<glyph unicode="&#x150;" glyph-name="uni0150" horiz-adv-x="722" d="M449 685Q500 685 544 668T621 620T672 544T691 444Q691 396 678 346T641 249T584 158T511 78Q458 31 396 7T263 -18Q210 -18 167 -3T92 43T44 118T27 221Q27 272 40 323T78 424T137 516T213
593Q267 637 326 661T449 685ZM446 651Q398 651 360 623T284 531Q261 493 241 445T205 344T180 240T171 143Q171 86 198 51T273 16Q321 16 357 45T430 130Q455 167 476 218T513 323T538 432T547 528Q547 591 519 621T446 651ZM271 723L393 856Q419 885 434 894T463
904Q483 904 497 892T511 859Q511 845 503 833T472 808L323 723H271ZM460 723L582 856Q608 885 623 894T652 904Q672 904 686 891T700 857Q700 843 692 832T661 808L510 723H460Z" />
<glyph unicode="&#x151;" glyph-name="uni0151" horiz-adv-x="500" d="M284 462Q357 462 399 421T441 311Q441 240 412 174T336 62Q261 -13 161 -13Q126 -13 96 -4T44 24T10 70T-3 135Q-3 210 24 275T97 385Q135 423 182 442T280 462H284ZM275 433Q243 433 215
402Q192 377 174 338T143 255T123 164T116 80Q116 47 129 32T165 16Q206 16 236 65Q254 95 270 134T297 216T315 298T322 372Q322 401 310 417T275 433ZM90 516L212 649Q238 678 253 687T282 697Q302 697 316 685T330 652Q330 638 322 626T291 601L142 516H90ZM279
516L401 649Q427 678 442 687T471 697Q491 697 505 684T519 650Q519 636 511 625T480 601L329 516H279Z" />
<glyph unicode="&#x152;" glyph-name="OE" horiz-adv-x="944" d="M900 478L875 484Q876 495 876 504T877 521Q877 580 837 608Q819 621 785 629T712 637Q686 637 677 629T659 590L598 370H623Q656 370 681 375T726 393T760 424T787 473L814 470L742 198L715 203L716
222Q717 235 718 245T719 263Q719 294 698 311Q692 316 685 319T666 325T636 330T589 336L525 91Q523 84 522 78T521 66Q521 48 538 40T594 32Q638 32 674 41T740 70T798 122T851 199L878 194L818 0H494Q443 0 392 -4T294 -8H276Q213 -8 169 6T92 49Q58 79 41 123T23
224Q23 278 37 332T77 436T141 530T224 607Q251 626 277 639T331 661T392 673T464 677Q476 677 486 677T520 674Q552 672 574 671T611 669H946L900 478ZM500 514Q505 534 508 552T512 583Q512 645 439 645Q349 645 278 539Q255 505 234 458T198 358T173 253T164
158Q164 98 197 62T285 25Q329 25 353 47T392 123L500 514Z" />
<glyph unicode="&#x153;" glyph-name="oe" horiz-adv-x="722" d="M619 124Q600 86 584 65T547 27Q495 -13 431 -13Q396 -13 370 0T314 44Q282 15 247 1T166 -13Q130 -13 101 -2T50 30T18 80T6 144Q6 175 14 207T35 271T68 331T110 383Q151 423 199 442T300 462Q340
462 366 448T416 400Q438 418 456 429T492 448T525 459T562 462Q614 462 644 438T674 372Q674 301 587 245Q570 234 556 226T523 211T479 198T414 184Q409 162 408 151T406 128Q406 50 473 50Q490 50 504 54T532 68T560 96T591 139L619 124ZM421 218Q450 227 472
236T511 256T540 282T564 315Q574 333 580 353T586 392Q586 432 549 432Q527 432 513 416Q501 402 492 389T472 356T450 303T421 218ZM282 433Q234 433 196 359Q184 335 171 302T148 232T131 160T124 97Q124 58 137 37T177 16Q204 16 227 39T274 113Q285 137 296
171T316 241T331 308T337 359Q337 433 282 433Z" />
<glyph unicode="&#x154;" glyph-name="uni0154" horiz-adv-x="667" d="M516 89Q522 71 528 59T544 41T568 31T603 25V0H401L294 331H264L212 149Q201 113 198 96T194 67Q194 44 208 36T266 25V0H-28V25Q9 29 25 47T54 109L174 546Q178 560 181 579T184 607Q184
622 176 630T142 641L110 644V669H396Q507 669 565 634T623 526Q623 474 598 439T527 375Q509 364 488 357T431 343L516 89ZM273 363Q320 364 350 369T400 388Q433 408 452 450T472 542Q472 588 451 612T390 637Q367 637 353 628T330 583L273 363ZM280 723L402
854Q429 883 443 893T472 904Q492 904 506 891T520 857Q520 843 512 833T481 810L329 723H280Z" />
<glyph unicode="&#x155;" glyph-name="uni0155" horiz-adv-x="389" d="M25 434Q70 438 98 440T147 446T185 452T225 462L160 253H161Q191 313 213 353T255 417T293 451T332 462Q358 462 373 444T389 396Q389 364 373 344T331 323Q316 323 308 329T293 342T282
355T270 361Q259 361 242 342T205 285Q195 267 187 251T171 214T153 166T131 99L100 0H-21Q32 180 56 271T81 382Q81 396 70 401T25 407V434ZM139 516L261 647Q288 676 302 686T331 697Q351 697 365 684T379 650Q379 636 371 626T340 603L188 516H139Z" />
<glyph unicode="&#x156;" glyph-name="uni0156" horiz-adv-x="667" d="M516 89Q522 71 528 59T544 41T568 31T603 25V0H401L294 331H264L212 149Q201 113 198 96T194 67Q194 44 208 36T266 25V0H-28V25Q9 29 25 47T54 109L174 546Q178 560 181 579T184 607Q184
622 176 630T142 641L110 644V669H396Q507 669 565 634T623 526Q623 474 598 439T527 375Q509 364 488 357T431 343L516 89ZM273 363Q320 364 350 369T400 388Q433 408 452 450T472 542Q472 588 451 612T390 637Q367 637 353 628T330 583L273 363ZM127 -334Q245
-271 245 -218Q245 -207 239 -199T215 -181Q191 -167 183 -152T175 -116Q175 -84 196 -64T248 -43Q288 -43 309 -69T331 -137Q331 -204 281 -262T140 -359L127 -334Z" />
<glyph unicode="&#x157;" glyph-name="uni0157" horiz-adv-x="389" d="M25 434Q70 438 98 440T147 446T185 452T225 462L160 253H161Q191 313 213 353T255 417T293 451T332 462Q358 462 373 444T389 396Q389 364 373 344T331 323Q316 323 308 329T293 342T282
355T270 361Q259 361 242 342T205 285Q195 267 187 251T171 214T153 166T131 99L100 0H-21Q32 180 56 271T81 382Q81 396 70 401T25 407V434ZM-102 -334Q16 -271 16 -218Q16 -207 10 -199T-14 -181Q-38 -167 -46 -152T-54 -116Q-54 -84 -33 -64T19 -43Q59 -43 80
-69T102 -137Q102 -204 52 -262T-89 -359L-102 -334Z" />
</font>
</defs>
</svg>
