<?xml version="1.0" standalone="no"?> <!DOCTYPE svg PUBLIC "-//W3C//DTD SVG 1.0//EN" "http://www.w3.org/TR/2001/REC-SVG-20010904/DTD/svg10.dtd" > <svg xmlns="http://www.w3.org/2000/svg" width="100%" height="100%">
<defs >
<font horiz-adv-x="618" ><font-face
    font-family="STIXFrakturBold"
    units-per-em="1000"
    panose-1="0 0 0 0 0 0 0 0 0 0"
    ascent="693"
    descent="-218"
    alphabetic="0" />
<missing-glyph horiz-adv-x="500" />
<glyph unicode=" " glyph-name="space" horiz-adv-x="500" />
<glyph unicode="A" glyph-name="A" horiz-adv-x="773" d="M608 -14H581Q546 6 528 36T503 101L241 -25Q223 -2 199 20T147 61T94 92T48 108V133Q95 152 137 178T211 242T261 330T280 449Q280 464 279 487T276 535T268 584T255 627Q236 666 202 666Q183 666 167
656T151 615Q151 583 162 560T188 515T213 467T225 405Q225 373 212 346T174 297T114 260T35 238L27 262Q46 269 64 290T83 343Q83 381 72 405T46 449T21 492T9 549Q9 583 25 611T68 658T131 688T209 699Q233 699 260 695T313 682T364 659T407 623Q428 599 440
567T452 490Q452 439 431 398T376 322T303 261T227 210Q245 200 266 184T306 150T343 115T370 84L499 145V411Q499 445 499 478T497 538T495 583T492 607L756 701L764 676Q726 665 706 648T675 608T663 555T661 489V122Q661 105 664 92T684 79Q693 79 711 84T751
103L764 80L608 -14Z" />
<glyph unicode="B" glyph-name="B" horiz-adv-x="767" d="M259 195Q304 180 334 151T389 92T434 42T480 20Q517 20 539 41Q561 61 572 96T583 169Q583 201 575 232T551 288T509 328T449 344Q444 344 440 344T431 342Q419 317 403 298T367 261T320 229T259 196V195ZM565
533Q565 575 543 603T489 631Q475 631 462 625T426 595Q430 582 434 565T443 529T449 494T451 468Q451 450 449 425T443 381Q476 386 499 402T537 439T558 485T565 533ZM625 409Q689 379 722 328T755 223Q755 167 728 123T656 47T549 -2T421 -19Q377 -19 346 -13T293
4T254 26T221 48T185 65T139 72Q113 72 83 66T32 30L11 44Q23 75 41 104T84 156T139 193T205 207Q214 212 228 222T255 258T277 327T286 444Q286 472 283 510T271 583T248 642T210 666Q191 666 177 652T162 606Q162 574 173 551T199 506T224 461T236 406Q236 343
191 299T46 239L38 263Q64 274 79 299T94 356Q94 394 83 416T57 456T32 495T20 550Q20 587 36 615T79 661T142 689T220 699Q280 699 327 679T402 626L502 701Q559 701 601 689T672 655T715 606T730 545Q730 502 707 468T625 411V409Z" />
<glyph unicode="C" glyph-name="C" horiz-adv-x="693" d="M655 210Q640 170 616 129T556 55T475 2T372 -19Q288 -19 221 10T107 91T34 213T9 365Q9 396 17 433T41 507T81 578T137 638Q164 661 205 676T289 692Q312 692 333 688T372 670L360 647Q338 655 322 655Q288
655 263 631T220 571T195 490T186 404Q186 347 200 297T242 208T312 148T410 126Q434 126 462 130T520 144T578 173T633 222L655 210ZM686 687Q677 669 663 645T629 600T585 563T531 548Q498 548 464 557T413 581Q406 570 404 555T401 529Q401 505 412 488T441
458T477 432T514 405T542 372T554 328Q554 301 540 276T503 232T449 202T385 190Q366 190 347 195T308 212L320 235Q328 229 336 227T353 225Q378 225 388 244T399 283Q399 304 392 318T375 343T352 365T330 390T312 422T305 469Q305 494 323 525T367 587T425 648T482
699Q505 680 524 671T565 662Q600 662 624 673T665 701L686 687Z" />
<glyph unicode="D" glyph-name="D" horiz-adv-x="801" d="M207 292Q187 286 177 284T146 282Q116 282 91 293T48 325T20 371T10 429Q10 479 32 528T97 615T199 677T333 701Q414 701 495 672T643 588T750 459T792 291Q792 236 775 181T709 77Q667 35 600 8T438
-19Q394 -19 364 -13T311 4T271 26T238 48T202 65T157 72Q144 72 130 71T102 66T74 52T49 27L27 40Q40 72 59 102T103 155T159 193T227 207Q257 207 281 199T327 177T366 149T403 119Q445 87 484 65T563 42Q590 42 614 53T657 85T686 139T697 215Q697 270 673 322T607
418T511 490T398 527Q380 512 380 496Q380 473 400 458T445 425T490 387T511 333Q511 310 499 290T466 256T416 233T351 224Q329 224 308 228T264 246L276 269Q287 261 294 260T310 259Q333 259 344 273T356 305Q356 320 347 334T328 364T308 396T299 435Q299 468
317 493T355 536Q306 536 268 530T198 506Q169 489 149 462T128 394Q128 384 132 371T144 346T164 326T195 317Q203 317 207 318V292Z" />
<glyph unicode="E" glyph-name="E" horiz-adv-x="695" d="M655 210Q640 170 616 129T556 55T475 2T372 -19Q288 -19 221 10T107 91T34 213T9 365Q9 396 17 433T41 507T81 578T137 638Q164 661 205 676T289 692Q312 692 333 688T372 670L360 647Q338 655 322 655Q288
655 263 631T220 571T195 490T186 404Q186 347 200 297T242 208T312 148T410 126Q434 126 462 130T520 144T578 173T633 222L655 210ZM686 687Q677 669 663 645T629 600T585 563T531 548Q498 548 464 556T413 579Q406 568 404 554T401 529Q401 509 409 494T430
465T459 440T490 419Q522 461 545 484T599 507Q645 507 670 464V342H644Q630 377 608 394T566 412Q555 412 542 409T516 398Q533 384 543 367T554 328Q554 301 540 276T503 232T449 202T385 190Q366 190 347 195T308 212L320 235Q330 230 337 228T353 225Q376 225
387 244T399 283Q399 304 392 318T375 343T352 365T330 390T312 422T305 469Q305 494 323 524T367 586T425 647T482 698Q505 679 524 671T565 662Q600 662 624 673T665 701L686 687Z" />
<glyph unicode="F" glyph-name="F" horiz-adv-x="709" d="M702 669Q696 646 685 613T651 549T596 495T513 473H503Q483 448 474 421T464 352Q464 346 465 337T470 318T477 301T487 289Q498 310 512 329T541 364T573 388T603 397Q629 397 642 387T667 360V232H641Q627
268 609 284T567 301Q559 301 544 293T512 260Q576 218 604 167T632 59Q632 10 612 -37T555 -121T464 -182T343 -205Q289 -205 240 -193T154 -156T96 -96T74 -13Q74 10 81 33T97 78T113 117T121 147Q121 166 111 175T82 185Q68 185 55 180T31 164L8 175Q16 192
30 211T65 247T109 274T163 285Q196 285 219 276T256 252T278 219T285 182Q285 156 276 135T257 92T237 45T228 -16Q228 -51 238 -79T266 -128T304 -160T346 -172Q397 -172 432 -130T468 2Q468 36 461 62T443 109T417 147T389 180Q361 211 345 239T329 300Q329
327 341 350T371 396T413 439T459 482Q424 494 398 508T348 536T299 557T238 566Q225 566 209 560T178 542T153 513T143 475Q143 435 165 417T219 390L214 364Q209 363 203 363T192 363Q114 363 70 403T25 505Q25 548 42 584T90 646T164 686T261 701Q310 701 350
687T426 655T493 623T556 608Q569 608 585 610T617 620T649 641T677 676L702 669Z" />
<glyph unicode="G" glyph-name="G" horiz-adv-x="747" d="M593 441Q661 434 699 390T738 282Q738 222 708 170T636 76Q589 31 521 6T364 -19Q282 -19 217 8T106 83T36 195T11 333Q11 401 26 465T75 580T160 661T285 692Q300 692 316 689T348 680L342 654Q335 655
331 655T320 656Q285 656 260 629T219 559T196 460T188 348Q188 289 195 230T222 122T280 44T377 14Q420 14 456 34T517 87T557 166T571 261Q571 290 567 317T556 364T536 397T507 410Q481 410 459 386Q487 354 503 316T520 249Q520 222 510 197T481 153T432 123T364
111Q343 111 325 115T284 133L296 156Q307 151 313 149T330 146Q352 146 358 165T365 204Q365 237 350 266T318 326T285 389T270 463Q270 498 287 531T333 594T396 651T465 700L482 681Q441 639 421 605T401 527Q401 498 410 468T435 417Q447 423 462 432T491 451T514
474T523 500Q523 522 517 539T511 581Q511 614 542 643T654 701L671 682Q662 673 656 662T649 628Q649 612 653 600T661 578T670 557T674 534Q674 504 652 482T592 443L593 441Z" />
<glyph unicode="H" glyph-name="H" horiz-adv-x="761" d="M601 686Q593 651 573 619T523 562T458 522T387 507Q352 507 319 523T258 578Q247 565 243 551T239 522Q239 502 246 483T264 445T287 409T311 378Q348 400 372 416T416 445T450 470T484 496Q547 481 597
457T682 398T737 320T756 226Q756 157 722 97T637 -16T524 -116T410 -205H384Q356 -182 334 -171T287 -159Q276 -159 261 -160T229 -166T194 -180T158 -205L137 -188Q152 -163 172 -135T217 -83T273 -44T339 -28Q363 -28 383 -35T419 -53T445 -79T461 -107Q502
-77 526 -38T563 41T580 118T584 184Q584 226 575 264T546 331T500 377T439 395Q419 395 398 385T335 347Q360 325 375 309T397 278T407 253T410 230Q410 205 390 180T327 112L200 -25Q184 -16 166 -6T131 15T99 33T75 45Q70 40 59 29T25 -8L3 6L127 202Q133 198
152 185T194 156T236 129T261 117Q267 117 270 129T273 162Q273 181 259 200T225 241T181 284T137 331T103 381T89 435Q89 470 117 506T185 577T269 643T345 699Q382 663 404 651T450 638Q475 638 508 648T580 701L601 686Z" />
<glyph unicode="I" glyph-name="I" horiz-adv-x="697" d="M650 376Q631 411 599 411Q579 411 564 398T549 356Q549 327 563 305T595 262T626 215T641 154Q641 112 622 79T570 22T491 -13T395 -25Q342 -25 307 -15T248 10T207 42T177 74T148 99T111 109Q74 109
26 67L6 81Q12 100 25 127T58 181T107 225T174 244Q214 244 239 231T281 198T307 152T325 102Q339 60 358 34T403 8Q420 8 434 16T457 36T472 65T477 100Q477 139 464 167T434 220T404 271T390 335Q390 366 404 390T442 430T493 456T551 465Q593 465 627 446T673
388L650 376ZM687 686Q681 663 672 632T643 573T592 524T510 504Q465 504 436 513T381 535T330 556T264 566Q216 566 186 541T155 473Q155 438 178 414T240 390Q255 390 264 391T290 400L302 378Q283 363 260 357T211 351Q178 351 147 362T91 393T52 441T37 504Q37
543 52 578T96 641T166 685T259 701Q319 701 356 690T421 666T477 642T544 631Q560 631 578 634T612 644T641 664T662 694L687 686Z" />
<glyph unicode="J" glyph-name="J" horiz-adv-x="708" d="M645 379Q635 396 623 406T590 416Q570 416 551 398T532 346Q532 307 549 279T586 219T623 146T640 42Q640 -6 618 -51T556 -130T466 -184T356 -205Q304 -205 262 -199T184 -174Q146 -154 121 -120T96
-38Q96 -18 103 5T111 47Q111 55 103 66T79 78Q70 78 57 72T32 47L7 55Q14 78 28 100T62 141T106 170T160 181Q190 181 211 171T247 146T268 113T275 76Q275 47 265 17T254 -36Q254 -60 258 -84T275 -128T307 -160T358 -172Q383 -172 404 -159T442 -124T467 -72T476
-9Q476 42 460 79T425 152T390 224T374 311Q374 345 388 374T425 424T479 458T543 470Q576 470 598 462T634 442T656 417T668 391L645 379ZM701 668Q692 645 679 617T643 564T588 522T504 505Q459 505 429 514T374 535T324 556T264 566Q244 566 225 560T192 543T168
515T159 477Q159 442 181 417T246 392Q257 392 265 393T287 400L299 377Q281 362 260 358T212 353Q177 353 146 364T91 395T55 443T41 506Q41 545 56 580T100 642T170 685T263 701Q318 701 359 692T435 671T499 650T561 640Q587 640 618 647T678 680L701 668Z"
/>
<glyph unicode="K" glyph-name="K" horiz-adv-x="784" d="M579 391Q537 393 514 404T477 432T458 467T444 501T426 527T391 538Q372 538 352 530T314 506T285 471T273 425Q296 391 321 367T366 319L579 389V391ZM778 101Q770 89 754 73T716 40T670 8T620 -14H596Q568
0 549 18T518 59T499 112T489 180Q484 240 470 271T436 304L392 290Q408 267 410 256T413 230Q413 205 393 180T330 112L203 -25Q187 -16 169 -6T134 15T102 33T78 45Q72 40 61 29T28 -8L6 6L130 202Q136 198 155 185T197 156T239 129T264 117Q270 117 273 129T276
162Q276 182 263 200T229 238T184 279T140 327T106 384T92 456Q92 505 122 549T201 628T307 681T422 701Q459 701 501 696T586 674T666 627T735 546L714 532Q680 572 647 595T580 631T514 646T446 649Q408 649 371 637T306 603T260 549T242 476Q254 507 275 529T321
564T373 584T424 590Q481 590 513 580T567 551Q589 532 600 508T622 463T647 426T691 408L694 388L560 342Q594 319 616 289T645 205Q652 146 662 110T689 74Q709 74 727 90T758 121L778 101Z" />
<glyph unicode="L" glyph-name="L" horiz-adv-x="612" d="M601 163Q595 131 582 98T547 38T495 -7T424 -25Q373 -25 335 -12T264 23Q249 32 232 41T197 57T163 68T136 73Q127 73 113 71T83 62T55 39T32 -4L7 2Q11 25 21 56T50 117T100 172T175 208Q183 217 188
234T194 275Q194 301 184 321T157 358T123 391T89 427T63 470T52 527Q52 568 77 600T143 654T231 689T326 701Q368 701 413 693T496 666T558 618T583 547Q583 514 575 492T556 451T537 410T528 359Q528 315 550 289T598 254L594 229Q548 229 510 241T445 273T402
318T386 369Q386 406 394 430T413 476T432 518T441 571Q441 594 432 612T409 642T375 661T335 668Q315 668 294 662T256 642T228 609T217 562Q217 533 237 508T281 456Q302 431 319 404T336 343Q336 324 326 304T299 266T263 231T227 203Q271 200 304 184T365 149T420
117T477 102Q484 102 496 104T523 113T552 134T577 171L601 163Z" />
<glyph unicode="M" glyph-name="M" horiz-adv-x="1056" d="M1046 103Q1038 91 1023 75T989 41T950 9T909 -14H885Q828 6 800 58T772 183Q772 228 784 267T819 341T871 410T937 479V481Q898 481 875 493T836 525T812 566T794 607T773 638T740 651Q722 651 707 642T676
613Q688 589 696 568T709 523T716 474T718 414Q718 382 710 351T691 292T667 239T644 196Q632 173 615 146T579 89T537 31T493 -25Q461 -7 434 10T386 38Q381 33 369 21T335 -17L313 -3L426 195Q435 190 450 179T482 155T513 134T532 125Q540 125 545 154T555 230T560
331T562 439Q562 470 556 507T538 576T509 629T469 651Q434 651 405 611Q417 587 425 566T438 521T445 472T447 412Q447 380 438 349T415 290T388 237T363 194Q351 171 334 144T298 88T256 30T212 -25Q180 -7 148 9T95 36Q90 31 78 20T45 -17L23 -3L135 193Q144
188 162 176T201 152T239 131T261 121Q269 121 273 151T279 227T281 329T282 437Q282 468 279 507T266 582T242 642T205 666Q186 666 172 655T157 612Q157 580 168 556T194 509T219 465T231 412Q231 349 186 305T41 245L33 269Q52 276 70 299T89 354Q89 386 78
406T52 446T27 488T15 546Q15 593 40 624T104 676Q151 699 215 699Q263 699 305 685T374 642Q412 671 444 686T512 701Q566 701 598 689T651 646Q685 675 722 688T799 701Q849 701 889 678Q909 667 920 651T938 618T950 584T965 554T988 531T1027 522V502Q971 472
950 407T929 226Q929 197 930 170T935 121T943 88T957 75Q980 75 996 90T1026 120L1046 103Z" />
<glyph unicode="N" glyph-name="N" horiz-adv-x="781" d="M774 101Q766 89 751 73T717 41T678 9T637 -14H613Q586 -7 565 11T530 55T508 113T500 181Q500 226 512 265T547 339T599 408T665 477V479Q626 479 603 491T564 523T540 564T522 605T501 636T468 649Q434
649 404 608Q416 584 424 563T437 520T444 471T446 412Q446 380 437 349T414 290T387 237T362 194Q350 171 333 144T297 88T255 30T211 -25Q179 -7 147 9T94 36Q89 31 77 20T44 -17L22 -3L134 193Q143 188 161 176T200 152T238 131T260 121Q268 121 272 151T278
227T280 329T281 437Q281 468 278 507T267 582T244 642T207 666Q188 666 172 652T156 612Q156 580 167 556T193 509T218 465T230 412Q230 349 185 305T40 245L32 269Q51 276 69 297T88 350Q88 383 77 404T51 445T26 487T14 546Q14 577 25 601T56 644Q84 672 124
685T214 699Q262 699 304 685T373 642Q407 671 447 686T527 701Q577 701 617 678Q637 667 648 651T666 618T678 583T693 552T716 529T755 520V500Q699 470 678 405T657 224Q657 195 658 168T663 119T671 86T685 73Q708 73 724 88T754 118L774 101Z" />
<glyph unicode="O" glyph-name="O" horiz-adv-x="818" d="M27 293Q52 267 80 267Q100 267 114 282T129 325Q129 349 117 364T89 394Q79 403 70 413T53 436T40 465T35 503Q35 531 56 565T118 630T217 680T350 701Q431 701 512 672T660 588T767 459T809 291Q809
236 792 181T726 77Q684 35 617 8T455 -19Q411 -19 381 -13T328 2T288 23T255 43T219 59T174 65Q148 65 120 53T69 9L47 23Q60 55 78 87T121 144T176 184T244 200Q274 200 298 193T344 175T383 149T420 119Q461 85 501 64T580 42Q607 42 631 53T674 85T703 139T714
215Q714 264 696 325T643 439T561 529T452 566Q427 566 402 556T345 546Q314 546 292 550T251 563T217 587T185 623Q177 623 168 619T150 606T136 586T130 559Q130 539 141 525T170 497T208 471T245 443T274 407T286 360Q286 330 271 307T232 266T178 240T115 231Q74
231 50 244T9 274L27 293Z" />
<glyph unicode="P" glyph-name="P" horiz-adv-x="756" d="M657 486Q619 486 595 498T557 528T533 568T515 608T493 639T460 651Q442 651 427 642T396 613Q418 574 426 538T434 452V82Q454 47 475 34T516 20Q538 20 553 30T578 56T591 91T595 131Q595 156 586 181T565
233T545 287T535 341Q535 360 541 379T561 418T598 454T657 484V486ZM747 499Q709 479 695 460T680 420Q680 399 691 378T715 332T740 282T751 224Q751 165 729 120T667 43T570 -3T447 -19H434V-205H272V29Q245 46 220 59T155 73Q129 73 99 67T48 31L27 45Q39 76
57 105T100 157T155 194T221 208Q248 208 272 202V437Q272 464 269 503T257 578T234 640T197 666Q178 666 163 655T148 612Q148 580 159 557T185 511T210 466T222 412Q222 349 177 305T32 245L24 269Q43 276 61 297T80 350Q80 385 69 407T43 448T18 489T6 546Q6
584 22 612T65 660T128 689T206 699Q254 699 296 686T365 644Q405 677 439 689T508 701Q561 701 591 688T637 654T660 611T676 567T700 533T747 519V499Z" />
<glyph unicode="Q" glyph-name="Q" horiz-adv-x="862" d="M855 29Q835 -11 803 -35T724 -59Q680 -59 657 -40T617 9Q583 -4 542 -11T453 -19Q409 -19 379 -13T326 2T286 23T253 43T217 59T172 65Q146 65 118 53T67 9L45 22Q58 54 76 86T119 143T174 184T242 200Q272
200 294 193T336 175T373 149T408 119Q449 85 489 64T568 42Q583 42 600 45Q590 67 583 89T568 129T551 158T529 169Q521 169 512 165T492 146L472 162Q495 197 523 220T586 243Q614 243 634 233T668 207T693 171T711 129Q721 147 726 168T732 215Q732 248 722
286T694 364T651 439T594 504T526 549T450 566Q425 566 400 556T343 546Q312 546 290 550T249 563T215 587T183 623Q175 623 166 619T148 606T134 586T128 559Q128 539 139 525T168 497T206 471T243 443T272 407T284 360Q284 326 269 302T230 262T176 239T113 231Q72
231 48 244T7 274L25 293Q50 267 78 267Q101 267 114 282T127 324Q127 349 115 364T87 394Q77 403 68 413T51 436T38 465T33 503Q33 531 54 565T116 630T215 680T348 701Q429 701 510 672T658 588T765 459T807 291Q807 237 791 183T727 80Q738 52 750 34T784 15Q795
15 806 20T835 45L855 29Z" />
<glyph unicode="R" glyph-name="R" horiz-adv-x="811" d="M560 510Q560 534 556 555T542 594T518 621T484 631Q470 631 455 624T417 592Q431 563 438 526T446 456Q446 430 444 400T438 356Q469 360 492 374T530 409T552 456T560 510ZM805 100Q797 88 781 72T743
39T698 8T649 -14H625Q593 0 574 17T544 56T528 108T520 175Q517 205 514 233T505 282T492 315T476 328L424 315Q398 257 378 216T334 139T282 65T211 -25Q179 -7 147 9T94 36Q89 31 77 21T43 -15L22 -3L134 193Q143 188 161 176T200 152T238 131T260 121Q268 121
272 151T278 227T280 329T281 437Q281 468 278 507T265 582T241 642T204 666Q186 666 171 654T156 612Q156 580 167 557T193 513T218 468T230 412Q230 349 185 305T40 245L32 269Q51 276 69 297T88 350Q88 388 77 410T51 451T26 490T14 546Q14 579 28 606T65 653Q93
678 130 688T214 699Q280 699 323 679T395 626L497 701Q554 701 598 689T671 655T716 606T732 545Q732 524 726 498T704 447T664 400T599 364V362Q634 339 652 297T676 200Q683 141 694 108T718 74Q738 74 755 88T785 117L805 100Z" />
<glyph unicode="S" glyph-name="S" horiz-adv-x="768" d="M400 460Q384 471 373 474T346 477Q332 477 318 474T292 463T274 442T267 410Q267 383 283 363T336 342Q355 342 372 351T405 373T440 402T480 431T530 454T594 463Q626 463 655 454T708 423T744 370T758
292Q758 233 732 178T659 78T548 8T406 -19Q305 -19 231 11T108 95T34 220T10 372Q10 431 34 489T102 594T207 670T342 699Q385 699 419 692T481 677T533 662T583 655Q596 655 611 657T643 664T674 678T701 701L723 687Q713 653 699 623T665 570T617 534T553 520Q512
520 477 530T408 553T343 575T275 586Q227 586 185 572T111 530T61 463T43 374Q43 299 76 254T161 185T277 154T404 146Q429 146 462 148T529 158T597 177T657 208T699 253T715 314Q715 353 697 370T635 388Q611 388 591 374T553 340T514 295T468 251T409 216T332
202Q287 202 253 216T195 253T159 306T147 368Q147 397 159 425T193 475T245 510T314 524Q371 524 414 482L400 460Z" />
<glyph unicode="T" glyph-name="T" horiz-adv-x="706" d="M696 163Q690 128 675 94T635 34T577 -9T499 -25Q452 -25 414 -11T340 20T269 52T191 66Q182 66 166 64T132 55T95 34T61 -4L38 9Q45 51 65 86T113 146T176 186T250 201Q310 201 353 186T430 152T492 118T552
102Q559 102 574 104T608 113T643 134T671 171L696 163ZM689 673Q683 650 671 616T638 549T582 494T499 471Q489 471 476 473T448 480T421 490T399 501Q395 495 392 488T389 470Q389 447 407 434T446 409T486 380T504 333Q504 280 464 254T352 228Q330 228 311
232T268 250L280 273Q291 265 299 264T314 263Q336 263 344 276T353 304Q353 318 346 332T331 360T316 389T309 421Q309 441 319 462T362 519Q330 541 299 553T230 565Q216 565 200 559T169 540T144 508T134 463Q134 415 160 387T230 357L227 331Q179 331 139 342T71
375T26 427T10 494Q10 538 27 576T75 641T150 685T247 701Q297 701 337 687T411 656T476 625T539 611Q552 611 567 612T599 619T632 640T663 680L689 673Z" />
<glyph unicode="U" glyph-name="U" horiz-adv-x="771" d="M606 -14H579Q544 6 526 36T501 101L219 -25Q201 -4 174 18T116 61T56 96T7 118V133Q28 143 51 155T94 190T127 247T140 336V552Q140 584 130 595T105 607Q87 607 66 598T27 578L14 600L181 701H206Q253
685 277 648T302 556V431Q302 394 294 366T269 312T226 262T164 211Q189 203 214 190T264 158T309 120T349 80L497 145V411Q497 445 497 478T495 538T493 583T490 607L754 701L762 676Q724 664 704 647T673 607T661 555T659 489V122Q659 105 662 92T682 79Q691
79 709 84T749 103L762 80L606 -14Z" />
<glyph unicode="V" glyph-name="V" horiz-adv-x="772" d="M672 486Q634 486 611 498T572 528T548 568T529 608T508 639T474 651Q456 651 441 642T410 613Q434 572 442 531T451 469Q451 423 437 384T397 311T336 249T259 198V196Q304 181 334 152T389 93T433 42T479
20Q504 20 526 29T564 53T589 89T599 131Q599 165 591 190T574 239T557 287T549 344Q549 363 555 382T575 419T613 454T672 484V486ZM761 504Q724 484 709 466T694 424Q694 403 703 382T724 337T745 286T755 224Q755 165 728 120T656 43T549 -3T421 -19Q377 -19
346 -12T293 5T254 27T221 49T185 66T139 73Q126 73 112 73T84 68T56 56T32 31L11 45Q23 76 41 105T84 157T139 194T205 208Q214 213 228 223T255 259T277 328T286 445Q286 474 283 512T271 585T248 642T210 666Q191 666 177 652T162 607Q162 575 173 553T199 509T224
464T236 407Q236 344 191 300T46 240L38 264Q57 271 75 293T94 347Q94 383 83 405T57 445T32 485T20 541Q20 579 36 608T79 658T142 688T220 699Q268 699 310 686T379 644Q419 677 453 689T522 701Q575 701 605 689T651 657T674 616T690 575T714 541T761 524V504Z"
/>
<glyph unicode="W" glyph-name="W" horiz-adv-x="1042" d="M261 196Q306 181 340 152T401 95T453 45T502 24Q522 24 538 39T567 79T585 134T592 192Q592 223 583 247T562 288Q512 354 512 419Q512 465 536 509T599 599Q584 625 555 638T497 651Q481 651 457 645T412
613Q436 572 444 531T453 469Q453 423 439 384T399 311T338 249T261 198V196ZM940 486Q902 486 878 498T840 528T816 568T797 608T776 639T742 651Q719 651 701 636T670 598T650 549T643 501Q643 464 656 440T686 393Q698 378 709 359T728 319T742 277T748 236Q748
213 745 195T735 163T720 136T701 110Q721 65 750 43T803 20Q830 20 848 48T867 124Q867 157 859 180T842 226T825 276T817 342Q817 361 823 380T843 418T880 453T940 484V486ZM1029 504Q992 484 977 466T962 424Q962 403 971 382T992 337T1013 285T1023 223Q1023
187 1015 159T992 107T957 64T912 28Q884 8 848 -5T767 -19Q716 -19 674 -12T599 15Q572 -3 525 -11T424 -19Q379 -19 348 -12T295 5T256 27T223 49T187 66T141 73Q115 73 87 64T34 31L13 45Q25 76 43 105T86 157T141 194T207 208Q216 213 230 223T257 259T279
328T288 445Q288 474 285 512T273 585T250 642T212 666Q195 666 180 653T164 612Q164 580 175 557T201 513T226 469T238 412Q238 349 193 305T48 245L40 269Q59 276 77 297T96 350Q96 388 85 410T59 451T34 490T22 546Q22 582 38 610T81 658T144 688T222 699Q270
699 312 686T381 644Q411 670 446 685T532 701Q552 701 573 698T613 688T648 675T674 659Q699 680 728 690T789 701Q844 701 874 689T920 658T943 617T958 575T981 541T1028 524L1029 504Z" />
<glyph unicode="X" glyph-name="X" horiz-adv-x="736" d="M609 482Q601 488 582 501T541 528T501 552T477 563Q469 563 461 524T452 412Q485 412 508 412T549 415T578 423T600 440L623 427Q612 398 598 374T564 331T517 302T452 289V246Q452 212 463 185T491 140T530
111T574 101Q598 101 624 109T680 141L696 120L509 -14H484Q434 4 393 36T325 107Q302 78 268 42T202 -25Q187 -17 169 -7T134 13T102 31T77 44Q72 38 61 28T27 -9L5 5L129 201Q138 195 158 181T201 153T241 127T264 116Q269 116 274 129T282 164T288 218T290 287H271Q225
287 193 283T144 253L121 266Q133 297 147 322T181 366T227 396T290 410V437Q290 461 284 485T268 530T244 563T213 576Q187 576 151 564T87 528L71 548L251 692H276Q299 685 319 671T358 641T391 606T417 571Q434 598 469 633T541 701Q583 678 613 662T658 641Q667
648 676 658T708 694L730 680L609 482Z" />
<glyph unicode="Y" glyph-name="Y" horiz-adv-x="747" d="M393 641Q402 651 415 661T446 681T485 695T530 701Q584 701 623 675T688 607T726 508T739 392Q739 294 714 212T645 59T545 -77T423 -205H398Q364 -182 344 -171T301 -159Q276 -159 241 -166T171 -205L150
-191Q184 -119 234 -74T353 -28Q374 -28 391 -35T422 -54T445 -79T459 -107Q472 -87 490 -44T524 64T551 217T562 412Q562 461 558 504T545 579T522 630T487 649Q473 649 453 641T417 605Q431 569 437 533T443 467Q443 410 429 373T386 306T318 251T226 190V189Q241
185 260 176T298 156T333 133T360 111L443 146L455 123L246 -14Q228 7 203 26T151 59T96 83T46 95V120Q96 142 138 170T212 236T260 327T278 449Q278 500 273 549T253 627Q243 647 229 656T199 666Q180 666 165 654T149 611Q149 579 160 555T186 508T211 463T223
412Q223 380 210 353T172 304T112 267T33 245L25 269Q44 276 62 297T81 350Q81 388 70 410T44 450T19 489T7 545Q7 583 23 611T66 659T129 689T207 699Q228 699 252 697T301 687T349 669T391 641H393Z" />
<glyph unicode="Z" glyph-name="Z" horiz-adv-x="672" d="M474 278Q564 259 612 201T661 55Q661 5 641 -40T584 -120T494 -175T374 -195Q325 -195 293 -185T238 -160T202 -128T174 -96T145 -71T107 -61Q71 -61 23 -103L2 -89Q5 -75 18 -48T53 6T106 53T178 74Q213
74 236 63T274 34T297 -4T308 -45Q312 -67 319 -88T337 -125T363 -152T397 -162Q426 -162 444 -144T472 -96T485 -31T489 41Q489 87 477 124T445 187T400 227T348 241Q325 241 306 239T269 229T233 206T195 167L174 181Q194 213 218 238T288 279V281Q248 297 226
320T191 368L213 383Q231 360 250 348T288 328T323 320T351 318Q375 318 397 328T435 358T462 409T472 480Q472 560 435 600T340 641Q277 641 224 605T128 502L104 512Q118 548 142 582T201 642T282 685T386 701Q443 701 490 686T572 641Q603 613 620 574T637 484Q637
418 596 364T474 280V278Z" />
<glyph unicode="a" glyph-name="a" horiz-adv-x="500" d="M276 315L201 375Q166 337 156 294T145 200Q145 174 152 149T170 102T195 68T222 55Q236 55 249 63T276 79V315ZM370 -20H346Q326 -9 309 7T282 41L142 -24H118Q67 6 37 59T6 170Q6 222 28 269T94 348Q122
367 142 380T181 407T223 435T279 475H303Q322 459 339 445T374 419T413 397T458 380V355Q440 355 428 343T415 310V122Q415 98 423 88T445 77Q460 77 482 93L496 71L370 -20Z" />
<glyph unicode="b" glyph-name="b" horiz-adv-x="470" d="M328 304Q328 346 315 366T275 404L198 378V143L304 89Q317 103 322 119T328 170V304ZM467 219Q467 192 458 172T433 135T398 104T358 77Q322 53 290 27T238 -24H214Q169 2 121 21T8 52V77Q24 79 34 81T50
91T57 112T59 148V514Q59 568 46 611T15 677L35 695Q61 674 80 656T114 621Q137 651 179 672T278 694Q287 694 298 694T340 688V663Q268 663 233 628T198 531V418L345 475H369Q421 466 444 428T467 335V219Z" />
<glyph unicode="c" glyph-name="c" horiz-adv-x="368" d="M167 -24H143Q111 -7 86 18T43 72T16 134T6 197Q6 243 15 278T44 341T96 391T176 437L256 475H280L357 385L253 299L171 389Q166 385 162 380T156 369Q149 352 147 320T145 247Q145 212 154 178T180 115T224
70T283 53Q297 53 311 56T355 72L363 47L167 -24Z" />
<glyph unicode="d" glyph-name="d" horiz-adv-x="463" d="M322 314Q322 339 313 355T292 383T265 403T240 418Q233 414 222 409T199 396Q197 395 196 394T193 389T192 375T192 351V148L305 95Q313 107 317 120T322 159V314ZM461 187Q461 166 444 147T403 110T350
74T299 34Q287 23 272 9T240 -25H216Q173 1 136 18T59 35H7V59Q27 59 40 70T53 110Q78 194 102 263Q112 292 123 321T144 373T163 413T179 434V436Q155 445 128 456T79 482T41 519T26 570Q26 603 44 626T93 665T161 687T237 694V669Q227 667 215 664T191 655T173
640T165 618Q165 598 181 584T219 559T267 539T310 518Q346 496 374 476T422 435T451 390T461 336V187Z" />
<glyph unicode="e" glyph-name="e" horiz-adv-x="384" d="M203 224Q220 233 227 242T234 260Q234 264 228 286T212 335T195 383T184 412Q170 405 163 388T151 347T147 297T146 247V201L203 224ZM189 -24H166Q121 -15 91 10T42 68T15 133T7 193Q7 281 46 345T168
443Q195 454 226 462T284 475H308L378 260L146 170Q146 147 157 127T186 92T223 67T258 58Q289 58 318 66T367 86L379 62L189 -24Z" />
<glyph unicode="f" glyph-name="f" horiz-adv-x="323" d="M322 691Q321 676 315 652T295 605T263 566T216 549Q200 549 190 552T173 559T158 566T138 570Q127 570 115 561T103 527Q103 500 116 485T149 461T193 450T239 448H300V383H204L179 -214H78L54 383H3V408Q10
408 19 409T35 417T48 434T53 465Q53 488 49 514T44 566Q44 582 48 604T64 647T95 681T145 695Q161 695 174 690T199 679T222 668T245 663Q253 663 268 670T297 700L322 691Z" />
<glyph unicode="g" glyph-name="g" horiz-adv-x="466" d="M274 315L199 375Q164 337 154 294T144 200Q144 174 151 149T169 102T193 68T220 55Q234 55 247 63T274 79V315ZM456 354Q438 354 426 341T413 308V124Q413 91 419 68T432 26T446 -14T453 -61Q453 -100
435 -129T387 -179T321 -209T251 -219Q208 -219 184 -214T145 -200T124 -182T108 -162T83 -144T39 -132V-108Q71 -91 100 -85T149 -78Q185 -78 202 -94T227 -129T241 -165T258 -181Q270 -181 280 -178T297 -165T309 -141T314 -100Q314 -76 310 -59T299 -28T286
2T274 38L140 -24H115Q90 -9 70 12T36 59T13 113T5 170Q5 221 26 269T92 348Q120 367 140 380T179 407T221 435T277 475H301Q320 459 337 445T372 419T411 398T456 380V354Z" />
<glyph unicode="h" glyph-name="h" horiz-adv-x="478" d="M472 51Q472 6 451 -36T401 -115T339 -178T284 -219L266 -200Q281 -182 293 -159T314 -113T328 -66T333 -23V304Q333 346 320 366T280 404L203 378V136L256 106L290 143L312 129Q282 86 255 44T217 -24H193Q173
-10 153 2T109 23T60 39T1 52V77Q17 79 29 81T49 91T60 112T64 148V514Q64 568 51 611T20 677L40 695Q66 674 85 656T119 621Q142 651 184 672T283 694Q292 694 303 694T345 688V663Q273 663 238 628T203 531V418L350 475H374Q426 466 449 428T472 335V51Z" />
<glyph unicode="i" glyph-name="i" horiz-adv-x="344" d="M203 -24H179Q154 -12 138 1T113 31T100 70T96 122V313Q96 343 87 355T63 368Q54 368 44 363T15 346L0 368L147 475H171Q206 452 237 434T291 414V389Q282 388 273 386T255 378T241 366T235 346V168Q235
123 240 103T259 83Q270 83 286 93T325 123L344 101L203 -24ZM234 649Q234 643 228 628T211 597T188 569T164 556Q152 556 140 568T117 596T100 627T93 649Q93 669 112 683T164 697Q196 697 215 683T234 649Z" />
<glyph unicode="j" glyph-name="j" horiz-adv-x="300" d="M297 389Q288 388 279 386T261 378T247 366T241 346V-48Q241 -93 254 -136T285 -202L265 -219Q239 -201 220 -182T186 -145Q177 -157 163 -170T131 -194T95 -212T59 -219Q50 -219 36 -219T0 -213V-186Q16
-186 34 -179T67 -155T92 -110T102 -38V313Q102 343 95 352T74 362Q65 362 50 355T17 336L2 357L153 475H177Q212 452 243 434T297 414V389ZM240 649Q240 643 234 628T217 597T194 569T170 556Q158 556 146 568T123 596T106 627T99 649Q99 669 118 683T170 697Q202
697 221 683T240 649Z" />
<glyph unicode="k" glyph-name="k" horiz-adv-x="365" d="M359 663Q287 663 247 628T207 531V442H240V504Q240 534 248 554T272 587T307 605T350 611V502H324Q322 517 317 523T304 529Q289 529 283 512T277 462V442H350V377H207V137L279 101L328 157L350 142Q334
121 316 97T281 50T251 8T231 -24H207Q166 5 118 23T5 52V77Q21 79 33 81T53 91T64 112T68 148V377H5V402Q12 402 23 403T44 410T61 425T68 452V514Q68 568 55 611T24 677L44 695Q70 674 89 656T123 621Q146 651 188 672T287 694Q296 694 312 694T359 688V663Z"
/>
<glyph unicode="l" glyph-name="l" horiz-adv-x="341" d="M338 143Q321 122 305 98T273 51T247 8T230 -24H206Q165 5 117 23T4 52V77Q20 79 32 81T52 91T63 112T67 148V514Q67 568 54 611T23 677L43 695Q69 674 88 656T122 621Q145 651 187 672T286 694Q295 694
306 693T332 688V663Q275 663 241 628T206 531V137L268 106L316 158L338 143Z" />
<glyph unicode="m" glyph-name="m" horiz-adv-x="910" d="M773 -24H749Q725 -12 709 0T684 29T670 67T666 118V333L610 386L526 343V159Q526 139 527 126T533 104T547 92T573 87V62Q556 60 540 56T509 42T484 16T469 -24H445Q442 0 431 16T404 42T370 56T334 62V87Q364
90 375 102T387 147V323Q387 348 369 364T334 388L247 344V159Q247 139 248 126T254 104T268 92T294 87V62Q277 60 261 56T230 42T205 16T190 -24H166Q163 0 152 16T125 42T91 56T55 62V87Q88 91 98 106T108 159V313Q108 347 97 364T66 382Q57 382 45 379T21 367L9
388L136 475H160Q190 460 214 436T241 382L414 475H438Q468 460 493 436T520 382L703 475H727Q746 452 776 431T839 407V382Q826 380 819 374T809 358T806 340T805 325V151Q805 115 812 99T833 83Q844 83 852 88T882 112L901 90L773 -24Z" />
<glyph unicode="n" glyph-name="n" horiz-adv-x="615" d="M481 -24H457Q433 -12 417 0T392 29T378 67T374 118V333L320 385L244 344V159Q244 139 245 126T251 104T265 92T291 87V62Q274 60 258 56T227 42T202 16T187 -24H163Q160 0 149 16T122 42T88 56T52 62V87Q85
91 95 106T105 159V313Q105 347 94 364T63 382Q54 382 42 379T18 367L6 388L133 475H157Q187 460 211 436T238 382L411 475H435Q454 452 484 431T547 407V382Q534 380 527 374T517 358T514 340T513 325V151Q513 115 520 99T540 83Q550 83 559 88T591 112L610 90L481
-24Z" />
<glyph unicode="o" glyph-name="o" horiz-adv-x="465" d="M319 284Q319 306 305 325T273 360T239 385T218 398L196 388Q191 386 190 377T189 337V151L300 86Q308 99 313 111T319 150V284ZM458 194Q458 173 442 153T401 114T348 75T298 35Q286 24 272 10T240 -24H216Q171
2 131 21T54 40H4V65Q24 65 37 75T50 115V369Q66 373 86 381T134 403T202 434T294 475H318Q354 453 380 434T424 393T450 349T458 295V194Z" />
<glyph unicode="p" glyph-name="p" horiz-adv-x="552" d="M413 294Q413 316 404 334T383 364T359 385T339 398L283 377V157Q327 143 354 120T399 76Q410 88 411 105T413 157V294ZM552 215Q552 162 526 129T460 69Q424 45 392 23T339 -24H315Q308 -16 299 -12T283
-5V-219H144V27Q117 26 88 17T26 -24L3 -11Q30 51 66 91T144 151V356Q144 378 134 391T113 417T91 447T81 493Q81 506 87 520T104 548T128 573T155 593L176 578Q170 568 166 559T161 543Q161 529 170 520T192 505T221 492T250 476T273 453T283 418L420 475H444Q472
464 492 448T526 412T546 372T552 335V215Z" />
<glyph unicode="q" glyph-name="q" horiz-adv-x="474" d="M270 325L195 375Q160 337 150 294T139 200Q139 174 146 149T164 102T189 68T216 55Q227 55 241 63T270 79V325ZM447 366Q424 366 417 351T409 321V-219H270V39L136 -24H112Q61 6 31 59T0 170Q0 222 22
269T88 348Q116 367 136 380T175 407T217 435T273 475H297Q335 443 378 419T467 390V366H447Z" />
<glyph unicode="r" glyph-name="r" horiz-adv-x="458" d="M346 286L261 392L236 379V137L307 101L377 171L396 153Q375 131 353 105T312 55T277 9T256 -24H232Q196 2 155 17T59 32H34V56Q50 57 61 60T81 69T93 87T97 119V313Q97 349 86 365T54 382Q44 382 36 379T15
367L3 388L125 475H149Q177 462 192 445T217 412L351 475H375L456 370L346 286Z" />
<glyph unicode="s" glyph-name="s" horiz-adv-x="465" d="M110 547Q133 597 175 620T263 643Q294 643 322 633T373 604T409 558T423 496Q423 468 412 443T381 398T332 366T271 354Q241 354 212 368T161 417Q156 406 151 385T146 338Q146 300 165 279T211 258Q238
258 249 264T274 284Q280 290 288 298T308 315T331 329T355 335Q378 335 394 326T423 304Q446 281 452 251T459 197Q459 170 437 140T385 80T324 23T272 -24H247Q224 -3 193 6T136 15Q109 15 82 4T26 -31L6 -15Q48 53 92 85T188 118Q218 118 246 107T304 57Q310
73 315 94T320 138Q320 184 308 203T278 222Q261 222 244 208T206 176Q192 164 176 155T133 145Q104 145 81 155T42 183T16 225T7 279Q7 316 36 349T102 415L186 490H211Q219 475 234 471T258 467Q264 467 272 471T288 482T301 501T307 528Q307 566 287 584T235
602Q209 602 180 585T134 536L110 547Z" />
<glyph unicode="t" glyph-name="t" horiz-adv-x="336" d="M335 153Q319 131 303 106T272 56T246 10T228 -23H204Q163 6 115 24T2 53V78Q18 80 30 82T50 92T61 113T65 149V396H2V421Q24 423 42 437T74 479T95 551T103 656H204V461H317V396H204V138L265 107L313
167L335 153Z" />
<glyph unicode="u" glyph-name="u" horiz-adv-x="606" d="M472 -24H448Q410 -5 392 16T368 73L198 -24H174Q165 -13 150 0T118 26T84 46T50 55V80Q76 84 86 94T96 137V309Q96 353 87 367T59 382Q40 382 19 367L7 388L124 475H148Q193 453 214 419T235 339V120L286
70L365 113V298Q365 318 364 330T358 349T344 359T318 364V389Q334 390 351 395T382 410T407 435T422 475H446Q449 451 460 435T487 410T521 395T557 389V364Q540 362 530 359T514 348T506 329T504 298V143Q504 111 512 97T531 83Q541 83 550 88T582 112L601 90L472
-24Z" />
<glyph unicode="v" glyph-name="v" horiz-adv-x="480" d="M340 284Q340 306 326 325T294 360T260 385T239 398L217 388Q212 386 211 377T210 337V151L321 86Q329 97 334 110T340 150V284ZM479 194Q479 173 463 153T422 114T369 75T319 35Q307 24 293 10T261 -24H237Q192
2 152 21T75 40H25V65Q45 65 58 76T71 117V360Q71 380 61 392T40 418T18 447T8 493Q8 506 14 520T31 548T55 573T82 593L103 578Q97 568 93 559T88 543Q88 523 105 513T144 493T185 470T209 429Q230 439 257 450T315 475H339Q375 453 401 434T445 393T471 349T479
295V194Z" />
<glyph unicode="w" glyph-name="w" horiz-adv-x="754" d="M613 284Q613 319 595 346T552 389L490 365Q485 363 484 354T483 313V151L596 87Q604 100 608 117T613 160V284ZM752 188Q752 167 737 148T698 111T648 75T599 35Q587 24 573 10T541 -24H517Q472 1 434
22T356 43H308V68Q328 68 336 78T344 118V338L288 389L214 361V143Q214 112 223 101T261 87V62Q244 60 228 56T197 42T172 16T157 -24H133Q130 0 119 16T92 42T58 56T22 62V87Q52 90 63 103T75 147V356Q75 378 65 391T44 417T22 447T12 493Q12 506 18 520T35 548T59
573T86 593L107 578Q101 568 97 559T92 543Q92 529 101 521T123 507T153 493T182 475T205 447T214 402L371 475H395Q422 464 446 447T484 403L633 475H657Q709 436 730 395T752 295V188Z" />
<glyph unicode="x" glyph-name="x" horiz-adv-x="449" d="M335 308L268 392L243 379V265H317V200H243V136L313 95L356 139L374 121L257 -24H232L104 54Q96 40 92 29T87 6Q87 -14 93 -27T112 -49T143 -66T186 -81L150 -209H125Q77 -188 52 -150T26 -52Q26 -11 42
25T104 100V200H34V265H104V313Q104 349 93 365T61 382Q51 382 43 379T22 367L10 388L132 475H156Q184 462 199 445T224 412L357 475H381L449 385L335 308Z" />
<glyph unicode="y" glyph-name="y" horiz-adv-x="487" d="M483 136Q483 59 462 0T410 -104T347 -176T292 -219L274 -200Q303 -163 323 -103T344 55V251Q344 292 340 318T327 361T307 388T283 408L204 377V137L258 106L296 154L318 139Q303 120 288 97T259 51T235
8T218 -24H194Q174 -10 154 2T110 23T61 39T2 52V77Q18 79 30 81T50 91T61 112T65 148V356Q65 378 55 391T34 417T12 447T2 493Q2 506 8 520T25 548T49 573T76 593L97 578Q91 568 87 559T82 543Q82 523 99 514T138 495T179 469T203 418L338 475H362Q419 454 451
406T483 283V136Z" />
<glyph unicode="z" glyph-name="z" horiz-adv-x="407" d="M241 132Q214 80 186 47T132 -12Q144 -58 161 -92T212 -144Q222 -134 232 -122T249 -92T260 -46T265 22Q265 29 263 44T258 77T252 110T244 132H241ZM383 102Q397 82 400 59T404 11Q404 -18 390 -45T344
-98Q323 -115 297 -131T243 -163T188 -193T137 -219H113Q92 -206 74 -186T42 -144T18 -101T3 -63V-38Q52 -8 109 37T213 153L118 207V228Q154 247 183 275T212 342Q212 392 174 392Q157 392 130 386T80 365L69 391Q106 411 148 430T229 475H254Q308 466 329 438T351
373Q351 345 333 322T288 281T230 248T172 222V221L383 102Z" />
<glyph unicode="&#xa0;" glyph-name="space" horiz-adv-x="500" />
</font>
</defs>
</svg>
