<?xml version="1.0" standalone="no"?> <!DOCTYPE svg PUBLIC "-//W3C//DTD SVG 1.0//EN" "http://www.w3.org/TR/2001/REC-SVG-20010904/DTD/svg10.dtd" > <svg xmlns="http://www.w3.org/2000/svg" width="100%" height="100%">
<defs >
<font horiz-adv-x="642" ><font-face
    font-family="STIXDoubleStruckBoldItalic"
    units-per-em="1000"
    panose-1="0 0 0 0 0 0 0 0 0 0"
    ascent="693"
    descent="-218"
    alphabetic="0" />
<missing-glyph horiz-adv-x="500" />
<glyph unicode=" " glyph-name="space" horiz-adv-x="500" />
<glyph unicode="A" glyph-name="A" horiz-adv-x="672" d="M458 0L436 199H189L72 0H0L394 669H588L660 0H458ZM533 607H457L514 63H589L533 607ZM399 550H397L226 262H429L399 550Z" />
<glyph unicode="B" glyph-name="B" horiz-adv-x="710" d="M510 669Q546 669 580 662T642 638T685 594T702 524Q702 494 694 465T670 411T632 366T582 334L581 330Q604 313 617 283T630 223Q630 166 608 124T548 55T463 14T363 0H6L186 669H510ZM539 385Q561 389
579 400T611 428T632 465T639 509Q639 539 629 556T595 591L539 385ZM531 601Q517 603 502 604T473 606H378L317 378H424Q436 378 448 379T472 383L531 601ZM456 73Q478 78 498 91T533 122T558 163T567 208Q567 240 554 261T518 304L456 73ZM235 606L89 63H166L312
606H235ZM454 313Q451 314 443 314T425 315T408 315T396 315H300L232 63H339Q343 63 350 63T365 64T380 66T390 71L454 313Z" />
<glyph unicode="C" glyph-name="C" horiz-adv-x="680" d="M636 500Q598 558 548 590T426 622Q391 622 355 617T292 584L155 82Q183 59 218 54T289 49Q335 49 370 59T437 88T497 129T562 177L598 133Q532 64 448 25T266 -14Q209 -14 162 4T80 55T27 135T8 240Q8
328 40 409T128 551T262 648T431 685Q478 685 513 678T575 654T627 610T677 545L636 500ZM219 554Q152 499 112 422T71 257Q71 221 79 185T101 116L219 554Z" />
<glyph unicode="D" glyph-name="D" horiz-adv-x="731" d="M476 669Q531 669 576 651T654 600T704 521T722 420Q722 336 692 260T609 126T483 34T323 0H7L187 669H476ZM513 122Q581 175 620 250T659 412Q659 478 624 534L513 122ZM570 578Q541 595 507 600T440
606H425H379L233 63H276H292Q330 63 369 68T440 90L570 578ZM236 606L90 63H167L313 606H236Z" />
<glyph unicode="E" glyph-name="E" horiz-adv-x="723" d="M691 606H394L332 376H610L594 313H315L248 63H565L549 0H22L202 669H707L691 606ZM251 606L105 63H182L328 606H251Z" />
<glyph unicode="F" glyph-name="F" horiz-adv-x="718" d="M691 606H394L331 371H610L594 308H314L231 0H22L202 669H707L691 606ZM251 606L105 63H182L328 606H251Z" />
<glyph unicode="G" glyph-name="G" horiz-adv-x="719" d="M655 508Q628 536 608 557T566 592T514 614T442 622Q414 622 377 617T314 600L174 79Q186 71 203 65T238 56T273 51T305 49Q323 49 350 52T392 66L450 280H344L360 343H674L608 94Q567 67 530 47T453 13T373
-7T282 -14Q225 -14 178 4T96 55T43 135T24 240Q24 328 56 409T144 551T278 648T447 685Q534 685 594 653T697 546L655 508ZM515 280L462 87Q472 89 484 95T509 108T534 122T555 136L591 280H515ZM234 554Q167 499 127 422T87 257Q87 221 93 189T119 125L234 554Z"
/>
<glyph unicode="H" glyph-name="H" horiz-adv-x="801" d="M614 0H405L486 300H297L216 0H7L187 669H396L316 370H505L585 669H794L614 0ZM634 606L488 63H565L711 606H634ZM236 606L90 63H167L313 606H236Z" />
<glyph unicode="I" glyph-name="I" horiz-adv-x="391" d="M210 0H1L181 669H390L210 0ZM230 606L84 63H161L307 606H230Z" />
<glyph unicode="J" glyph-name="J" horiz-adv-x="629" d="M493 178Q479 125 451 89T386 29T302 -4T204 -14Q165 -14 130 -4T67 28T21 80T0 153L66 178Q70 161 74 145T86 114T104 88T134 68Q156 59 176 54T221 49Q229 49 236 49T251 51L417 669H625L493 178ZM462
605L317 64Q358 74 386 102T426 170L543 605H462Z" />
<glyph unicode="K" glyph-name="K" horiz-adv-x="765" d="M514 443L669 0H456L343 317L291 279L216 0H7L187 669H396L317 377H319L716 669L755 620L514 443ZM461 404L396 356L500 63H580L461 404ZM236 606L90 63H167L313 606H236Z" />
<glyph unicode="L" glyph-name="L" horiz-adv-x="554" d="M538 0H4L184 669H394L230 63H554L538 0ZM233 606L87 63H164L310 606H233Z" />
<glyph unicode="M" glyph-name="M" horiz-adv-x="935" d="M906 590L748 0H541L645 396H643L405 0H215L182 395H180L74 0H9L188 669H366L409 127H410L692 604L729 669H926L906 590ZM767 606L622 63H700L844 606H767ZM306 606H237L231 588L272 63H348L306 606Z" />
<glyph unicode="N" glyph-name="N" horiz-adv-x="770" d="M585 0H428L203 485H201L72 0H7L185 669H340L567 184H569L698 669H763L585 0ZM302 606H232L227 585L468 63H537L542 86L302 606Z" />
<glyph unicode="O" glyph-name="O" horiz-adv-x="715" d="M707 431Q707 339 675 259T585 117T448 21T276 -14Q217 -14 168 3T83 52T28 131T8 240Q8 328 40 409T128 551T262 648T431 685Q491 685 542 669T629 622T686 542T707 431ZM498 120Q534 143 561 176T607
248T635 329T644 414Q644 446 636 478T610 537L498 120ZM558 587Q531 604 495 613T426 622Q398 622 361 617T298 599L160 83Q172 74 188 68T221 57T256 51T289 49Q319 49 355 55T420 74L558 587ZM220 556Q184 532 156 498T110 425T81 342T71 257Q71 221 79 192T107
132L220 556Z" />
<glyph unicode="P" glyph-name="P" horiz-adv-x="704" d="M515 669Q554 669 588 661T647 633T688 585T703 512Q703 449 683 400T625 318T537 267T424 250H282L215 0H6L186 669H515ZM640 501Q640 513 638 527T630 555T615 578T593 592L590 580Q574 515 556 451T521
323Q549 326 571 345T608 390T632 446T640 501ZM530 601Q517 605 502 605T474 606H378L299 313H398Q411 313 425 314T454 319L530 601ZM235 606L89 63H166L312 606H235Z" />
<glyph unicode="Q" glyph-name="Q" horiz-adv-x="715" d="M637 -36Q612 -59 589 -66T533 -74Q488 -74 460 -51T409 7Q343 -14 274 -14Q215 -14 166 3T81 52T26 131T6 240Q6 328 38 409T126 551T260 648T429 685Q489 685 540 669T627 622T684 542T705 431Q705 369
690 311T645 201T573 107T475 35Q486 18 502 4T542 -11Q561 -11 577 -5T610 11L637 -36ZM496 120Q532 143 559 176T605 248T633 329T642 414Q642 446 634 478T608 537L496 120ZM556 587Q529 604 493 613T424 622Q395 622 359 617T296 599L161 93Q179 110 195 123T230
146T268 160T315 165Q351 165 377 149T426 104L556 587ZM218 556Q182 532 154 499T108 426T79 343T69 257Q69 222 77 192T105 132L218 556ZM373 59Q359 78 341 90T299 102Q273 102 250 90T210 59Q229 54 248 52T287 49Q309 49 330 51T373 59Z" />
<glyph unicode="R" glyph-name="R" horiz-adv-x="718" d="M518 669Q557 669 591 661T650 633T691 585T706 512Q706 431 669 368T555 273L651 0H439Q433 11 429 24T420 49L348 250H282L215 0H6L186 669H518ZM522 322Q552 328 575 346T613 389T635 443T643 501Q643
532 633 555T595 593L522 322ZM532 601Q518 603 505 604T477 606H378L299 313H401Q412 313 429 314T457 319L532 601ZM495 255Q475 251 455 251T415 250L483 63H562L495 255ZM235 606L89 63H166L312 606H235Z" />
<glyph unicode="S" glyph-name="S" horiz-adv-x="688" d="M635 499Q611 530 590 553T546 592T494 614T422 622Q343 622 309 551Q307 545 305 538T302 524Q302 497 323 477T375 439T443 402T511 362T564 309T585 238Q585 171 556 124T481 46T376 1T260 -14Q175
-14 113 19T3 123L47 171Q74 139 94 116T136 78T187 56T261 49Q282 49 305 56T349 76T382 109T395 152Q395 180 374 199T322 235T254 269T186 309T133 364T112 443Q112 508 141 554T215 629T318 671T431 685Q476 685 512 677T577 651T632 606T684 543L635 499ZM434
87Q471 106 496 140T522 218Q522 253 501 278T449 324T381 363T313 400T260 443T239 499Q239 525 243 545T265 586L262 588Q222 568 199 533T175 453Q175 414 196 389T248 344T316 309T384 274T437 229T458 164Q458 144 452 124T432 88L434 87Z" />
<glyph unicode="T" glyph-name="T" horiz-adv-x="631" d="M615 606H421L258 0H49L212 606H8L24 669H631L615 606ZM278 606L132 63H209L355 606H278Z" />
<glyph unicode="U" glyph-name="U" horiz-adv-x="735" d="M606 206Q590 148 555 107T471 38T367 -1T256 -14Q214 -14 171 -6T91 21T33 74T10 159Q10 182 14 203T24 246Q55 363 81 455Q92 494 102 532T120 600T133 649T138 669H346L183 61Q204 57 226 53T270 49Q309
49 352 58T434 87T501 137T542 210L664 669H730L606 206ZM186 606L79 209Q76 198 75 186T73 162Q73 143 75 131T84 111T99 95T123 77L265 606H186Z" />
<glyph unicode="V" glyph-name="V" horiz-adv-x="676" d="M278 0H79L13 669H217L271 113H273L601 669H676L278 0ZM159 606H82L135 63H213L159 606Z" />
<glyph unicode="W" glyph-name="W" horiz-adv-x="933" d="M644 0H426V448H425L236 0H18V669H222L221 130H223L451 669H629V129H631L861 669H928L644 0ZM566 606H489V63H566V606ZM158 606H81V63H158V606Z" />
<glyph unicode="X" glyph-name="X" horiz-adv-x="836" d="M512 379L686 0H463L355 237L95 0H5L329 295L159 669H379L485 437L740 669H830L512 379ZM340 606H256L503 63H587L340 606Z" />
<glyph unicode="Y" glyph-name="Y" horiz-adv-x="713" d="M386 295L307 0H97L172 278L9 669H227L357 362H360L630 669H713L386 295ZM184 606H102L239 283L180 63H259L319 291L184 606Z" />
<glyph unicode="Z" glyph-name="Z" horiz-adv-x="821" d="M289 65V63H683L667 0H3V63L534 604V606H188L204 669H817V606L289 65ZM626 606L88 63H196L733 606H626Z" />
<glyph unicode="a" glyph-name="a" horiz-adv-x="562" d="M74 332Q108 370 137 395T200 435T273 456T367 462Q401 462 434 453T492 425T534 378T550 312Q550 294 549 276T542 241L478 0H290L299 36H297Q277 19 259 9T221 -6T181 -12T135 -13Q109 -13 86 -7T45
13T17 47T6 97Q6 140 28 174T90 226Q110 235 138 239T198 247T260 256T315 271T355 297T371 341Q371 364 362 381T326 399Q288 399 260 391T208 369T162 334T115 288L74 332ZM478 245Q483 261 485 278T487 312Q487 340 470 362T426 394L424 392Q430 381 432 369T434
346Q434 324 429 303T419 262L367 63H428L478 245ZM340 218Q313 205 278 196T214 188L178 54Q187 50 201 50Q222 50 243 62T282 92T313 131T331 172L343 218H340ZM148 180Q116 176 93 158T69 104Q69 84 81 70T113 52L148 180Z" />
<glyph unicode="b" glyph-name="b" horiz-adv-x="593" d="M310 425Q337 445 367 453T431 462Q466 462 495 450T545 416T577 364T589 300Q589 243 571 187T518 87T434 15T322 -13Q292 -13 259 -3T206 33L197 0H4L192 699H383L310 425ZM412 66Q438 81 459 106T495
160T518 222T526 284Q526 305 519 331T494 371L412 66ZM435 391Q425 395 420 397T403 399Q385 399 366 391T328 370T297 340T279 306L240 161Q238 156 238 149T238 137Q238 122 242 107T254 79T275 58T305 50Q315 50 325 51T345 54L435 391ZM239 636L85 63H149L303
636H239Z" />
<glyph unicode="c" glyph-name="c" horiz-adv-x="512" d="M463 294Q443 317 430 336T402 369T365 391T305 399Q301 399 294 399T278 398T261 396T250 391L163 63Q175 57 190 54T219 50Q258 50 281 57T323 78T358 110T401 149L440 106Q414 74 389 51T335 14T274
-6T199 -13Q157 -13 123 -1T63 35T23 92T9 169Q9 233 33 287T98 380T195 440T314 462Q383 462 429 431T509 340L463 294ZM181 370Q131 337 102 284T72 170Q72 158 72 145T76 119T85 95T102 76L181 370Z" />
<glyph unicode="d" glyph-name="d" horiz-adv-x="659" d="M468 0H275L284 32H283Q257 5 225 -4T156 -13Q122 -13 94 -1T45 33T13 84T1 147Q1 206 17 262T67 363T149 435T264 462Q302 462 330 454T387 420H388L463 699H654L468 0ZM510 636L356 63H420L574 636H510ZM154
53Q169 50 184 50Q214 50 237 63T279 96T309 142T327 194Q335 224 344 258T354 324Q354 356 336 377T285 399Q277 399 265 398T245 393L154 53ZM177 379Q151 364 130 340T95 287T72 226T64 165Q64 148 65 137T69 115T79 94T94 70L177 379Z" />
<glyph unicode="e" glyph-name="e" horiz-adv-x="511" d="M451 93Q431 61 405 41T347 8T282 -8T212 -13Q170 -13 133 -2T69 33T25 91T9 170Q9 235 33 289T98 381T195 441T314 462Q348 462 382 452T443 422T487 373T504 307Q504 278 496 250T479 193H198L163 60Q176
52 190 51T219 50Q259 50 283 53T327 66T366 91T415 131L451 93ZM430 256Q435 269 438 281T441 308Q441 330 430 345T401 372L370 256H430ZM342 391Q327 399 305 399Q294 399 276 397T250 385L215 256H306L342 391ZM182 372Q158 357 138 334T103 284T80 228T72
170Q72 140 79 121T103 77Q123 151 142 224T182 372Z" />
<glyph unicode="f" glyph-name="f" horiz-adv-x="577" d="M530 591Q501 614 476 624T413 635Q401 635 390 634T366 630L318 449H444L427 386H301L197 0H4L108 386H4L21 449H125L140 505Q153 555 180 591T243 652T324 687T419 699Q460 699 503 690T577 649L530
591ZM302 624Q263 603 237 571T202 504L84 63H151L302 624Z" />
<glyph unicode="g" glyph-name="g" horiz-adv-x="626" d="M622 449Q590 331 560 216T497 -18Q481 -77 451 -113T380 -170T290 -198T186 -205Q129 -205 82 -184T8 -109L63 -70Q74 -92 86 -106T114 -128T147 -139T190 -142Q207 -142 232 -141T274 -134L318 24H316Q290
4 259 -4T195 -13Q160 -13 131 -1T81 34T49 85T37 149Q37 207 55 263T107 364T190 435T304 462Q337 462 368 450T420 409H422L433 449H622ZM477 386Q451 288 426 194Q415 154 404 111T381 25T360 -56T341 -127Q379 -113 401 -86T433 -20L540 386H477ZM383 270Q388
288 388 303Q388 318 384 334T370 365T348 389T318 399Q295 399 280 387L191 54Q199 50 209 50T228 50Q251 50 272 62T311 94T341 136T359 179L383 270ZM214 380Q188 365 167 341T131 287T108 227T100 165Q100 148 102 136T108 112T117 90T130 63L214 380Z" />
<glyph unicode="h" glyph-name="h" horiz-adv-x="591" d="M308 418Q341 445 373 453T448 462Q476 462 501 454T545 429T575 390T586 338Q586 323 583 308T576 279L502 0H312L419 401Q401 401 383 396Q362 391 342 374T306 333T277 286T259 241L197 0H4L192 699H384L306
418H308ZM520 307Q522 315 522 322T523 338Q523 361 513 374T482 396L392 63H454L520 307ZM239 636L85 63H149L303 636H239Z" />
<glyph unicode="i" glyph-name="i" horiz-adv-x="375" d="M325 489H132L182 669H374L325 489ZM229 606L213 552H277L293 606H229ZM194 0H1L123 449H315L194 0ZM170 386L82 63H146L234 386H170Z" />
<glyph unicode="j" glyph-name="j" horiz-adv-x="549" d="M499 489H306L356 669H548L499 489ZM403 606L387 552H451L467 606H403ZM368 -9Q355 -57 328 -93T262 -154T179 -192T87 -205Q62 -205 43 -201T0 -187L32 -130Q38 -133 48 -135T68 -139T89 -141T106 -142Q115
-142 124 -142T141 -138L298 449H491L368 -9ZM344 386L206 -128Q242 -111 268 -80T305 -10L411 386H344Z" />
<glyph unicode="k" glyph-name="k" horiz-adv-x="588" d="M436 308L552 0H355L274 212L250 197L197 0H4L192 699H383L273 284H274L549 449L586 399L436 308ZM382 276L329 245L397 63H462L382 276ZM239 636L85 63H149L303 636H239Z" />
<glyph unicode="l" glyph-name="l" horiz-adv-x="381" d="M194 0H1L174 646L341 699H380L194 0ZM226 595L82 63H146L295 618L226 595Z" />
<glyph unicode="m" glyph-name="m" horiz-adv-x="886" d="M570 392Q602 427 644 444T734 462Q762 462 787 454T831 429T861 390T872 338Q872 323 869 308T862 279L788 0H597L705 399H688Q665 399 644 382T606 339T577 287T559 241L495 0H303L412 400Q407 399 404
399T395 399Q372 397 351 379T312 336T283 284T265 236L202 0H10L131 449H318L310 416H312Q344 442 372 452T441 462Q479 462 514 445T567 392H570ZM801 289Q804 301 806 313T809 338Q809 358 798 373T769 400L679 63H740L801 289ZM508 289Q511 301 513 313T516
338Q516 358 505 373T476 399L384 63H447L508 289ZM177 386L91 63H155L241 386H177Z" />
<glyph unicode="n" glyph-name="n" horiz-adv-x="601" d="M311 418Q344 445 376 453T451 462Q479 462 504 454T548 429T578 390T589 338Q589 323 586 308T579 279L505 0H315L422 401Q404 401 386 396Q365 391 345 374T309 333T280 286T262 241L200 0H7L127 449H317L309
418H311ZM523 307Q525 315 525 322T526 338Q526 361 516 374T485 396L395 63H457L523 307ZM174 386L88 63H152L238 386H174Z" />
<glyph unicode="o" glyph-name="o" horiz-adv-x="524" d="M515 280Q515 214 491 160T424 67T325 8T204 -13Q162 -13 127 -1T65 34T24 91T9 169Q9 236 33 290T99 383T197 441T319 462Q362 462 398 451T460 416T500 359T515 280ZM343 79Q393 107 422 155T452 261Q452
293 445 313T417 359L343 79ZM362 391Q352 396 334 397T305 399Q302 399 295 399T279 398T263 396T252 394L162 58Q172 54 191 52T218 50Q221 50 229 50T245 51T261 52T272 55L362 391ZM182 371Q131 342 101 294T71 187Q71 161 79 137T107 92Q116 127 128 174T153
266Q167 317 182 371Z" />
<glyph unicode="p" glyph-name="p" horiz-adv-x="648" d="M365 417Q391 444 423 453T492 462Q526 462 554 450T603 416T635 365T647 302Q647 243 631 187T581 86T499 14T384 -13Q346 -13 318 -5T261 29H260L196 -205H5L180 449H373L364 417H365ZM471 70Q497 85
518 109T553 162T576 223T584 284Q584 300 583 312T579 334T569 355T554 379L471 70ZM494 396Q479 399 464 399Q434 399 411 386T369 353T339 306T321 255Q313 225 304 191T294 125Q294 93 312 72T363 50Q371 50 383 51T403 56L494 396ZM228 386L85 -142H149L292
386H228Z" />
<glyph unicode="q" glyph-name="q" horiz-adv-x="594" d="M414 -205H223L283 24Q256 4 226 -4T162 -13Q127 -13 98 -1T48 33T16 84T4 149Q4 206 22 262T75 362T159 434T271 462Q306 462 337 451T389 409L393 425Q429 431 465 437T537 449H589L414 -205ZM484 377L438
364L303 -142H367L506 377H484ZM353 288Q355 294 355 300T355 312Q355 327 351 342T339 370T318 391T288 399Q278 399 268 398T248 395L158 58Q167 54 173 52T190 50Q208 50 227 58T265 79T296 109T314 143L353 288ZM181 383Q155 368 134 343T98 289T75 227T67
165Q67 143 74 118T99 78L181 383Z" />
<glyph unicode="r" glyph-name="r" horiz-adv-x="511" d="M511 403Q497 402 482 402T453 399Q428 397 405 386T362 361Q348 351 333 338T304 308T279 275T264 240L199 0H6L128 449H320L306 398Q341 425 384 443T472 462Q481 462 490 462T508 460L511 403ZM175
386L87 63H151L239 386H175Z" />
<glyph unicode="s" glyph-name="s" horiz-adv-x="495" d="M447 323Q425 362 391 380T311 399Q292 399 276 387T259 354Q259 341 272 330T306 308T349 285T393 256T426 219T440 170Q440 124 418 90T360 33T282 -1T199 -13Q130 -13 83 12T4 99L54 141Q69 120 82
103T112 75T148 57T197 50Q221 50 240 60T260 99Q260 114 247 124T213 144T170 165T126 193T93 233T79 291Q79 337 99 369T151 422T223 452T303 462Q334 462 362 457T415 440T459 408T490 357L447 323ZM311 64Q348 84 362 107T377 149Q377 176 364 194T330 224T287
247T243 269T210 296T196 334Q196 346 198 359T213 391L212 392Q188 383 175 371T154 346T144 321T142 301Q142 276 154 259T186 230T228 207T270 186Q294 173 308 154T323 113Q323 100 321 89T310 65L311 64Z" />
<glyph unicode="t" glyph-name="t" horiz-adv-x="405" d="M384 385H284L198 61Q227 68 256 75T312 94L293 24Q259 11 223 -1T150 -14Q127 -14 104 -12T62 -2T30 22T18 67Q18 96 25 125T40 183L93 384H3L22 448H112L158 625Q160 625 168 628T188 634T214 642T243
652Q277 663 319 676H363L303 448H403L384 385ZM208 574L90 133Q85 116 85 102Q85 78 98 68T134 56L278 595L208 574Z" />
<glyph unicode="u" glyph-name="u" horiz-adv-x="601" d="M474 0H282L292 31H290Q257 4 225 -4T150 -13Q122 -13 97 -5T53 20T23 59T12 111Q12 126 15 141T22 170L96 449H286L179 48Q197 48 215 53Q236 58 256 75T292 116T321 163T339 208L401 449H594L474 0ZM449
386L363 63H427L513 386H449ZM144 386L78 142Q76 134 76 127T75 111Q75 88 85 75T116 53L206 386H144Z" />
<glyph unicode="v" glyph-name="v" horiz-adv-x="515" d="M265 0H68L12 449H198L244 97H247L442 449H514L265 0ZM142 386H83L124 63H185L142 386Z" />
<glyph unicode="w" glyph-name="w" horiz-adv-x="731" d="M536 0H343L333 249H331L228 0H35L17 449H203L215 137H217L355 449H511L523 137H525L662 449H725L536 0ZM451 386H389L404 63H465L451 386ZM142 386H81L96 63H157L142 386Z" />
<glyph unicode="x" glyph-name="x" horiz-adv-x="616" d="M397 268L535 0H326L249 142L84 0H7L224 191L89 449H303L372 315L531 449H608L397 268ZM265 386H196L361 63H429L265 386Z" />
<glyph unicode="y" glyph-name="y" horiz-adv-x="658" d="M327 -83Q310 -111 293 -133T254 -172T206 -196T144 -205Q107 -205 74 -186T25 -132Q20 -122 16 -113T6 -93L66 -67Q73 -81 80 -94T96 -118T118 -135T149 -142Q177 -142 196 -133T231 -109T258 -74T284
-33L134 449H326L413 180H416L583 449H658L327 -83ZM281 386H220L327 35L370 106L281 386Z" />
<glyph unicode="z" glyph-name="z" horiz-adv-x="573" d="M518 449Q544 449 555 440T566 418Q566 401 547 379L268 65V63H439Q457 63 465 54T474 33Q474 21 466 11T441 0H49Q32 0 20 8T7 33Q7 41 13 53T26 74L303 384V386H140Q121 386 113 395T105 417Q105 429
113 439T140 449H518ZM442 354Q445 358 451 364T457 378Q457 386 444 386H407Q395 386 389 382T368 360L127 94Q113 80 113 71Q113 63 126 63H167Q175 63 182 67T206 91L442 354Z" />
<glyph unicode="&#xa0;" glyph-name="space" horiz-adv-x="500" />
</font>
</defs>
</svg>
