<?xml version="1.0" standalone="no"?> <!DOCTYPE svg PUBLIC "-//W3C//DTD SVG 1.0//EN" "http://www.w3.org/TR/2001/REC-SVG-20010904/DTD/svg10.dtd" > <svg xmlns="http://www.w3.org/2000/svg" width="100%" height="100%">
<defs >
<font horiz-adv-x="1394" ><font-face
    font-family="DejaVu Serif"
    units-per-em="2048"
    panose-1="2 6 8 3 5 6 5 2 2 4"
    ascent="1923"
    descent="-483"
    alphabetic="0" />
<missing-glyph horiz-adv-x="1107" d="M41 -362V1444H1065V-362H41ZM156 -248H951V1329H156V-248Z" />
<glyph unicode=" " glyph-name="space" horiz-adv-x="713" />
<glyph unicode="!" glyph-name="exclam" horiz-adv-x="433" d="M27 162Q27 240 82 296T216 352Q294 352 350 296T406 162Q406 83 350 27T216 -29Q138 -29 83 27T27 162ZM29 1493H404L285 651V461H146V651L29 1493Z" />
<glyph unicode="&quot;" glyph-name="quotedbl" horiz-adv-x="760" d="M278 1493V938H41V1493H278ZM718 1493V938H481V1493H718Z" />
<glyph unicode="#" glyph-name="numbersign" horiz-adv-x="1450" d="M891 872H627L557 598H821L891 872ZM778 1470L682 1085H946L1043 1470H1264L1167 1085H1444V872H1114L1045 598H1329V383H993L897 0H676L772 383H508L412 0H189L285 383H6V598H334L404 872H121V1085H459L555
1470H778Z" />
<glyph unicode="$" glyph-name="dollar" horiz-adv-x="1081" d="M18 59V350H138Q155 216 233 150T456 84H470V489Q221 544 113 639T5 897Q5 1077 127 1180T470 1290V1559H591V1290Q703 1284 805 1263T1005 1202V930H884Q868 1046 792 1110T591 1177V805Q860 746
969 647T1078 367Q1078 182 952 80T591 -29V-299H470V-29Q360 -27 247 -5T18 59ZM470 1178Q385 1167 336 1125T286 1022Q286 952 328 909T470 838V1178ZM591 84Q692 95 744 138T796 256Q796 330 748 378T591 457V84Z" />
<glyph unicode="%" glyph-name="percent" horiz-adv-x="1881" d="M410 1419Q346 1419 318 1350T290 1114Q290 947 318 877T410 807Q475 807 503 877T531 1114Q531 1280 503 1349T410 1419ZM410 1520Q601 1520 702 1416T804 1114Q804 917 703 812T410 707Q220 707
119 812T17 1114Q17 1311 118 1415T410 1520ZM1322 1520H1494L560 -29H388L1322 1520ZM1471 784Q1662 784 1763 680T1864 379Q1864 182 1763 77T1471 -29Q1281 -29 1180 76T1078 379Q1078 575 1179 679T1471 784ZM1471 684Q1406 684 1378 615T1350 379Q1350 212
1378 142T1471 72Q1536 72 1564 142T1592 379Q1592 545 1564 614T1471 684Z" />
<glyph unicode="&amp;" glyph-name="ampersand" horiz-adv-x="1755" d="M1748 0H1269L1142 131Q1042 51 921 11T657 -29Q357 -29 188 99T18 451Q18 614 104 729T376 928Q325 995 300 1056T274 1174Q274 1338 411 1429T798 1520Q872 1520 970 1508T1193 1473V1161H1064Q1046
1285 988 1342T823 1399Q722 1399 664 1351T606 1221Q606 1129 785 947Q805 927 815 918L1275 436Q1335 504 1369 593T1412 795H1230V915H1730V795H1554Q1537 649 1492 536T1372 336L1578 121H1748V0ZM1048 229L483 817Q428 750 400 675T372 516Q372 347 478 238T749
129Q827 129 900 153T1048 229Z" />
<glyph unicode="&apos;" glyph-name="quotesingle" horiz-adv-x="321" d="M278 1493V938H41V1493H278Z" />
<glyph unicode="(" glyph-name="parenleft" horiz-adv-x="694" d="M672 -319Q335 -194 169 39T3 618Q3 964 167 1194T672 1556V1436Q514 1340 445 1152T375 618Q375 274 444 86T672 -199V-319Z" />
<glyph unicode=")" glyph-name="parenright" horiz-adv-x="694" d="M22 -319V-199Q180 -103 249 85T319 618Q319 963 250 1151T22 1436V1556Q363 1424 527 1194T692 618Q692 272 526 39T22 -319Z" />
<glyph unicode="*" glyph-name="asterisk" horiz-adv-x="989" d="M985 1212L625 1044L985 874L887 719L559 958L586 569H403L430 958L102 719L4 874L365 1044L4 1212L102 1370L430 1128L403 1520H586L559 1128L887 1370L985 1212Z" />
<glyph unicode="+" glyph-name="plus" horiz-adv-x="1282" d="M756 1284V758H1282V528H756V2H526V528H0V758H526V1284H756Z" />
<glyph unicode="," glyph-name="comma" horiz-adv-x="493" d="M2 -197Q106 -113 155 -9T204 233V319H489V311Q489 90 397 -69T112 -338L2 -197Z" />
<glyph unicode="-" glyph-name="hyphen" horiz-adv-x="711" d="M41 684H669V414H41V684Z" />
<glyph unicode="." glyph-name="period" horiz-adv-x="420" d="M20 162Q20 240 76 296T210 352Q289 352 345 296T401 162Q401 83 345 27T210 -29Q132 -29 76 27T20 162Z" />
<glyph unicode="/" glyph-name="slash" horiz-adv-x="748" d="M526 1493H748L221 -190H0L526 1493Z" />
<glyph unicode="0" glyph-name="zero" horiz-adv-x="1279" d="M640 88Q760 88 804 197T849 745Q849 1181 805 1292T640 1403Q520 1403 476 1294T431 745Q431 306 475 197T640 88ZM640 -29Q341 -29 182 170T23 745Q23 1120 182 1320T640 1520Q938 1520 1097 1320T1256
745Q1256 370 1097 171T640 -29Z" />
<glyph unicode="1" glyph-name="one" horiz-adv-x="987" d="M43 0V121H323V1329L12 1145V1294L387 1520H702V121H983V0H43Z" />
<glyph unicode="2" glyph-name="two" horiz-adv-x="1170" d="M169 1124H49V1446Q171 1483 290 1501T532 1520Q817 1520 976 1404T1136 1079Q1136 931 1048 814T712 535L296 262H1003V438H1140V0H36V244L257 397Q540 592 634 729T728 1049Q728 1222 657 1312T448
1403Q330 1403 259 1332T169 1124Z" />
<glyph unicode="3" glyph-name="three" horiz-adv-x="1203" d="M64 1450Q196 1485 320 1502T562 1520Q832 1520 976 1424T1121 1147Q1121 1012 1038 928T795 815Q990 784 1086 682T1182 403Q1182 194 1017 83T537 -29Q419 -29 294 -9T31 51V379H152Q163 237 241
163T457 88Q609 88 692 172T775 412Q775 574 689 662T443 750H377V870H429Q576 870 650 938T724 1141Q724 1268 655 1335T455 1403Q337 1403 268 1339T185 1151H64V1450Z" />
<glyph unicode="4" glyph-name="four" horiz-adv-x="1270" d="M1224 0H402V121H624V393H1V508L626 1520H1002V522H1258V393H1002V121H1224V0ZM624 522V1247L179 522H624Z" />
<glyph unicode="5" glyph-name="five" horiz-adv-x="1153" d="M1017 1493V1231H218V903Q284 954 365 980T536 1006Q812 1006 972 867T1132 487Q1132 243 972 107T524 -29Q402 -29 282 -9T30 53V379H150Q156 232 226 160T435 88Q582 88 653 186T724 487Q724 686
655 784T444 883Q368 883 309 852T198 754H98V1493H1017Z" />
<glyph unicode="6" glyph-name="six" horiz-adv-x="1232" d="M397 885Q462 937 542 963T718 989Q947 989 1077 855T1208 487Q1208 240 1061 106T643 -29Q337 -29 180 155T22 698Q22 1105 197 1312T716 1520Q806 1520 909 1505T1130 1460V1196H1009Q984 1298 915
1350T735 1403Q557 1403 478 1281T397 885ZM620 88Q723 88 767 175T811 479Q811 695 767 782T620 870Q517 870 474 783T430 479Q430 263 473 176T620 88Z" />
<glyph unicode="7" glyph-name="seven" horiz-adv-x="1108" d="M1105 1239L489 0H286L886 1210H149V1008H12V1493H1105V1239Z" />
<glyph unicode="8" glyph-name="eight" horiz-adv-x="1255" d="M869 795Q1047 766 1139 664T1232 397Q1232 191 1077 81T628 -29Q335 -29 179 81T23 397Q23 562 116 664T386 795Q229 831 151 915T73 1130Q73 1320 215 1420T628 1520Q898 1520 1040 1420T1183 1130Q1183
1000 1105 916T869 795ZM796 1126Q796 1284 758 1343T628 1403Q535 1403 498 1344T460 1126Q460 969 497 911T628 852Q721 852 758 910T796 1126ZM835 414Q835 597 789 666T628 735Q513 735 467 666T421 414Q421 229 467 159T628 88Q741 88 788 158T835 414Z" />
<glyph unicode="9" glyph-name="nine" horiz-adv-x="1232" d="M612 1403Q509 1403 466 1316T422 1012Q422 796 465 709T612 621Q715 621 759 708T803 1012Q803 1228 759 1315T612 1403ZM835 608Q769 555 689 529T514 502Q286 502 156 635T25 1004Q25 1252 171
1386T588 1520Q894 1520 1052 1335T1210 793Q1210 386 1035 179T516 -29Q426 -29 323 -14T102 31V295H223Q248 193 317 141T498 88Q674 88 754 210T835 608Z" />
<glyph unicode=":" glyph-name="colon" horiz-adv-x="424" d="M23 813Q23 892 78 948T212 1004Q290 1004 346 948T402 813Q402 735 347 680T212 625Q133 625 78 680T23 813ZM23 162Q23 240 78 296T212 352Q290 352 346 296T402 162Q402 83 346 27T212 -29Q134
-29 79 27T23 162Z" />
<glyph unicode=";" glyph-name="semicolon" horiz-adv-x="524" d="M139 813Q139 892 194 948T328 1004Q406 1004 462 948T518 813Q518 735 463 680T328 625Q249 625 194 680T139 813ZM4 -188Q109 -105 158 -2T207 240V328H492Q492 103 399 -59T115 -330L4 -188Z" />
<glyph unicode="&lt;" glyph-name="less" horiz-adv-x="1298" d="M1282 979L303 641L1282 305V66L0 530V756L1282 1219V979Z" />
<glyph unicode="=" glyph-name="equal" horiz-adv-x="1332" d="M41 528H1323V301H41V528ZM41 983H1323V756H41V983Z" />
<glyph unicode="&gt;" glyph-name="greater" horiz-adv-x="1323" d="M41 979V1219L1323 756V530L41 66V305L1020 641L41 979Z" />
<glyph unicode="?" glyph-name="question" horiz-adv-x="992" d="M222 162Q222 240 278 296T412 352Q491 352 547 296T603 162Q603 83 547 27T412 -29Q334 -29 278 27T222 162ZM13 1452Q137 1486 249 1503T466 1520Q718 1520 853 1410T988 1094Q988 892 858 776T482
641V436H343V735Q483 778 548 870T613 1116Q613 1260 552 1333T372 1407Q262 1407 203 1341T134 1145H13V1452Z" />
<glyph unicode="@" glyph-name="at" horiz-adv-x="1803" d="M1157 504V580Q1157 709 1095 787T932 866Q833 866 773 779T712 543Q712 395 772 307T932 219Q1033 219 1095 296T1157 504ZM1157 240Q1113 168 1042 130T880 92Q689 92 580 212T471 543Q471 754 580
873T880 993Q970 993 1041 955T1157 846V971H1376V229Q1519 268 1597 385T1675 678Q1675 821 1620 938T1452 1151Q1360 1229 1236 1271T972 1313Q842 1313 729 1278T522 1174Q380 1068 304 904T227 543Q227 388 275 251T413 12Q520 -107 659 -168T962 -229Q1084
-229 1198 -195T1415 -94L1472 -188Q1344 -272 1206 -314T923 -356Q729 -356 567 -293T278 -104Q152 20 86 185T20 543Q20 735 86 900T278 1190Q406 1316 569 1378T938 1440Q1116 1440 1262 1392T1523 1245Q1656 1134 1722 992T1788 676Q1788 400 1630 246T1188
92H1157V240Z" />
<glyph unicode="A" glyph-name="A" horiz-adv-x="1635" d="M4 0V121H126L688 1493H927L1490 121H1632V0H933V121H1079L956 426H395L270 121H448V0H4ZM444 547H907L677 1118L444 547Z" />
<glyph unicode="B" glyph-name="B" horiz-adv-x="1574" d="M28 0V121H219V1372H28V1493H913Q1186 1493 1323 1401T1460 1124Q1460 991 1366 913T1085 815Q1310 794 1430 695T1550 432Q1550 210 1383 105T858 0H28ZM604 870H735Q907 870 990 932T1073 1124Q1073
1254 993 1313T735 1372H604V870ZM604 121H747Q938 121 1030 197T1122 432Q1122 592 1029 671T747 750H604V121Z" />
<glyph unicode="C" glyph-name="C" horiz-adv-x="1481" d="M1460 426Q1401 195 1248 83T837 -29Q459 -29 240 179T20 745Q20 1103 239 1311T837 1520Q970 1520 1114 1488T1419 1391V1024H1292Q1253 1212 1150 1305T878 1399Q660 1399 554 1239T448 745Q448 412
554 252T880 92Q1029 92 1123 175T1261 426H1460Z" />
<glyph unicode="D" glyph-name="D" horiz-adv-x="1645" d="M604 121H743Q977 121 1085 271T1194 748Q1194 1073 1086 1222T743 1372H604V121ZM28 0V121H219V1372H28V1493H794Q1196 1493 1409 1301T1622 748Q1622 385 1409 193T794 0H28Z" />
<glyph unicode="E" glyph-name="E" horiz-adv-x="1426" d="M26 0V121H217V1372H26V1493H1368V1141H1230V1356H602V877H993V1067H1130V551H993V741H602V137H1249V352H1386V0H26Z" />
<glyph unicode="F" glyph-name="F" horiz-adv-x="1361" d="M26 0V121H217V1372H26V1493H1357V1141H1220V1356H604V877H983V1067H1120V551H983V741H604V121H839V0H26Z" />
<glyph unicode="G" glyph-name="G" horiz-adv-x="1551" d="M1343 1024Q1298 1222 1193 1310T897 1399Q665 1399 557 1242T448 745Q448 409 552 251T876 92Q960 92 1032 111T1163 168V578H983V698H1521V125Q1353 47 1186 9T843 -29Q459 -29 240 178T20 745Q20 1106
239 1313T843 1520Q1003 1520 1158 1488T1470 1391V1024H1343Z" />
<glyph unicode="H" glyph-name="H" horiz-adv-x="1805" d="M29 0V121H220V1372H29V1493H797V1372H605V870H1199V1372H1008V1493H1776V1372H1584V121H1776V0H1008V121H1199V733H605V121H797V0H29Z" />
<glyph unicode="I" glyph-name="I" horiz-adv-x="802" d="M17 0V121H208V1372H17V1493H785V1372H593V121H785V0H17Z" />
<glyph unicode="J" glyph-name="J" horiz-adv-x="1054" d="M6 -358V-123H136Q142 -217 180 -261T295 -305Q392 -305 430 -231T469 49V1372H252V1493H1047V1372H856V41Q856 -202 734 -314T344 -426Q261 -426 177 -409T6 -358Z" />
<glyph unicode="K" glyph-name="K" horiz-adv-x="1794" d="M29 0V121H220V1372H29V1493H797V1372H605V827L1238 1372H1078V1493H1635V1372H1436L900 911L1629 121H1776V0H1270L605 725V121H797V0H29Z" />
<glyph unicode="L" glyph-name="L" horiz-adv-x="1327" d="M25 0V121H216V1372H25V1493H793V1372H601V137H1189V373H1324V0H25Z" />
<glyph unicode="M" glyph-name="M" horiz-adv-x="2146" d="M30 0V121H220V1372H30V1493H646L1072 535L1500 1493H2115V1372H1924V121H2115V0H1347V121H1537V1260L1074 219H821L360 1260V121H550V0H30Z" />
<glyph unicode="N" glyph-name="N" horiz-adv-x="1750" d="M28 0V121H219V1372H28V1493H495L1396 436V1372H1206V1493H1728V1372H1537V0H1275L360 1079V121H550V0H28Z" />
<glyph unicode="O" glyph-name="O" horiz-adv-x="1654" d="M827 92Q1018 92 1111 253T1204 745Q1204 1077 1111 1238T827 1399Q637 1399 544 1237T450 745Q450 417 543 255T827 92ZM827 -29Q450 -29 236 177T22 745Q22 1107 236 1313T827 1520Q1204 1520 1418
1314T1632 745Q1632 383 1418 177T827 -29Z" />
<glyph unicode="P" glyph-name="P" horiz-adv-x="1423" d="M26 0V121H217V1372H26V1493H876Q1125 1493 1272 1375T1419 1057Q1419 857 1272 738T876 618H602V121H843V0H26ZM602 739H714Q844 739 921 825T999 1057Q999 1201 922 1286T714 1372H602V739Z" />
<glyph unicode="Q" glyph-name="Q" horiz-adv-x="1637" d="M807 -29Q429 -23 219 181T8 745Q8 1107 222 1313T813 1520Q1190 1520 1404 1314T1618 745Q1618 427 1454 229T985 -16Q1038 -73 1114 -98T1311 -123H1362V-369H1333Q1143 -369 1016 -287T807 -29ZM813
92Q1004 92 1097 253T1190 745Q1190 1077 1097 1238T813 1399Q623 1399 530 1237T436 745Q436 417 529 255T813 92Z" />
<glyph unicode="R" glyph-name="R" horiz-adv-x="1658" d="M1018 729Q1107 716 1168 670T1274 537L1492 121H1645V0H1154L916 451Q847 591 799 629T664 668H603V121H795V0H27V121H218V1372H27V1493H879Q1139 1493 1280 1389T1422 1092Q1422 936 1322 846T1018
729ZM603 788H734Q874 788 949 864T1025 1081Q1025 1222 950 1297T734 1372H603V788Z" />
<glyph unicode="S" glyph-name="S" horiz-adv-x="1269" d="M49 72V426H176Q205 258 313 175T612 92Q767 92 848 151T929 324Q929 414 874 464T647 557L423 612Q204 668 115 767T26 1051Q26 1273 173 1396T587 1520Q718 1520 859 1498T1153 1432V1102H1026Q997
1256 899 1327T620 1399Q472 1399 397 1348T321 1194Q321 1101 373 1053T628 952L852 897Q1060 845 1153 735T1247 432Q1247 206 1091 89T632 -29Q486 -29 342 -4T49 72Z" />
<glyph unicode="T" glyph-name="T" horiz-adv-x="1502" d="M359 0V121H557V1356H148V1120H11V1493H1491V1120H1356V1356H944V121H1143V0H359Z" />
<glyph unicode="U" glyph-name="U" horiz-adv-x="1699" d="M204 1372H14V1493H782V1372H591V625Q591 346 678 235T976 123Q1182 123 1268 235T1355 625V1372H1165V1493H1685V1372H1494V604Q1494 262 1346 117T849 -29Q502 -29 353 118T204 606V1372Z" />
<glyph unicode="V" glyph-name="V" horiz-adv-x="1636" d="M1633 1493V1372H1508L945 0H707L144 1372H3V1493H703V1372H558L961 383L1367 1372H1189V1493H1633Z" />
<glyph unicode="W" glyph-name="W" horiz-adv-x="2368" d="M1776 0H1518L1180 1087L842 0H584L158 1372H13V1493H721V1372H561L846 455L1168 1493H1452L1780 438L2071 1372H1893V1493H2355V1372H2202L1776 0Z" />
<glyph unicode="X" glyph-name="X" horiz-adv-x="1622" d="M708 575L397 121H581V0H51V121H235L628 692L161 1372H24V1493H766V1372H602L891 952L1177 1372H1003V1493H1523V1372H1339L970 836L1460 121H1601V0H856V121H1022L708 575Z" />
<glyph unicode="Y" glyph-name="Y" horiz-adv-x="1514" d="M377 0V121H578V618L134 1372H7V1493H723V1372H557L893 803L1227 1372H1078V1493H1506V1372H1379L965 670V121H1166V0H377Z" />
<glyph unicode="Z" glyph-name="Z" horiz-adv-x="1416" d="M34 0V141L925 1356H210V1133H73V1493H1369V1352L488 137H1242V346H1379V0H34Z" />
<glyph unicode="[" glyph-name="bracketleft" horiz-adv-x="611" d="M39 1556H606V1436H393V-150H606V-270H39V1556Z" />
<glyph unicode="\" glyph-name="backslash" horiz-adv-x="748" d="M221 1493L748 -190H526L0 1493H221Z" />
<glyph unicode="]" glyph-name="bracketright" horiz-adv-x="613" d="M573 1556V-270H5V-150H218V1436H5V1556H573Z" />
<glyph unicode="^" glyph-name="asciicircum" horiz-adv-x="1312" d="M771 1493L1307 936H1094L656 1251L218 936H5L548 1493H771Z" />
<glyph unicode="_" glyph-name="underscore" horiz-adv-x="1103" d="M1063 -293V-483H39V-293H1063Z" />
<glyph unicode="`" glyph-name="grave" horiz-adv-x="540" d="M279 1638L537 1262H373L0 1638H279Z" />
<glyph unicode="a" glyph-name="a" horiz-adv-x="1234" d="M1070 653V121H1222V0H716V135Q646 51 560 11T364 -29Q201 -29 114 58T26 309Q26 488 151 577T530 666H716V729Q716 858 655 919T466 981Q360 981 303 938T221 795H108V1024Q203 1058 305 1075T520 1092Q805
1092 937 986T1070 653ZM716 334V547H583Q484 547 431 493T378 338Q378 237 416 187T534 137Q616 137 666 191T716 334Z" />
<glyph unicode="b" glyph-name="b" horiz-adv-x="1329" d="M174 121V1436H22V1556H528V928Q573 1011 649 1051T837 1092Q1064 1092 1194 943T1325 532Q1325 271 1195 121T837 -29Q725 -29 649 11T528 135V0H22V121H174ZM528 479Q528 293 575 210T729 127Q838 127
882 215T927 532Q927 761 883 848T729 936Q623 936 576 853T528 584V479Z" />
<glyph unicode="c" glyph-name="c" horiz-adv-x="1111" d="M1091 332Q1053 150 936 61T616 -29Q332 -29 176 118T20 532Q20 796 174 944T602 1092Q713 1092 826 1071T1056 1008V713H944Q928 848 865 913T688 979Q540 979 478 879T415 532Q415 291 476 188T675
84Q782 84 846 148T925 332H1091Z" />
<glyph unicode="d" glyph-name="d" horiz-adv-x="1323" d="M801 479V584Q801 770 753 853T600 936Q490 936 446 849T401 532Q401 303 446 215T600 127Q705 127 753 210T801 479ZM1155 121H1306V0H801V135Q756 52 680 12T491 -29Q265 -29 136 121T6 532Q6 794 135
943T491 1092Q603 1092 679 1052T801 928V1436H649V1556H1155V121Z" />
<glyph unicode="e" glyph-name="e" horiz-adv-x="1165" d="M759 600Q759 810 720 894T587 979Q496 979 457 896T417 618V600H759ZM1148 481H417V473Q417 267 479 176T679 84Q794 84 865 145T956 322H1122Q1079 141 951 56T593 -29Q317 -29 170 116T22 532Q22 796
173 944T593 1092Q857 1092 998 937T1148 481Z" />
<glyph unicode="f" glyph-name="f" horiz-adv-x="946" d="M938 1290H826Q818 1368 781 1406T674 1444Q594 1444 558 1387T522 1200V1063H789V942H522V121H727V0H17V121H168V942H10V1063H168V1196Q168 1373 281 1464T613 1556Q698 1556 779 1547T938 1518V1290Z" />
<glyph unicode="g" glyph-name="g" horiz-adv-x="1337" d="M1173 942V14Q1173 -210 1014 -332T563 -455Q457 -455 348 -439T124 -389V-135H237Q252 -240 321 -291T520 -342Q684 -342 751 -264T819 14V135Q774 52 698 12T509 -29Q283 -29 154 121T24 532Q24 794
153 943T509 1092Q621 1092 697 1052T819 928V1063H1324V942H1173ZM819 584Q819 770 771 853T618 936Q508 936 464 849T419 532Q419 303 464 215T618 127Q723 127 771 210T819 479V584Z" />
<glyph unicode="h" glyph-name="h" horiz-adv-x="1408" d="M34 0V121H185V1436H27V1556H539V913Q603 1008 685 1050T892 1092Q1071 1092 1162 987T1254 676V121H1406V0H771V121H900V686Q900 821 866 873T746 926Q639 926 589 848T539 598V121H669V0H34Z" />
<glyph unicode="i" glyph-name="i" horiz-adv-x="673" d="M129 1364Q129 1445 185 1500T322 1556Q401 1556 456 1501T512 1364Q512 1285 457 1230T322 1174Q241 1174 185 1229T129 1364ZM516 121H668V0H11V121H162V942H11V1063H516V121Z" />
<glyph unicode="j" glyph-name="j" horiz-adv-x="759" d="M330 1364Q330 1445 385 1500T523 1556Q601 1556 657 1500T713 1364Q713 1285 658 1230T523 1174Q442 1174 386 1229T330 1364ZM371 942H220V1063H725V-125Q725 -288 610 -371T269 -455Q209 -455 141 -445T0
-416V-190L113 -191Q115 -271 144 -306T240 -342Q313 -342 342 -295T371 -125V942Z" />
<glyph unicode="k" glyph-name="k" horiz-adv-x="1412" d="M667 0H28V121H179V1436H28V1556H533V557L962 942H835V1063H1320V942H1123L849 696L1297 121H1412V0H802V121H927L632 500L533 412V121H667V0Z" />
<glyph unicode="l" glyph-name="l" horiz-adv-x="682" d="M522 121H674V0H17V121H168V1436H17V1556H522V121Z" />
<glyph unicode="m" glyph-name="m" horiz-adv-x="2104" d="M1204 889Q1278 995 1364 1043T1565 1092Q1748 1092 1838 989T1929 676V121H2081V0H1448V121H1575V623Q1575 822 1545 874T1431 926Q1337 926 1285 854T1233 647V121H1360V0H752V121H879V623Q879 822
848 874T735 926Q640 926 588 854T536 647V121H663V0H31V121H182V942H31V1063H536V913Q598 1006 678 1049T868 1092Q998 1092 1079 1043T1204 889Z" />
<glyph unicode="n" glyph-name="n" horiz-adv-x="1416" d="M27 0V121H178V942H27V1063H532V913Q596 1008 678 1050T885 1092Q1064 1092 1155 987T1247 676V121H1399V0H764V121H893V686Q893 821 859 873T739 926Q632 926 582 848T532 598V121H662V0H27Z" />
<glyph unicode="o" glyph-name="o" horiz-adv-x="1242" d="M621 84Q733 84 778 180T824 532Q824 788 779 883T621 979Q508 979 462 883T416 532Q416 278 462 181T621 84ZM621 -29Q340 -29 181 120T21 532Q21 795 180 943T621 1092Q903 1092 1062 944T1221 532Q1221
270 1062 121T621 -29Z" />
<glyph unicode="p" glyph-name="p" horiz-adv-x="1333" d="M529 584V479Q529 293 576 210T730 127Q839 127 883 215T928 532Q928 761 884 848T730 936Q624 936 577 853T529 584ZM175 942H23V1063H529V928Q574 1011 650 1051T838 1092Q1065 1092 1195 943T1326
532Q1326 271 1196 121T838 -29Q726 -29 650 11T529 135V-305H693V-426H23V-305H175V942Z" />
<glyph unicode="q" glyph-name="q" horiz-adv-x="1330" d="M1156 942V-305H1307V-426H638V-305H802V135Q757 52 681 12T492 -29Q266 -29 137 121T7 532Q7 794 136 943T492 1092Q604 1092 680 1052T802 928V1063H1307V942H1156ZM802 584Q802 770 754 853T601 936Q491
936 447 849T402 532Q402 303 447 215T601 127Q706 127 754 210T802 479V584Z" />
<glyph unicode="r" glyph-name="r" horiz-adv-x="1071" d="M1063 1075V758H950Q944 843 904 884T788 926Q672 926 605 824T538 541V121H731V0H33V121H184V942H22V1063H538V874Q590 985 675 1038T885 1092Q916 1092 960 1088T1063 1075Z" />
<glyph unicode="s" glyph-name="s" horiz-adv-x="1033" d="M36 31V328H149Q163 209 238 147T442 84Q550 84 607 121T665 229Q665 293 629 328T487 389L341 426Q176 467 102 543T28 750Q28 923 148 1007T518 1092Q612 1092 718 1077T954 1028V760H841Q832 869 764
924T567 979Q459 979 404 945T348 844Q348 790 380 759T495 707L640 670Q849 617 929 539T1009 322Q1009 142 881 57T481 -29Q382 -29 271 -14T36 31Z" />
<glyph unicode="t" glyph-name="t" horiz-adv-x="898" d="M162 942H8V1063H162V1393H516V1063H811V942H516V291Q516 152 538 118T618 84Q682 84 713 127T746 260H895Q886 100 808 36T537 -29Q318 -29 240 39T162 291V942Z" />
<glyph unicode="u" glyph-name="u" horiz-adv-x="1407" d="M1238 1063V121H1389V0H883V150Q820 55 738 13T531 -29Q352 -29 261 76T169 387V942H17V1063H523V442Q523 244 556 191T677 137Q784 137 833 216T883 467V942H754V1063H1238Z" />
<glyph unicode="v" glyph-name="v" horiz-adv-x="1288" d="M499 0L122 942H5V1063H615V942H486L755 270L1023 942H884V1063H1283V942H1160L783 0H499Z" />
<glyph unicode="w" glyph-name="w" horiz-adv-x="1850" d="M1136 1063L1378 354L1578 942H1439V1063H1836V942H1711L1390 0H1146L921 666L694 0H452L130 942H14V1063H616V942H491L687 367L925 1063H1136Z" />
<glyph unicode="x" glyph-name="x" horiz-adv-x="1294" d="M750 678L938 942H807V1063H1221V942H1080L809 563L1125 121H1266V0H590V121H727L527 401L326 121H469V0H31V121H183L465 518L160 942H41V1063H690V942H561L750 678Z" />
<glyph unicode="y" glyph-name="y" horiz-adv-x="1287" d="M687 -240Q639 -357 571 -406T388 -455Q339 -455 279 -444T148 -412V-190L261 -191Q264 -268 297 -305T398 -342Q463 -342 503 -307T583 -172L599 -135L136 942H21V1063H634V942H507L777 313L1029 942H888V1063H1287V942H1158L687
-240Z" />
<glyph unicode="z" glyph-name="z" horiz-adv-x="1096" d="M35 0V121L645 946H186V764H67V1063H1057V944L446 119H938V311H1057V0H35Z" />
<glyph unicode="{" glyph-name="braceleft" horiz-adv-x="971" d="M961 -213V-334H813Q577 -334 495 -310T363 -223Q334 -187 322 -132T309 35V285Q309 436 256 493T61 551H0V672H61Q202 672 255 729T309 938V1188Q309 1300 321 1354T363 1446Q413 1507 495 1531T813
1556H961V1436H858Q746 1436 705 1389T664 1206V936Q664 777 615 710T436 612Q567 578 615 512T664 287V16Q664 -119 705 -166T858 -213H961Z" />
<glyph unicode="|" glyph-name="bar" horiz-adv-x="295" d="M254 1565V-483H39V1565H254Z" />
<glyph unicode="}" glyph-name="braceright" horiz-adv-x="969" d="M10 -213H111Q222 -213 263 -166T305 16V287Q305 444 354 511T535 612Q405 642 355 710T305 936V1206Q305 1342 264 1389T111 1436H10V1556H156Q392 1556 474 1532T606 1446Q635 1409 647 1355T660
1188V938Q660 787 713 730T907 672H969V551H907Q767 551 714 494T660 285V35Q660 -77 648 -132T606 -223Q556 -285 474 -309T156 -334H10V-213Z" />
<glyph unicode="~" glyph-name="asciitilde" horiz-adv-x="1340" d="M1311 831V625Q1218 539 1125 498T930 457Q835 457 683 515Q666 521 658 524Q651 527 638 532Q466 598 369 598Q292 598 209 562T29 453V659Q125 746 217 786T410 827Q505 827 656 770Q674 763
682 760L697 754Q870 686 971 686Q1048 686 1131 722T1311 831Z" />
<glyph unicode="&#xa0;" glyph-name="nbspace" horiz-adv-x="713" />
<glyph unicode="&#xa1;" glyph-name="exclamdown" horiz-adv-x="432" d="M406 1329Q406 1251 350 1196T216 1141Q137 1141 82 1196T27 1329Q27 1408 82 1464T216 1520Q294 1520 350 1464T406 1329ZM404 0H29L146 842V1032H285V842L404 0Z" />
<glyph unicode="&#xa2;" glyph-name="cent" horiz-adv-x="1077" d="M581 94V969Q482 944 439 844T395 532Q395 321 438 221T581 94ZM1075 332Q1043 175 949 86T702 -23V-299H581V-29Q304 -23 153 123T2 532Q2 794 153 939T581 1092V1356H702V1087Q761 1083 841
1064T1040 1008V713H927Q912 839 857 903T702 979V88Q793 104 845 165T909 332H1075Z" />
<glyph unicode="&#xa3;" glyph-name="sterling" horiz-adv-x="1174" d="M1110 1202H990Q984 1299 935 1353T801 1407Q684 1407 633 1333T582 1083V815H934V694H582V137H1002V365H1139V0H10V121H203V694H10V815H203V1092Q203 1308 336 1414T744 1520Q809 1520 899
1511T1110 1485V1202Z" />
<glyph unicode="&#xa4;" glyph-name="currency" horiz-adv-x="1209" d="M604 422Q695 422 759 485T823 641Q823 733 760 796T604 860Q513 860 449 797T385 641Q385 548 448 485T604 422ZM387 268L178 61L27 215L236 424Q205 470 191 523T176 641Q176 704 191 758T236
858L27 1063L180 1221L387 1010Q435 1040 489 1054T604 1069Q659 1069 713 1055T825 1010L1030 1221L1182 1067L973 862Q1003 806 1017 751T1032 641Q1032 578 1018 526T973 426L1182 215L1026 61L819 272Q773 242 720 228T604 213Q546 213 492 227T387 268Z" />
<glyph unicode="&#xa5;" glyph-name="yen" horiz-adv-x="1344" d="M297 0V121H487V467H84V584H487V643L426 778H84V895H370L147 1372H10V1493H704V1372H534L792 821L1048 1372H897V1493H1333V1372H1198L977 895H1269V778H919L866 662V584H1269V467H866V121H1056V0H297Z" />
<glyph unicode="&#xa6;" glyph-name="brokenbar" horiz-adv-x="278" d="M254 1432V674H39V1432H254ZM254 408V-350H39V408H254Z" />
<glyph unicode="&#xa7;" glyph-name="section" horiz-adv-x="982" d="M853 1475V1235H734Q728 1321 676 1364T527 1407Q446 1407 401 1370T355 1266Q355 1219 382 1186T499 1106L634 1034Q823 936 893 852T964 653Q964 549 907 475T736 358Q819 311 857 248T896
94Q896 -43 787 -119T478 -195Q395 -195 305 -184T112 -150V90H230Q238 0 290 -41T448 -82Q535 -82 581 -45T628 61Q628 108 602 141T484 221L349 293Q161 392 90 476T19 674Q19 777 76 850T249 967Q166 1013 127 1077T87 1231Q87 1367 196 1443T501 1520Q575 1520
662 1509T853 1475ZM351 901Q307 868 284 829T261 745Q261 684 306 633T462 524L630 436Q675 471 698 510T722 592Q722 652 676 703T517 813L351 901Z" />
<glyph unicode="&#xa8;" glyph-name="dieresis" horiz-adv-x="802" d="M30 1468Q30 1528 74 1571T178 1614Q238 1614 280 1571T323 1468Q323 1408 280 1365T178 1321Q118 1321 74 1365T30 1468ZM477 1468Q477 1528 520 1571T624 1614Q684 1614 728 1571T772 1468Q772
1409 728 1365T624 1321Q564 1321 521 1365T477 1468Z" />
<glyph unicode="&#xa9;" glyph-name="copyright" horiz-adv-x="1518" d="M759 1485Q911 1485 1042 1430T1283 1266Q1392 1157 1446 1026T1500 741Q1500 589 1446 459T1283 219Q1174 110 1043 55T759 0Q607 0 476 55T235 219Q126 328 72 458T18 741Q18 895 72 1026T235
1266Q344 1375 475 1430T759 1485ZM759 1331Q638 1331 534 1288T343 1157Q257 1071 214 968T171 741Q171 619 214 516T343 326Q429 240 533 197T759 154Q882 154 985 196T1175 326Q1261 412 1304 515T1347 741Q1347 864 1304 967T1175 1157Q1087 1245 984 1288T759
1331ZM1126 580Q1099 441 1008 371T761 301Q573 301 457 422T341 741Q341 943 458 1063T771 1184Q850 1184 930 1166T1097 1108V885H992Q980 979 928 1032T794 1085Q690 1085 631 994T571 741Q571 580 630 490T794 399Q867 399 916 445T988 580H1126Z" />
<glyph unicode="&#xaa;" glyph-name="ordfeminine" horiz-adv-x="933" d="M73 639H871V504H73V639ZM806 1212V850H921V756H542V848Q491 791 427 764T277 737Q154 737 88 798T21 973Q21 1101 115 1164T402 1227H542V1255Q542 1345 495 1389T353 1434Q277 1434 233
1402T179 1307H83V1473Q156 1496 233 1508T394 1520Q608 1520 707 1446T806 1212ZM542 1001V1133H441Q369 1133 328 1096T286 993Q286 931 316 898T404 864Q467 864 504 901T542 1001Z" />
<glyph unicode="&#xab;" glyph-name="guillemotleft" horiz-adv-x="973" d="M934 1069V922L695 600L934 279V131L465 516V684L934 1069ZM474 1069V922L234 600L474 279V131L5 516V684L474 1069Z" />
<glyph unicode="&#xac;" glyph-name="logicalnot" horiz-adv-x="1321" d="M0 903H1282V287H1053V676H0V903Z" />
<glyph unicode="&#xad;" glyph-name="sfthyphen" horiz-adv-x="707" d="M39 684H667V414H39V684Z" />
<glyph unicode="&#xae;" glyph-name="registered" horiz-adv-x="1518" d="M901 754Q940 743 970 717T1019 649L1119 434H1179V352H956L839 606Q807 674 778 695T693 717H667V434H753V352H384V434H470V1077H384V1159H837Q957 1159 1026 1104T1095 954Q1095 865
1046 814T901 754ZM667 799H734Q813 799 855 835T898 938Q898 1005 856 1041T734 1077H667V799ZM759 1485Q911 1485 1042 1430T1283 1266Q1392 1157 1446 1026T1500 741Q1500 589 1446 459T1283 219Q1174 110 1043 55T759 0Q607 0 476 55T235 219Q126 328 72 458T18
741Q18 895 72 1026T235 1266Q344 1375 475 1430T759 1485ZM759 1331Q638 1331 534 1288T343 1157Q257 1071 214 968T171 741Q171 619 214 516T343 326Q429 240 533 197T759 154Q882 154 985 196T1175 326Q1261 412 1304 515T1347 741Q1347 864 1304 967T1175 1157Q1087
1245 984 1288T759 1331Z" />
<glyph unicode="&#xaf;" glyph-name="overscore" horiz-adv-x="709" d="M39 1548H669V1360H39V1548Z" />
<glyph unicode="&#xb0;" glyph-name="degree" horiz-adv-x="703" d="M353 1534Q419 1534 480 1509T589 1436Q636 1388 660 1328T685 1200Q685 1133 661 1073T591 967Q543 919 481 894T351 868Q210 868 115 963T19 1200Q19 1341 115 1437T353 1534ZM353 1372Q281
1372 231 1322T181 1200Q181 1128 230 1079T353 1030Q425 1030 475 1079T525 1200Q525 1272 475 1322T353 1372Z" />
<glyph unicode="&#xb1;" glyph-name="plusminus" horiz-adv-x="1302" d="M10 227H1292V0H10V227ZM766 1284V926H1292V698H766V340H536V698H10V926H536V1284H766Z" />
<glyph unicode="&#xb2;" glyph-name="twosuperior" horiz-adv-x="760" d="M137 1284H43V1479Q115 1499 190 1509T346 1520Q527 1520 627 1456T727 1278Q727 1196 673 1132T461 977L217 838H631V934H731V684H35V817L164 901Q351 1024 401 1094T451 1257Q451 1341
410 1388T295 1436Q232 1436 189 1395T137 1284Z" />
<glyph unicode="&#xb3;" glyph-name="threesuperior" horiz-adv-x="777" d="M52 1481Q140 1500 214 1510T353 1520Q533 1520 626 1468T719 1315Q719 1243 667 1196T512 1133Q632 1117 694 1062T756 913Q756 791 654 730T351 668Q271 668 191 678T31 711V911H127Q134
831 177 792T299 752Q387 752 433 795T480 920Q480 1000 431 1043T291 1087H250V1171H281Q362 1171 405 1205T449 1303Q449 1366 410 1401T299 1436Q233 1436 193 1400T148 1299L52 1298V1481Z" />
<glyph unicode="&#xb4;" glyph-name="acute" horiz-adv-x="540" d="M261 1638H540L167 1262H3L261 1638Z" />
<glyph unicode="&#xb5;" glyph-name="mu" horiz-adv-x="1404" d="M1249 1063V121H1401V0H895V125Q840 42 786 7T657 -29Q626 -29 597 -19T534 12V-305H686V-426H28V-305H180V942H28V1063H534V467Q534 247 568 192T690 137Q796 137 845 216T895 467V942H764V1063H1249Z" />
<glyph unicode="&#xb6;" glyph-name="paragraph" horiz-adv-x="1055" d="M479 1493H1034V1368H921V-197H769V1368H606V-197H454V649Q239 666 121 776T3 1071Q3 1261 133 1377T479 1493Z" />
<glyph unicode="&#xb7;" glyph-name="middot" horiz-adv-x="419" d="M19 711Q19 789 75 845T209 901Q288 901 344 845T400 711Q400 633 344 578T209 522Q131 522 75 577T19 711Z" />
<glyph unicode="&#xb8;" glyph-name="cedilla" horiz-adv-x="477" d="M336 0Q398 -64 427 -118T457 -225Q457 -311 393 -356T207 -401Q159 -401 108 -395T5 -375L4 -219Q49 -236 91 -245T170 -254Q230 -254 261 -231T293 -162Q293 -134 277 -101T209 0H336Z" />
<glyph unicode="&#xb9;" glyph-name="onesuperior" horiz-adv-x="639" d="M36 684V778H200V1391L17 1290V1395L239 1520H466V778H630V684H36Z" />
<glyph unicode="&#xba;" glyph-name="ordmasculine" horiz-adv-x="940" d="M71 639H869V504H71V639ZM470 823Q546 823 579 894T613 1128Q613 1292 580 1363T470 1434Q393 1434 360 1364T327 1128Q327 963 360 893T470 823ZM470 737Q258 737 139 841T19 1128Q19
1311 138 1415T470 1520Q682 1520 801 1416T921 1128Q921 945 802 841T470 737Z" />
<glyph unicode="&#xbb;" glyph-name="guillemotright" horiz-adv-x="973" d="M39 1069L508 684V516L39 131V279L278 600L39 922V1069ZM499 1069L968 684V516L499 131V279L739 600L499 922V1069Z" />
<glyph unicode="&#xbc;" glyph-name="onequarter" horiz-adv-x="2136" d="M1997 17H1479V111H1604V232H1241V320L1620 853H1872V326H2019V232H1872V111H1997V17ZM1604 326V660L1364 326H1604ZM36 684V778H200V1391L17 1290V1395L239 1520H466V778H630V684H36ZM1831
1520H2001L1067 -29H897L1831 1520Z" />
<glyph unicode="&#xbd;" glyph-name="onehalf" horiz-adv-x="2136" d="M36 684V778H200V1391L17 1290V1395L239 1520H466V778H630V684H36ZM1831 1520H2001L1067 -29H897L1831 1520ZM1376 617H1282V812Q1354 832 1429 842T1585 853Q1766 853 1866 789T1966 611Q1966
529 1912 465T1700 310L1456 171H1870V267H1970V17H1274V150L1403 234Q1590 357 1640 427T1690 590Q1690 674 1649 721T1534 769Q1471 769 1428 728T1376 617Z" />
<glyph unicode="&#xbe;" glyph-name="threequarters" horiz-adv-x="2136" d="M1997 17H1479V111H1604V232H1241V320L1620 853H1872V326H2019V232H1872V111H1997V17ZM1604 326V660L1364 326H1604ZM52 1481Q140 1500 214 1510T353 1520Q533 1520 626 1468T719 1315Q719
1243 667 1196T512 1133Q632 1117 694 1062T756 913Q756 791 654 730T351 668Q271 668 191 678T31 711V911H127Q134 831 177 792T299 752Q387 752 433 795T480 920Q480 1000 431 1043T291 1087H250V1171H281Q362 1171 405 1205T449 1303Q449 1366 410 1401T299
1436Q233 1436 193 1400T148 1299L52 1298V1481ZM1831 1520H2001L1067 -29H897L1831 1520Z" />
<glyph unicode="&#xbf;" glyph-name="questiondown" horiz-adv-x="992" d="M770 1329Q770 1251 714 1196T580 1141Q501 1141 446 1196T391 1329Q391 1408 446 1464T580 1520Q658 1520 714 1464T770 1329ZM979 39Q855 5 743 -12T526 -29Q274 -29 139 81T4 397Q4
599 134 715T510 850V1055H649V756Q510 713 445 621T379 375Q379 230 440 157T621 84Q730 84 789 150T859 346H979V39Z" />
<glyph unicode="&#xc0;" glyph-name="Agrave" horiz-adv-x="1589" d="M4 0V121H126L688 1493H927L1490 121H1632V0H933V121H1079L956 426H395L270 121H448V0H4ZM444 547H907L677 1118L444 547ZM1563 1899L1745 1635H1581L1284 1899H1563Z" />
<glyph unicode="&#xc1;" glyph-name="Aacute" horiz-adv-x="1589" d="M4 0V121H126L688 1493H927L1490 121H1632V0H933V121H1079L956 426H395L270 121H448V0H4ZM444 547H907L677 1118L444 547ZM1472 1899H1751L1454 1635H1290L1472 1899Z" />
<glyph unicode="&#xc2;" glyph-name="Acircumflex" horiz-adv-x="1589" d="M4 0V121H126L688 1493H927L1490 121H1632V0H933V121H1079L956 426H395L270 121H448V0H4ZM444 547H907L677 1118L444 547ZM1519 1899H1827L2050 1635H1886L1673 1796L1460 1635H1296L1519 1899Z" />
<glyph unicode="&#xc3;" glyph-name="Atilde" horiz-adv-x="1589" d="M4 0V121H126L688 1493H927L1490 121H1632V0H933V121H1079L956 426H395L270 121H448V0H4ZM444 547H907L677 1118L444 547ZM1312 1635V1647Q1312 1770 1366 1836T1520 1903Q1581 1903 1661 1864Q1670
1860 1674 1858L1746 1825Q1774 1812 1792 1808T1828 1803Q1869 1803 1893 1828T1918 1897V1901H2028V1886Q2028 1764 1975 1699T1820 1633Q1786 1633 1753 1642T1666 1678L1609 1706Q1582 1719 1557 1726T1512 1733Q1471 1733 1447 1708T1422 1639V1635H1312Z"
/>
<glyph unicode="&#xc4;" glyph-name="Adieresis" horiz-adv-x="1589" d="M4 0V121H126L688 1493H927L1490 121H1632V0H933V121H1079L956 426H395L270 121H448V0H4ZM444 547H907L677 1118L444 547ZM1314 1776Q1314 1836 1358 1879T1462 1923Q1521 1923 1564 1880T1607
1776Q1607 1716 1565 1673T1462 1630Q1402 1630 1358 1673T1314 1776ZM1761 1776Q1761 1836 1804 1879T1908 1923Q1968 1923 2012 1880T2056 1776Q2056 1716 2012 1673T1908 1630Q1848 1630 1805 1673T1761 1776Z" />
<glyph unicode="&#xc5;" glyph-name="Aring" horiz-adv-x="1636" d="M677 1616Q677 1562 716 1524T808 1485Q863 1485 901 1523T940 1616Q940 1670 901 1708T808 1747Q755 1747 716 1709T677 1616ZM4 0V121H126L645 1384Q587 1421 556 1481T524 1616Q524 1733
607 1817T808 1901Q926 1901 1009 1817T1093 1616Q1093 1542 1063 1483T972 1384L1490 121H1632V0H933V121H1079L956 426H395L270 121H448V0H4ZM444 547H907L679 1118L444 547Z" />
<glyph unicode="&#xc6;" glyph-name="AE" horiz-adv-x="2121" d="M473 545H938V1372H863L473 545ZM748 0V121H938V424H416L273 121H437V0H9V121H123L715 1372H514V1493H2065V1141H1927V1356H1325V877H1692V1067H1827V551H1692V741H1325V137H1948V352H2083V0H748Z" />
<glyph unicode="&#xc7;" glyph-name="Ccedilla" horiz-adv-x="1630" d="M1460 426Q1401 195 1248 83T837 -29Q459 -29 240 179T20 745Q20 1103 239 1311T837 1520Q970 1520 1114 1488T1419 1391V1024H1292Q1253 1212 1150 1305T878 1399Q660 1399 554 1239T448
745Q448 412 554 252T880 92Q1029 92 1123 175T1261 426H1460ZM703 0Q765 -64 794 -118T824 -225Q824 -311 760 -356T574 -401Q526 -401 475 -395T372 -375L371 -219Q416 -236 458 -245T537 -254Q597 -254 628 -231T660 -162Q660 -134 644 -101T576 0H703Z" />
<glyph unicode="&#xc8;" glyph-name="Egrave" horiz-adv-x="1561" d="M26 0V121H217V1372H26V1493H1368V1141H1230V1356H602V877H993V1067H1130V551H993V741H602V137H1249V352H1386V0H26ZM1606 1899L1788 1635H1624L1327 1899H1606Z" />
<glyph unicode="&#xc9;" glyph-name="Eacute" horiz-adv-x="1561" d="M26 0V121H217V1372H26V1493H1368V1141H1230V1356H602V877H993V1067H1130V551H993V741H602V137H1249V352H1386V0H26ZM1515 1899H1794L1497 1635H1333L1515 1899Z" />
<glyph unicode="&#xca;" glyph-name="Ecircumflex" horiz-adv-x="1561" d="M26 0V121H217V1372H26V1493H1368V1141H1230V1356H602V877H993V1067H1130V551H993V741H602V137H1249V352H1386V0H26ZM1562 1899H1870L2093 1635H1929L1716 1796L1503 1635H1339L1562 1899Z" />
<glyph unicode="&#xcb;" glyph-name="Edieresis" horiz-adv-x="1561" d="M26 0V121H217V1372H26V1493H1368V1141H1230V1356H602V877H993V1067H1130V551H993V741H602V137H1249V352H1386V0H26ZM1357 1776Q1357 1836 1401 1879T1505 1923Q1564 1923 1607 1880T1650
1776Q1650 1716 1608 1673T1505 1630Q1445 1630 1401 1673T1357 1776ZM1804 1776Q1804 1836 1847 1879T1951 1923Q2011 1923 2055 1880T2099 1776Q2099 1716 2055 1673T1951 1630Q1891 1630 1848 1673T1804 1776Z" />
<glyph unicode="&#xcc;" glyph-name="Igrave" horiz-adv-x="958" d="M17 0V121H208V1372H17V1493H785V1372H593V121H785V0H17ZM1270 1899L1452 1635H1288L991 1899H1270Z" />
<glyph unicode="&#xcd;" glyph-name="Iacute" horiz-adv-x="958" d="M17 0V121H208V1372H17V1493H785V1372H593V121H785V0H17ZM1179 1899H1458L1161 1635H997L1179 1899Z" />
<glyph unicode="&#xce;" glyph-name="Icircumflex" horiz-adv-x="958" d="M17 0V121H208V1372H17V1493H785V1372H593V121H785V0H17ZM1226 1899H1534L1757 1635H1593L1380 1796L1167 1635H1003L1226 1899Z" />
<glyph unicode="&#xcf;" glyph-name="Idieresis" horiz-adv-x="958" d="M17 0V121H208V1372H17V1493H785V1372H593V121H785V0H17ZM1021 1776Q1021 1836 1065 1879T1169 1923Q1228 1923 1271 1880T1314 1776Q1314 1716 1272 1673T1169 1630Q1109 1630 1065 1673T1021
1776ZM1468 1776Q1468 1836 1511 1879T1615 1923Q1675 1923 1719 1880T1763 1776Q1763 1716 1719 1673T1615 1630Q1555 1630 1512 1673T1468 1776Z" />
<glyph unicode="&#xd0;" glyph-name="Eth" horiz-adv-x="1662" d="M624 121H763Q997 121 1104 270T1212 748Q1212 1074 1105 1223T763 1372H624V850H956V713H624V121ZM47 0V121H239V713H26V850H239V1372H47V1493H815Q1215 1493 1427 1302T1640 748Q1640 385 1428
193T815 0H47Z" />
<glyph unicode="&#xd1;" glyph-name="Ntilde" horiz-adv-x="1872" d="M28 0V121H219V1372H28V1493H495L1396 436V1372H1206V1493H1728V1372H1537V0H1275L360 1079V121H550V0H28ZM1476 1635V1647Q1476 1770 1530 1836T1684 1903Q1745 1903 1825 1864Q1834 1860
1838 1858L1910 1825Q1938 1812 1956 1808T1992 1803Q2033 1803 2057 1828T2082 1897V1901H2192V1886Q2192 1764 2139 1699T1984 1633Q1950 1633 1917 1642T1830 1678L1773 1706Q1746 1719 1721 1726T1676 1733Q1635 1733 1611 1708T1586 1639V1635H1476Z" />
<glyph unicode="&#xd2;" glyph-name="Ograve" horiz-adv-x="1784" d="M827 92Q1018 92 1111 253T1204 745Q1204 1077 1111 1238T827 1399Q637 1399 544 1237T450 745Q450 417 543 255T827 92ZM827 -29Q450 -29 236 177T22 745Q22 1107 236 1313T827 1520Q1204
1520 1418 1314T1632 745Q1632 383 1418 177T827 -29ZM1684 1899L1866 1635H1702L1405 1899H1684Z" />
<glyph unicode="&#xd3;" glyph-name="Oacute" horiz-adv-x="1784" d="M827 92Q1018 92 1111 253T1204 745Q1204 1077 1111 1238T827 1399Q637 1399 544 1237T450 745Q450 417 543 255T827 92ZM827 -29Q450 -29 236 177T22 745Q22 1107 236 1313T827 1520Q1204
1520 1418 1314T1632 745Q1632 383 1418 177T827 -29ZM1593 1899H1872L1575 1635H1411L1593 1899Z" />
<glyph unicode="&#xd4;" glyph-name="Ocircumflex" horiz-adv-x="1784" d="M827 92Q1018 92 1111 253T1204 745Q1204 1077 1111 1238T827 1399Q637 1399 544 1237T450 745Q450 417 543 255T827 92ZM827 -29Q450 -29 236 177T22 745Q22 1107 236 1313T827 1520Q1204
1520 1418 1314T1632 745Q1632 383 1418 177T827 -29ZM1640 1899H1948L2171 1635H2007L1794 1796L1581 1635H1417L1640 1899Z" />
<glyph unicode="&#xd5;" glyph-name="Otilde" horiz-adv-x="1784" d="M827 92Q1018 92 1111 253T1204 745Q1204 1077 1111 1238T827 1399Q637 1399 544 1237T450 745Q450 417 543 255T827 92ZM827 -29Q450 -29 236 177T22 745Q22 1107 236 1313T827 1520Q1204
1520 1418 1314T1632 745Q1632 383 1418 177T827 -29ZM1433 1635V1647Q1433 1770 1487 1836T1641 1903Q1702 1903 1782 1864Q1791 1860 1795 1858L1867 1825Q1895 1812 1913 1808T1949 1803Q1990 1803 2014 1828T2039 1897V1901H2149V1886Q2149 1764 2096 1699T1941
1633Q1907 1633 1874 1642T1787 1678L1730 1706Q1703 1719 1678 1726T1633 1733Q1592 1733 1568 1708T1543 1639V1635H1433Z" />
<glyph unicode="&#xd6;" glyph-name="Odieresis" horiz-adv-x="1784" d="M827 92Q1018 92 1111 253T1204 745Q1204 1077 1111 1238T827 1399Q637 1399 544 1237T450 745Q450 417 543 255T827 92ZM827 -29Q450 -29 236 177T22 745Q22 1107 236 1313T827 1520Q1204
1520 1418 1314T1632 745Q1632 383 1418 177T827 -29ZM1435 1776Q1435 1836 1479 1879T1583 1923Q1642 1923 1685 1880T1728 1776Q1728 1716 1686 1673T1583 1630Q1523 1630 1479 1673T1435 1776ZM1882 1776Q1882 1836 1925 1879T2029 1923Q2089 1923 2133 1880T2177
1776Q2177 1716 2133 1673T2029 1630Q1969 1630 1926 1673T1882 1776Z" />
<glyph unicode="&#xd7;" glyph-name="multiply" horiz-adv-x="1244" d="M1216 1081L776 641L1216 201L1062 47L622 487L182 47L28 201L469 641L28 1081L182 1237L622 797L1062 1237L1216 1081Z" />
<glyph unicode="&#xd8;" glyph-name="Oslash" horiz-adv-x="1688" d="M488 479L1165 1157Q1123 1276 1042 1337T844 1399Q654 1399 561 1237T467 745Q467 669 472 603T488 479ZM524 334Q569 212 648 152T844 92Q1039 92 1131 259T1223 784Q1223 849 1217 899T1198
993L524 334ZM1469 1280Q1559 1176 1604 1043T1649 745Q1649 383 1435 177T844 -29Q686 -29 554 10T315 127L111 -78L21 12L221 213Q130 315 85 448T39 745Q39 1107 253 1313T844 1520Q1004 1520 1137 1482T1374 1366L1577 1569L1667 1479L1469 1280Z" />
<glyph unicode="&#xd9;" glyph-name="Ugrave" horiz-adv-x="1786" d="M204 1372H14V1493H782V1372H591V625Q591 346 678 235T976 123Q1182 123 1268 235T1355 625V1372H1165V1493H1685V1372H1494V604Q1494 262 1346 117T849 -29Q502 -29 353 118T204 606V1372ZM1735
1899L1917 1635H1753L1456 1899H1735Z" />
<glyph unicode="&#xda;" glyph-name="Uacute" horiz-adv-x="1786" d="M204 1372H14V1493H782V1372H591V625Q591 346 678 235T976 123Q1182 123 1268 235T1355 625V1372H1165V1493H1685V1372H1494V604Q1494 262 1346 117T849 -29Q502 -29 353 118T204 606V1372ZM1644
1899H1923L1626 1635H1462L1644 1899Z" />
<glyph unicode="&#xdb;" glyph-name="Ucircumflex" horiz-adv-x="1786" d="M204 1372H14V1493H782V1372H591V625Q591 346 678 235T976 123Q1182 123 1268 235T1355 625V1372H1165V1493H1685V1372H1494V604Q1494 262 1346 117T849 -29Q502 -29 353 118T204 606V1372ZM1691
1899H1999L2222 1635H2058L1845 1796L1632 1635H1468L1691 1899Z" />
<glyph unicode="&#xdc;" glyph-name="Udieresis" horiz-adv-x="1786" d="M204 1372H14V1493H782V1372H591V625Q591 346 678 235T976 123Q1182 123 1268 235T1355 625V1372H1165V1493H1685V1372H1494V604Q1494 262 1346 117T849 -29Q502 -29 353 118T204 606V1372ZM1486
1776Q1486 1836 1530 1879T1634 1923Q1693 1923 1736 1880T1779 1776Q1779 1716 1737 1673T1634 1630Q1574 1630 1530 1673T1486 1776ZM1933 1776Q1933 1836 1976 1879T2080 1923Q2140 1923 2184 1880T2228 1776Q2228 1716 2184 1673T2080 1630Q2020 1630 1977
1673T1933 1776Z" />
<glyph unicode="&#xdd;" glyph-name="Yacute" horiz-adv-x="1462" d="M377 0V121H578V618L134 1372H7V1493H723V1372H557L893 803L1227 1372H1078V1493H1506V1372H1379L965 670V121H1166V0H377ZM1431 1899H1710L1413 1635H1249L1431 1899Z" />
<glyph unicode="&#xde;" glyph-name="Thorn" horiz-adv-x="1420" d="M25 0V121H216V1372H25V1493H840V1372H601V1202H875Q1124 1202 1271 1084T1418 766Q1418 567 1271 448T875 328H601V121H842V0H25ZM601 449H713Q843 449 920 535T998 766Q998 910 921 995T713
1081H601V449Z" />
<glyph unicode="&#xdf;" glyph-name="germandbls" horiz-adv-x="1447" d="M943 1221Q936 1345 888 1394T728 1444Q619 1444 570 1385T521 1190V0H16V121H167V1147Q167 1348 307 1452T716 1556Q979 1556 1113 1451T1275 1116H1253Q1098 1116 1019 1071T939 936Q939
896 962 863T1068 768L1156 705Q1333 577 1382 498T1431 311Q1431 151 1307 61T958 -29Q878 -29 791 -14T603 31V289H724Q737 182 786 133T929 84Q1005 84 1052 128T1099 244Q1099 349 935 466Q914 481 903 489L814 553Q712 627 667 705T622 889Q622 1023 702 1105T943
1221Z" />
<glyph unicode="&#xe0;" glyph-name="agrave" horiz-adv-x="1327" d="M1070 653V121H1222V0H716V135Q646 51 560 11T364 -29Q201 -29 114 58T26 309Q26 488 151 577T530 666H716V729Q716 858 655 919T466 981Q360 981 303 938T221 795H108V1024Q203 1058 305 1075T520
1092Q805 1092 937 986T1070 653ZM716 334V547H583Q484 547 431 493T378 338Q378 237 416 187T534 137Q616 137 666 191T716 334ZM367 1638L625 1262H461L88 1638H367Z" />
<glyph unicode="&#xe1;" glyph-name="aacute" horiz-adv-x="1327" d="M1070 653V121H1222V0H716V135Q646 51 560 11T364 -29Q201 -29 114 58T26 309Q26 488 151 577T530 666H716V729Q716 858 655 919T466 981Q360 981 303 938T221 795H108V1024Q203 1058 305 1075T520
1092Q805 1092 937 986T1070 653ZM716 334V547H583Q484 547 431 493T378 338Q378 237 416 187T534 137Q616 137 666 191T716 334ZM349 1638H628L255 1262H91L349 1638Z" />
<glyph unicode="&#xe2;" glyph-name="acircumflex" horiz-adv-x="1327" d="M1070 653V121H1222V0H716V135Q646 51 560 11T364 -29Q201 -29 114 58T26 309Q26 488 151 577T530 666H716V729Q716 858 655 919T466 981Q360 981 303 938T221 795H108V1024Q203 1058
305 1075T520 1092Q805 1092 937 986T1070 653ZM716 334V547H583Q484 547 431 493T378 338Q378 237 416 187T534 137Q616 137 666 191T716 334ZM353 1638H595L851 1262H687L474 1487L261 1262H97L353 1638Z" />
<glyph unicode="&#xe3;" glyph-name="atilde" horiz-adv-x="1327" d="M1070 653V121H1222V0H716V135Q646 51 560 11T364 -29Q201 -29 114 58T26 309Q26 488 151 577T530 666H716V729Q716 858 655 919T466 981Q360 981 303 938T221 795H108V1024Q203 1058 305 1075T520
1092Q805 1092 937 986T1070 653ZM716 334V547H583Q484 547 431 493T378 338Q378 237 416 187T534 137Q616 137 666 191T716 334ZM117 1309V1325Q117 1471 170 1546T325 1622Q362 1622 397 1610T479 1567L550 1520L553 1518Q597 1489 633 1489Q674 1489 698 1524T723
1620H833V1604Q833 1458 780 1383T625 1307Q588 1307 553 1319T471 1362L399 1409L398 1410Q353 1440 317 1440Q276 1440 252 1405T227 1309H117Z" />
<glyph unicode="&#xe4;" glyph-name="adieresis" horiz-adv-x="1327" d="M1070 653V121H1222V0H716V135Q646 51 560 11T364 -29Q201 -29 114 58T26 309Q26 488 151 577T530 666H716V729Q716 858 655 919T466 981Q360 981 303 938T221 795H108V1024Q203 1058 305
1075T520 1092Q805 1092 937 986T1070 653ZM716 334V547H583Q484 547 431 493T378 338Q378 237 416 187T534 137Q616 137 666 191T716 334ZM118 1468Q118 1528 162 1571T266 1614Q326 1614 368 1571T411 1468Q411 1408 368 1365T266 1321Q206 1321 162 1365T118
1468ZM565 1468Q565 1528 608 1571T712 1614Q772 1614 816 1571T860 1468Q860 1409 816 1365T712 1321Q652 1321 609 1365T565 1468Z" />
<glyph unicode="&#xe5;" glyph-name="aring" horiz-adv-x="1327" d="M1070 653V121H1222V0H716V135Q646 51 560 11T364 -29Q201 -29 114 58T26 309Q26 488 151 577T530 666H716V729Q716 858 655 919T466 981Q360 981 303 938T221 795H108V1024Q203 1058 305 1075T520
1092Q805 1092 937 986T1070 653ZM716 334V547H583Q484 547 431 493T378 338Q378 237 416 187T534 137Q616 137 666 191T716 334ZM106 1534Q106 1652 189 1735T391 1819Q509 1819 592 1736T676 1534Q676 1416 593 1333T391 1249Q273 1249 190 1332T106 1534ZM260
1534Q260 1479 298 1441T391 1403Q446 1403 484 1441T522 1534Q522 1588 484 1626T391 1665Q336 1665 298 1627T260 1534Z" />
<glyph unicode="&#xe6;" glyph-name="ae" horiz-adv-x="1871" d="M1458 600Q1458 810 1419 894T1286 979Q1195 979 1156 896T1116 618V600H1458ZM920 936Q997 1014 1089 1053T1293 1092Q1556 1092 1697 937T1847 481H1116V473Q1116 267 1178 176T1379 84Q1493
84 1563 144T1653 322H1821Q1778 141 1651 56T1293 -29Q1159 -29 1055 9T873 127Q784 49 679 10T449 -29Q243 -29 136 57T29 309Q29 489 156 577T543 666H729V729Q729 845 659 912T465 979Q362 979 305 936T224 795H111V1024Q206 1058 308 1075T523 1092Q660 1092
758 1054T920 936ZM729 330V547H596Q487 547 434 492T381 324Q381 211 420 163T549 115Q635 115 682 171T729 330Z" />
<glyph unicode="&#xe7;" glyph-name="ccedilla" horiz-adv-x="1247" d="M1091 332Q1053 150 936 61T616 -29Q332 -29 176 118T20 532Q20 796 174 944T602 1092Q713 1092 826 1071T1056 1008V713H944Q928 848 865 913T688 979Q540 979 478 879T415 532Q415 291
476 188T675 84Q782 84 846 148T925 332H1091ZM475 0Q537 -64 566 -118T596 -225Q596 -311 532 -356T346 -401Q298 -401 247 -395T144 -375L143 -219Q188 -236 230 -245T309 -254Q369 -254 400 -231T432 -162Q432 -134 416 -101T348 0H475Z" />
<glyph unicode="&#xe8;" glyph-name="egrave" horiz-adv-x="1303" d="M759 600Q759 810 720 894T587 979Q496 979 457 896T417 618V600H759ZM1148 481H417V473Q417 267 479 176T679 84Q794 84 865 145T956 322H1122Q1079 141 951 56T593 -29Q317 -29 170 116T22
532Q22 796 173 944T593 1092Q857 1092 998 937T1148 481ZM418 1638L676 1262H512L139 1638H418Z" />
<glyph unicode="&#xe9;" glyph-name="eacute" horiz-adv-x="1303" d="M759 600Q759 810 720 894T587 979Q496 979 457 896T417 618V600H759ZM1148 481H417V473Q417 267 479 176T679 84Q794 84 865 145T956 322H1122Q1079 141 951 56T593 -29Q317 -29 170 116T22
532Q22 796 173 944T593 1092Q857 1092 998 937T1148 481ZM400 1638H679L306 1262H142L400 1638Z" />
<glyph unicode="&#xea;" glyph-name="ecircumflex" horiz-adv-x="1303" d="M759 600Q759 810 720 894T587 979Q496 979 457 896T417 618V600H759ZM1148 481H417V473Q417 267 479 176T679 84Q794 84 865 145T956 322H1122Q1079 141 951 56T593 -29Q317 -29 170
116T22 532Q22 796 173 944T593 1092Q857 1092 998 937T1148 481ZM404 1638H646L902 1262H738L525 1487L312 1262H148L404 1638Z" />
<glyph unicode="&#xeb;" glyph-name="edieresis" horiz-adv-x="1303" d="M759 600Q759 810 720 894T587 979Q496 979 457 896T417 618V600H759ZM1148 481H417V473Q417 267 479 176T679 84Q794 84 865 145T956 322H1122Q1079 141 951 56T593 -29Q317 -29 170 116T22
532Q22 796 173 944T593 1092Q857 1092 998 937T1148 481ZM169 1468Q169 1528 213 1571T317 1614Q377 1614 419 1571T462 1468Q462 1408 419 1365T317 1321Q257 1321 213 1365T169 1468ZM616 1468Q616 1528 659 1571T763 1614Q823 1614 867 1571T911 1468Q911 1409
867 1365T763 1321Q703 1321 660 1365T616 1468Z" />
<glyph unicode="&#xec;" glyph-name="igrave" horiz-adv-x="778" d="M531 121H683V0H26V121H177V942H26V1063H531V121ZM413 1638L671 1262H507L134 1638H413Z" />
<glyph unicode="&#xed;" glyph-name="iacute" horiz-adv-x="778" d="M531 121H683V0H26V121H177V942H26V1063H531V121ZM395 1638H674L301 1262H137L395 1638Z" />
<glyph unicode="&#xee;" glyph-name="icircumflex" horiz-adv-x="778" d="M531 121H683V0H26V121H177V942H26V1063H531V121ZM399 1638H641L897 1262H733L520 1487L307 1262H143L399 1638Z" />
<glyph unicode="&#xef;" glyph-name="idieresis" horiz-adv-x="778" d="M531 121H683V0H26V121H177V942H26V1063H531V121ZM164 1468Q164 1528 208 1571T312 1614Q372 1614 414 1571T457 1468Q457 1408 414 1365T312 1321Q252 1321 208 1365T164 1468ZM611 1468Q611
1528 654 1571T758 1614Q818 1614 862 1571T906 1468Q906 1409 862 1365T758 1321Q698 1321 655 1365T611 1468Z" />
<glyph unicode="&#xf0;" glyph-name="eth" horiz-adv-x="1232" d="M824 1337Q1012 1188 1112 987T1213 557Q1213 282 1054 127T613 -29Q338 -29 176 117T13 508Q13 738 172 889T576 1040Q618 1040 661 1034T748 1016Q727 1079 695 1134T615 1241L296 1092L246
1192L525 1323Q473 1361 397 1392T220 1446L248 1556Q388 1539 505 1503T713 1411L1043 1565L1090 1462L824 1337ZM767 891Q720 910 683 919T613 928Q502 928 455 833T408 508Q408 274 455 179T613 84Q724 84 770 178T816 508Q816 615 804 710T767 891Z" />
<glyph unicode="&#xf1;" glyph-name="ntilde" horiz-adv-x="1489" d="M27 0V121H178V942H27V1063H532V913Q596 1008 678 1050T885 1092Q1064 1092 1155 987T1247 676V121H1399V0H764V121H893V686Q893 821 859 873T739 926Q632 926 582 848T532 598V121H662V0H27ZM244
1309V1325Q244 1471 297 1546T452 1622Q489 1622 524 1610T606 1567L677 1520L680 1518Q724 1489 760 1489Q801 1489 825 1524T850 1620H960V1604Q960 1458 907 1383T752 1307Q715 1307 680 1319T598 1362L526 1409L525 1410Q480 1440 444 1440Q403 1440 379 1405T354
1309H244Z" />
<glyph unicode="&#xf2;" glyph-name="ograve" horiz-adv-x="1366" d="M621 84Q733 84 778 180T824 532Q824 788 779 883T621 979Q508 979 462 883T416 532Q416 278 462 181T621 84ZM621 -29Q340 -29 181 120T21 532Q21 795 180 943T621 1092Q903 1092 1062 944T1221
532Q1221 270 1062 121T621 -29ZM451 1638L709 1262H545L172 1638H451Z" />
<glyph unicode="&#xf3;" glyph-name="oacute" horiz-adv-x="1366" d="M621 84Q733 84 778 180T824 532Q824 788 779 883T621 979Q508 979 462 883T416 532Q416 278 462 181T621 84ZM621 -29Q340 -29 181 120T21 532Q21 795 180 943T621 1092Q903 1092 1062 944T1221
532Q1221 270 1062 121T621 -29ZM433 1638H712L339 1262H175L433 1638Z" />
<glyph unicode="&#xf4;" glyph-name="ocircumflex" horiz-adv-x="1366" d="M621 84Q733 84 778 180T824 532Q824 788 779 883T621 979Q508 979 462 883T416 532Q416 278 462 181T621 84ZM621 -29Q340 -29 181 120T21 532Q21 795 180 943T621 1092Q903 1092 1062
944T1221 532Q1221 270 1062 121T621 -29ZM437 1638H679L935 1262H771L558 1487L345 1262H181L437 1638Z" />
<glyph unicode="&#xf5;" glyph-name="otilde" horiz-adv-x="1366" d="M621 84Q733 84 778 180T824 532Q824 788 779 883T621 979Q508 979 462 883T416 532Q416 278 462 181T621 84ZM621 -29Q340 -29 181 120T21 532Q21 795 180 943T621 1092Q903 1092 1062 944T1221
532Q1221 270 1062 121T621 -29ZM201 1309V1325Q201 1471 254 1546T409 1622Q446 1622 481 1610T563 1567L634 1520L637 1518Q681 1489 717 1489Q758 1489 782 1524T807 1620H917V1604Q917 1458 864 1383T709 1307Q672 1307 637 1319T555 1362L483 1409L482 1410Q437
1440 401 1440Q360 1440 336 1405T311 1309H201Z" />
<glyph unicode="&#xf6;" glyph-name="odieresis" horiz-adv-x="1366" d="M621 84Q733 84 778 180T824 532Q824 788 779 883T621 979Q508 979 462 883T416 532Q416 278 462 181T621 84ZM621 -29Q340 -29 181 120T21 532Q21 795 180 943T621 1092Q903 1092 1062
944T1221 532Q1221 270 1062 121T621 -29ZM202 1468Q202 1528 246 1571T350 1614Q410 1614 452 1571T495 1468Q495 1408 452 1365T350 1321Q290 1321 246 1365T202 1468ZM649 1468Q649 1528 692 1571T796 1614Q856 1614 900 1571T944 1468Q944 1409 900 1365T796
1321Q736 1321 693 1365T649 1468Z" />
<glyph unicode="&#xf7;" glyph-name="divide" horiz-adv-x="1282" d="M492 1012Q492 1073 536 1117T641 1161Q703 1161 747 1117T791 1012Q791 950 747 906T641 862Q580 862 536 906T492 1012ZM492 272Q492 334 536 378T641 422Q703 422 747 378T791 272Q791 211
747 167T641 123Q580 123 536 167T492 272ZM0 756H1282V528H0V756Z" />
<glyph unicode="&#xf8;" glyph-name="oslash" horiz-adv-x="1298" d="M447 416L834 801Q817 891 772 935T650 979Q540 979 494 884T447 553V416ZM466 262Q481 173 527 129T650 84Q759 84 805 178T851 508V649L466 262ZM1117 913Q1183 841 1216 746T1250 532Q1250
270 1091 121T650 -29Q539 -29 446 -5T273 70L101 -102L17 -16L181 147Q116 222 83 318T50 532Q50 795 209 943T650 1092Q766 1092 860 1067T1027 993L1195 1161L1281 1075L1117 913Z" />
<glyph unicode="&#xf9;" glyph-name="ugrave" horiz-adv-x="1489" d="M1238 1063V121H1389V0H883V150Q820 55 738 13T531 -29Q352 -29 261 76T169 387V942H17V1063H523V442Q523 244 556 191T677 137Q784 137 833 216T883 467V942H754V1063H1238ZM474 1638L732
1262H568L195 1638H474Z" />
<glyph unicode="&#xfa;" glyph-name="uacute" horiz-adv-x="1489" d="M1238 1063V121H1389V0H883V150Q820 55 738 13T531 -29Q352 -29 261 76T169 387V942H17V1063H523V442Q523 244 556 191T677 137Q784 137 833 216T883 467V942H754V1063H1238ZM456 1638H735L362
1262H198L456 1638Z" />
<glyph unicode="&#xfb;" glyph-name="ucircumflex" horiz-adv-x="1489" d="M1238 1063V121H1389V0H883V150Q820 55 738 13T531 -29Q352 -29 261 76T169 387V942H17V1063H523V442Q523 244 556 191T677 137Q784 137 833 216T883 467V942H754V1063H1238ZM460 1638H702L958
1262H794L581 1487L368 1262H204L460 1638Z" />
<glyph unicode="&#xfc;" glyph-name="udieresis" horiz-adv-x="1489" d="M1238 1063V121H1389V0H883V150Q820 55 738 13T531 -29Q352 -29 261 76T169 387V942H17V1063H523V442Q523 244 556 191T677 137Q784 137 833 216T883 467V942H754V1063H1238ZM225 1468Q225
1528 269 1571T373 1614Q433 1614 475 1571T518 1468Q518 1408 475 1365T373 1321Q313 1321 269 1365T225 1468ZM672 1468Q672 1528 715 1571T819 1614Q879 1614 923 1571T967 1468Q967 1409 923 1365T819 1321Q759 1321 716 1365T672 1468Z" />
<glyph unicode="&#xfd;" glyph-name="yacute" horiz-adv-x="1190" d="M687 -240Q639 -357 571 -406T388 -455Q339 -455 279 -444T148 -412V-190L261 -191Q264 -268 297 -305T398 -342Q463 -342 503 -307T583 -172L599 -135L136 942H21V1063H634V942H507L777 313L1029
942H888V1063H1287V942H1158L687 -240ZM345 1638H624L251 1262H87L345 1638Z" />
<glyph unicode="&#xfe;" glyph-name="thorn" horiz-adv-x="1327" d="M530 584V479Q530 293 577 210T731 127Q840 127 884 215T929 532Q929 761 885 848T731 936Q625 936 578 853T530 584ZM176 1436H24V1556H530V928Q575 1011 651 1051T839 1092Q1066 1092 1196
943T1327 532Q1327 271 1197 121T839 -29Q727 -29 651 11T530 135V-305H694V-426H24V-305H176V1436Z" />
<glyph unicode="&#xff;" glyph-name="ydieresis" horiz-adv-x="1190" d="M687 -240Q639 -357 571 -406T388 -455Q339 -455 279 -444T148 -412V-190L261 -191Q264 -268 297 -305T398 -342Q463 -342 503 -307T583 -172L599 -135L136 942H21V1063H634V942H507L777
313L1029 942H888V1063H1287V942H1158L687 -240ZM114 1468Q114 1528 158 1571T262 1614Q322 1614 364 1571T407 1468Q407 1408 364 1365T262 1321Q202 1321 158 1365T114 1468ZM561 1468Q561 1528 604 1571T708 1614Q768 1614 812 1571T856 1468Q856 1409 812 1365T708
1321Q648 1321 605 1365T561 1468Z" />
<glyph unicode="&#x100;" glyph-name="Amacron" horiz-adv-x="1589" d="M315 1872H945V1684H315V1872ZM4 0V121H126L688 1493H927L1490 121H1632V0H933V121H1079L956 426H395L270 121H448V0H4ZM444 547H907L677 1118L444 547Z" />
<glyph unicode="&#x101;" glyph-name="amacron" horiz-adv-x="1327" d="M105 1562H735V1374H105V1562ZM1070 653V121H1222V0H716V135Q646 51 560 11T364 -29Q201 -29 114 58T26 309Q26 488 151 577T530 666H716V729Q716 858 655 919T466 981Q360 981 303 938T221
795H108V1024Q203 1058 305 1075T520 1092Q805 1092 937 986T1070 653ZM716 334V547H583Q484 547 431 493T378 338Q378 237 416 187T534 137Q616 137 666 191T716 334Z" />
<glyph unicode="&#x102;" glyph-name="Abreve" horiz-adv-x="1589" d="M293 1917H418Q424 1844 480 1805T635 1766Q734 1766 790 1805T852 1917H977Q977 1771 887 1689T635 1606Q472 1606 384 1687T293 1917ZM4 0V121H126L688 1493H927L1490 121H1632V0H933V121H1079L956
426H395L270 121H448V0H4ZM444 547H907L677 1118L444 547Z" />
<glyph unicode="&#x103;" glyph-name="abreve" horiz-adv-x="1327" d="M140 1589H265Q271 1516 327 1477T482 1438Q581 1438 637 1477T699 1589H824Q824 1443 734 1361T482 1278Q319 1278 231 1359T140 1589ZM1070 653V121H1222V0H716V135Q646 51 560 11T364 -29Q201
-29 114 58T26 309Q26 488 151 577T530 666H716V729Q716 858 655 919T466 981Q360 981 303 938T221 795H108V1024Q203 1058 305 1075T520 1092Q805 1092 937 986T1070 653ZM716 334V547H583Q484 547 431 493T378 338Q378 237 416 187T534 137Q616 137 666 191T716
334Z" />
<glyph unicode="&#x104;" glyph-name="Aogonek" horiz-adv-x="1589" d="M621 0H746Q697 -65 678 -102T658 -168Q658 -209 686 -231T767 -254Q806 -254 846 -246T925 -223L924 -379Q870 -390 822 -395T732 -401Q619 -401 557 -355T494 -225Q494 -173 525 -119T621
0ZM4 0V121H126L688 1493H927L1490 121H1632V0H933V121H1079L956 426H395L270 121H448V0H4ZM444 547H907L677 1118L444 547Z" />
<glyph unicode="&#x105;" glyph-name="aogonek" horiz-adv-x="1327" d="M482 0H607Q558 -65 539 -102T519 -168Q519 -209 547 -231T628 -254Q667 -254 707 -246T786 -223L785 -379Q731 -390 683 -395T593 -401Q480 -401 418 -355T355 -225Q355 -173 386 -119T482
0ZM1070 653V121H1222V0H716V135Q646 51 560 11T364 -29Q201 -29 114 58T26 309Q26 488 151 577T530 666H716V729Q716 858 655 919T466 981Q360 981 303 938T221 795H108V1024Q203 1058 305 1075T520 1092Q805 1092 937 986T1070 653ZM716 334V547H583Q484 547
431 493T378 338Q378 237 416 187T534 137Q616 137 666 191T716 334Z" />
<glyph unicode="&#x106;" glyph-name="Cacute" horiz-adv-x="1630" d="M1460 426Q1401 195 1248 83T837 -29Q459 -29 240 179T20 745Q20 1103 239 1311T837 1520Q970 1520 1114 1488T1419 1391V1024H1292Q1253 1212 1150 1305T878 1399Q660 1399 554 1239T448
745Q448 412 554 252T880 92Q1029 92 1123 175T1261 426H1460ZM1589 1899H1868L1571 1635H1407L1589 1899Z" />
<glyph unicode="&#x107;" glyph-name="cacute" horiz-adv-x="1247" d="M1091 332Q1053 150 936 61T616 -29Q332 -29 176 118T20 532Q20 796 174 944T602 1092Q713 1092 826 1071T1056 1008V713H944Q928 848 865 913T688 979Q540 979 478 879T415 532Q415 291 476
188T675 84Q782 84 846 148T925 332H1091ZM413 1638H692L319 1262H155L413 1638Z" />
<glyph unicode="&#x108;" glyph-name="Ccircumflex" horiz-adv-x="1630" d="M1636 1899H1944L2167 1635H2003L1790 1796L1577 1635H1413L1636 1899ZM1460 426Q1401 195 1248 83T837 -29Q459 -29 240 179T20 745Q20 1103 239 1311T837 1520Q970 1520 1114 1488T1419
1391V1024H1292Q1253 1212 1150 1305T878 1399Q660 1399 554 1239T448 745Q448 412 554 252T880 92Q1029 92 1123 175T1261 426H1460Z" />
<glyph unicode="&#x109;" glyph-name="ccircumflex" horiz-adv-x="1247" d="M417 1638H659L915 1262H751L538 1487L325 1262H161L417 1638ZM1091 332Q1053 150 936 61T616 -29Q332 -29 176 118T20 532Q20 796 174 944T602 1092Q713 1092 826 1071T1056 1008V713H944Q928
848 865 913T688 979Q540 979 478 879T415 532Q415 291 476 188T675 84Q782 84 846 148T925 332H1091Z" />
<glyph unicode="&#x10a;" glyph-name="Cdotaccent" horiz-adv-x="1630" d="M1419 1776Q1419 1836 1462 1879T1566 1923Q1626 1923 1669 1880T1713 1776Q1713 1716 1670 1673T1566 1630Q1506 1630 1463 1673T1419 1776ZM1460 426Q1401 195 1248 83T837 -29Q459
-29 240 179T20 745Q20 1103 239 1311T837 1520Q970 1520 1114 1488T1419 1391V1024H1292Q1253 1212 1150 1305T878 1399Q660 1399 554 1239T448 745Q448 412 554 252T880 92Q1029 92 1123 175T1261 426H1460Z" />
<glyph unicode="&#x10b;" glyph-name="cdotaccent" horiz-adv-x="1247" d="M170 1468Q170 1528 213 1571T317 1614T420 1571T464 1468Q464 1409 421 1365T317 1321T214 1365T170 1468ZM1091 332Q1053 150 936 61T616 -29Q332 -29 176 118T20 532Q20 796 174 944T602
1092Q713 1092 826 1071T1056 1008V713H944Q928 848 865 913T688 979Q540 979 478 879T415 532Q415 291 476 188T675 84Q782 84 846 148T925 332H1091Z" />
<glyph unicode="&#x10c;" glyph-name="Ccaron" horiz-adv-x="1630" d="M1460 426Q1401 195 1248 83T837 -29Q459 -29 240 179T20 745Q20 1103 239 1311T837 1520Q970 1520 1114 1488T1419 1391V1024H1292Q1253 1212 1150 1305T878 1399Q660 1399 554 1239T448
745Q448 412 554 252T880 92Q1029 92 1123 175T1261 426H1460ZM1635 1635L1412 1899H1576L1789 1737L2002 1899H2166L1943 1635H1635Z" />
<glyph unicode="&#x10d;" glyph-name="ccaron" horiz-adv-x="1247" d="M1091 332Q1053 150 936 61T616 -29Q332 -29 176 118T20 532Q20 796 174 944T602 1092Q713 1092 826 1071T1056 1008V713H944Q928 848 865 913T688 979Q540 979 478 879T415 532Q415 291 476
188T675 84Q782 84 846 148T925 332H1091ZM416 1262L160 1638H324L537 1411L750 1638H914L658 1262H416Z" />
<glyph unicode="&#x10e;" glyph-name="Dcaron" horiz-adv-x="1776" d="M604 121H743Q977 121 1085 271T1194 748Q1194 1073 1086 1222T743 1372H604V121ZM28 0V121H219V1372H28V1493H794Q1196 1493 1409 1301T1622 748Q1622 385 1409 193T794 0H28ZM1611 1635L1388
1899H1552L1765 1737L1978 1899H2142L1919 1635H1611Z" />
<glyph unicode="&#x10f;" glyph-name="dcaron" horiz-adv-x="1432" d="M801 479V584Q801 770 753 853T600 936Q490 936 446 849T401 532Q401 303 446 215T600 127Q705 127 753 210T801 479ZM1155 121H1306V0H801V135Q756 52 680 12T491 -29Q265 -29 136 121T6
532Q6 794 135 943T491 1092Q603 1092 679 1052T801 928V1436H649V1556H1155V121ZM2163 1555H2442L2258 1179H2094L2163 1555Z" />
<glyph unicode="&#x110;" glyph-name="Dcroat" horiz-adv-x="1790" d="M624 121H763Q997 121 1104 270T1212 748Q1212 1074 1105 1223T763 1372H624V850H956V713H624V121ZM47 0V121H239V713H26V850H239V1372H47V1493H815Q1215 1493 1427 1302T1640 748Q1640 385
1428 193T815 0H47Z" />
<glyph unicode="&#x111;" glyph-name="" horiz-adv-x="1347" d="M803 479V584Q803 770 755 853T602 936Q492 936 448 849T403 532Q403 303 448 215T602 127Q707 127 755 210T803 479ZM1157 121H1308V0H803V135Q758 52 682 12T493 -29Q267 -29 138 121T8 532Q8
794 137 943T493 1092Q605 1092 681 1052T803 928V1223H479V1343H803V1436H651V1556H1157V1343H1329V1223H1157V121Z" />
<glyph unicode="&#x112;" glyph-name="Emacron" horiz-adv-x="1561" d="M294 1872H924V1684H294V1872ZM26 0V121H217V1372H26V1493H1368V1141H1230V1356H602V877H993V1067H1130V551H993V741H602V137H1249V352H1386V0H26Z" />
<glyph unicode="&#x113;" glyph-name="emacron" horiz-adv-x="1303" d="M182 1562H812V1374H182V1562ZM759 600Q759 810 720 894T587 979Q496 979 457 896T417 618V600H759ZM1148 481H417V473Q417 267 479 176T679 84Q794 84 865 145T956 322H1122Q1079 141 951
56T593 -29Q317 -29 170 116T22 532Q22 796 173 944T593 1092Q857 1092 998 937T1148 481Z" />
<glyph unicode="&#x114;" glyph-name="Ebreve" horiz-adv-x="1561" d="M1344 1899H1467Q1489 1844 1544 1815T1684 1786Q1768 1786 1824 1815T1901 1899H2024Q1996 1768 1911 1702T1684 1635Q1540 1635 1456 1700T1344 1899ZM26 0V121H217V1372H26V1493H1368V1141H1230V1356H602V877H993V1067H1130V551H993V741H602V137H1249V352H1386V0H26Z"
/>
<glyph unicode="&#x115;" glyph-name="ebreve" horiz-adv-x="1303" d="M160 1589H285Q291 1516 347 1477T502 1438Q601 1438 657 1477T719 1589H844Q844 1443 754 1361T502 1278Q339 1278 251 1359T160 1589ZM759 600Q759 810 720 894T587 979Q496 979 457 896T417
618V600H759ZM1148 481H417V473Q417 267 479 176T679 84Q794 84 865 145T956 322H1122Q1079 141 951 56T593 -29Q317 -29 170 116T22 532Q22 796 173 944T593 1092Q857 1092 998 937T1148 481Z" />
<glyph unicode="&#x116;" glyph-name="Edotaccent" horiz-adv-x="1561" d="M1345 1776Q1345 1836 1388 1879T1492 1923Q1552 1923 1595 1880T1639 1776Q1639 1716 1596 1673T1492 1630Q1432 1630 1389 1673T1345 1776ZM26 0V121H217V1372H26V1493H1368V1141H1230V1356H602V877H993V1067H1130V551H993V741H602V137H1249V352H1386V0H26Z"
/>
<glyph unicode="&#x117;" glyph-name="edotaccent" horiz-adv-x="1303" d="M157 1468Q157 1528 200 1571T304 1614T407 1571T451 1468Q451 1409 408 1365T304 1321T201 1365T157 1468ZM759 600Q759 810 720 894T587 979Q496 979 457 896T417 618V600H759ZM1148
481H417V473Q417 267 479 176T679 84Q794 84 865 145T956 322H1122Q1079 141 951 56T593 -29Q317 -29 170 116T22 532Q22 796 173 944T593 1092Q857 1092 998 937T1148 481Z" />
<glyph unicode="&#x118;" glyph-name="Eogonek" horiz-adv-x="1561" d="M856 0H981Q932 -65 913 -102T893 -168Q893 -209 921 -231T1002 -254Q1041 -254 1081 -246T1160 -223L1159 -379Q1105 -390 1057 -395T967 -401Q854 -401 792 -355T729 -225Q729 -173 760
-119T856 0ZM26 0V121H217V1372H26V1493H1368V1141H1230V1356H602V877H993V1067H1130V551H993V741H602V137H1249V352H1386V0H26Z" />
<glyph unicode="&#x119;" glyph-name="eogonek" horiz-adv-x="1303" d="M474 0H599Q550 -65 531 -102T511 -168Q511 -209 539 -231T620 -254Q659 -254 699 -246T778 -223L777 -379Q723 -390 675 -395T585 -401Q472 -401 410 -355T347 -225Q347 -173 378 -119T474
0ZM759 600Q759 810 720 894T587 979Q496 979 457 896T417 618V600H759ZM1148 481H417V473Q417 267 479 176T679 84Q794 84 865 145T956 322H1122Q1079 141 951 56T593 -29Q317 -29 170 116T22 532Q22 796 173 944T593 1092Q857 1092 998 937T1148 481Z" />
<glyph unicode="&#x11a;" glyph-name="Ecaron" horiz-adv-x="1561" d="M26 0V121H217V1372H26V1493H1368V1141H1230V1356H602V877H993V1067H1130V551H993V741H602V137H1249V352H1386V0H26ZM1557 1641L1334 1905H1498L1711 1743L1924 1905H2088L1865 1641H1557Z" />
<glyph unicode="&#x11b;" glyph-name="ecaron" horiz-adv-x="1303" d="M759 600Q759 810 720 894T587 979Q496 979 457 896T417 618V600H759ZM1148 481H417V473Q417 267 479 176T679 84Q794 84 865 145T956 322H1122Q1079 141 951 56T593 -29Q317 -29 170 116T22
532Q22 796 173 944T593 1092Q857 1092 998 937T1148 481ZM416 1262L160 1638H324L537 1411L750 1638H914L658 1262H416Z" />
<glyph unicode="&#x11c;" glyph-name="Gcircumflex" horiz-adv-x="1749" d="M1656 1899H1964L2187 1635H2023L1810 1796L1597 1635H1433L1656 1899ZM1343 1024Q1298 1222 1193 1310T897 1399Q665 1399 557 1242T448 745Q448 409 552 251T876 92Q960 92 1032 111T1163
168V578H983V698H1521V125Q1353 47 1186 9T843 -29Q459 -29 240 178T20 745Q20 1106 239 1313T843 1520Q1003 1520 1158 1488T1470 1391V1024H1343Z" />
<glyph unicode="&#x11d;" glyph-name="gcircumflex" horiz-adv-x="1432" d="M431 1638H673L929 1262H765L552 1487L339 1262H175L431 1638ZM1173 942V14Q1173 -210 1014 -332T563 -455Q457 -455 348 -439T124 -389V-135H237Q252 -240 321 -291T520 -342Q684 -342
751 -264T819 14V135Q774 52 698 12T509 -29Q283 -29 154 121T24 532Q24 794 153 943T509 1092Q621 1092 697 1052T819 928V1063H1324V942H1173ZM819 584Q819 770 771 853T618 936Q508 936 464 849T419 532Q419 303 464 215T618 127Q723 127 771 210T819 479V584Z"
/>
<glyph unicode="&#x11e;" glyph-name="Gbreve" horiz-adv-x="1749" d="M1343 1024Q1298 1222 1193 1310T897 1399Q665 1399 557 1242T448 745Q448 409 552 251T876 92Q960 92 1032 111T1163 168V578H983V698H1521V125Q1353 47 1186 9T843 -29Q459 -29 240 178T20
745Q20 1106 239 1313T843 1520Q1003 1520 1158 1488T1470 1391V1024H1343ZM1403 1899H1526Q1548 1844 1603 1815T1743 1786Q1827 1786 1883 1815T1960 1899H2083Q2055 1768 1970 1702T1743 1635Q1599 1635 1515 1700T1403 1899Z" />
<glyph unicode="&#x11f;" glyph-name="gbreve" horiz-adv-x="1432" d="M1173 942V14Q1173 -210 1014 -332T563 -455Q457 -455 348 -439T124 -389V-135H237Q252 -240 321 -291T520 -342Q684 -342 751 -264T819 14V135Q774 52 698 12T509 -29Q283 -29 154 121T24
532Q24 794 153 943T509 1092Q621 1092 697 1052T819 928V1063H1324V942H1173ZM819 584Q819 770 771 853T618 936Q508 936 464 849T419 532Q419 303 464 215T618 127Q723 127 771 210T819 479V584ZM226 1589H351Q357 1516 413 1477T568 1438Q667 1438 723 1477T785
1589H910Q910 1443 820 1361T568 1278Q405 1278 317 1359T226 1589Z" />
<glyph unicode="&#x120;" glyph-name="Gdotaccent" horiz-adv-x="1749" d="M1439 1776Q1439 1836 1482 1879T1586 1923Q1646 1923 1689 1880T1733 1776Q1733 1716 1690 1673T1586 1630Q1526 1630 1483 1673T1439 1776ZM1343 1024Q1298 1222 1193 1310T897 1399Q665
1399 557 1242T448 745Q448 409 552 251T876 92Q960 92 1032 111T1163 168V578H983V698H1521V125Q1353 47 1186 9T843 -29Q459 -29 240 178T20 745Q20 1106 239 1313T843 1520Q1003 1520 1158 1488T1470 1391V1024H1343Z" />
<glyph unicode="&#x121;" glyph-name="gdotaccent" horiz-adv-x="1432" d="M184 1468Q184 1528 227 1571T331 1614T434 1571T478 1468Q478 1409 435 1365T331 1321T228 1365T184 1468ZM1173 942V14Q1173 -210 1014 -332T563 -455Q457 -455 348 -439T124 -389V-135H237Q252
-240 321 -291T520 -342Q684 -342 751 -264T819 14V135Q774 52 698 12T509 -29Q283 -29 154 121T24 532Q24 794 153 943T509 1092Q621 1092 697 1052T819 928V1063H1324V942H1173ZM819 584Q819 770 771 853T618 936Q508 936 464 849T419 532Q419 303 464 215T618
127Q723 127 771 210T819 479V584Z" />
<glyph unicode="&#x122;" glyph-name="Gcommaaccent" horiz-adv-x="1749" d="M1438 -419Q1516 -377 1553 -325T1590 -204V-161H1804V-165Q1804 -276 1734 -355Q1665 -435 1521 -490L1438 -419ZM1343 1024Q1298 1222 1193 1310T897 1399Q665 1399 557 1242T448
745Q448 409 552 251T876 92Q960 92 1032 111T1163 168V578H983V698H1521V125Q1353 47 1186 9T843 -29Q459 -29 240 178T20 745Q20 1106 239 1313T843 1520Q1003 1520 1158 1488T1470 1391V1024H1343Z" />
<glyph unicode="&#x123;" glyph-name="gcommaaccent" horiz-adv-x="1432" d="M1561 1472Q1483 1430 1446 1378T1409 1257V1214H1195V1218Q1195 1329 1265 1408Q1334 1488 1478 1543L1561 1472ZM1173 942V14Q1173 -210 1014 -332T563 -455Q457 -455 348 -439T124
-389V-135H237Q252 -240 321 -291T520 -342Q684 -342 751 -264T819 14V135Q774 52 698 12T509 -29Q283 -29 154 121T24 532Q24 794 153 943T509 1092Q621 1092 697 1052T819 928V1063H1324V942H1173ZM819 584Q819 770 771 853T618 936Q508 936 464 849T419 532Q419
303 464 215T618 127Q723 127 771 210T819 479V584Z" />
<glyph unicode="&#x124;" glyph-name="Hcircumflex" horiz-adv-x="1935" d="M1717 1899H2025L2248 1635H2084L1871 1796L1658 1635H1494L1717 1899ZM29 0V121H220V1372H29V1493H797V1372H605V870H1199V1372H1008V1493H1776V1372H1584V121H1776V0H1008V121H1199V733H605V121H797V0H29Z"
/>
<glyph unicode="&#x125;" glyph-name="hcircumflex" horiz-adv-x="1489" d="M1071 1899H1379L1602 1635H1438L1225 1796L1012 1635H848L1071 1899ZM34 0V121H185V1436H27V1556H539V913Q603 1008 685 1050T892 1092Q1071 1092 1162 987T1254 676V121H1406V0H771V121H900V686Q900
821 866 873T746 926Q639 926 589 848T539 598V121H669V0H34Z" />
<glyph unicode="&#x126;" glyph-name="Hbar" horiz-adv-x="1805" d="M29 0V121H220V1053H29V1190H220V1372H29V1493H797V1372H605V1190H1199V1372H1008V1493H1776V1372H1584V1190H1776V1053H1584V121H1776V0H1008V121H1199V733H605V121H797V0H29ZM605 870H1199V1053H605V870Z"
/>
<glyph unicode="&#x127;" glyph-name="hbar" horiz-adv-x="1411" d="M36 0V121H187V1196H29V1333H187V1436H29V1556H541V1333H900V1196H541V913Q605 1008 687 1050T894 1092Q1073 1092 1164 987T1256 676V121H1408V0H773V121H902V686Q902 821 868 873T748 926Q641
926 591 848T541 598V121H671V0H36Z" />
<glyph unicode="&#x128;" glyph-name="Itilde" horiz-adv-x="958" d="M1019 1635V1647Q1019 1770 1073 1836T1227 1903Q1288 1903 1368 1864Q1377 1860 1381 1858L1453 1825Q1481 1812 1499 1808T1535 1803Q1576 1803 1600 1828T1625 1897V1901H1735V1886Q1735
1764 1682 1699T1527 1633Q1493 1633 1460 1642T1373 1678L1316 1706Q1289 1719 1264 1726T1219 1733Q1178 1733 1154 1708T1129 1639V1635H1019ZM17 0V121H208V1372H17V1493H785V1372H593V121H785V0H17Z" />
<glyph unicode="&#x129;" glyph-name="itilde" horiz-adv-x="778" d="M163 1309V1325Q163 1471 216 1546T371 1622Q408 1622 443 1610T525 1567L596 1520L599 1518Q643 1489 679 1489Q720 1489 744 1524T769 1620H879V1604Q879 1458 826 1383T671 1307Q634 1307
599 1319T517 1362L445 1409L444 1410Q399 1440 363 1440Q322 1440 298 1405T273 1309H163ZM531 121H683V0H26V121H177V942H26V1063H531V121Z" />
<glyph unicode="&#x12a;" glyph-name="Imacron" horiz-adv-x="958" d="M8 1872H638V1684H8V1872ZM17 0V121H208V1372H17V1493H785V1372H593V121H785V0H17Z" />
<glyph unicode="&#x12b;" glyph-name="imacron" horiz-adv-x="778" d="M-150 1563H480V1375H-150V1563ZM531 121H683V0H26V121H177V942H26V1063H531V121Z" />
<glyph unicode="&#x12c;" glyph-name="Ibreve" horiz-adv-x="958" d="M1008 1899H1131Q1153 1844 1208 1815T1348 1786Q1432 1786 1488 1815T1565 1899H1688Q1660 1768 1575 1702T1348 1635Q1204 1635 1120 1700T1008 1899ZM17 0V121H208V1372H17V1493H785V1372H593V121H785V0H17Z"
/>
<glyph unicode="&#x12d;" glyph-name="ibreve" horiz-adv-x="778" d="M155 1589H280Q286 1516 342 1477T497 1438Q596 1438 652 1477T714 1589H839Q839 1443 749 1361T497 1278Q334 1278 246 1359T155 1589ZM531 121H683V0H26V121H177V942H26V1063H531V121Z" />
<glyph unicode="&#x12e;" glyph-name="Iogonek" horiz-adv-x="958" d="M17 0V121H208V1372H17V1493H785V1372H593V121H785V0H17ZM249 0H374Q325 -65 306 -102T286 -168Q286 -209 314 -231T395 -254Q434 -254 474 -246T553 -223L552 -379Q498 -390 450 -395T360
-401Q247 -401 185 -355T122 -225Q122 -173 153 -119T249 0Z" />
<glyph unicode="&#x12f;" glyph-name="iogonek" horiz-adv-x="778" d="M129 1364Q129 1445 185 1500T322 1556Q401 1556 456 1501T512 1364Q512 1285 457 1230T322 1174Q241 1174 185 1229T129 1364ZM516 121H668V0H11V121H162V942H11V1063H516V121ZM152 0H277Q228
-65 209 -102T189 -168Q189 -209 217 -231T298 -254Q337 -254 377 -246T456 -223L455 -379Q401 -390 353 -395T263 -401Q150 -401 88 -355T25 -225Q25 -173 56 -119T152 0Z" />
<glyph unicode="&#x130;" glyph-name="Idot" horiz-adv-x="958" d="M17 0V121H208V1372H17V1493H785V1372H593V121H785V0H17ZM1009 1776Q1009 1836 1052 1879T1156 1923Q1216 1923 1259 1880T1303 1776Q1303 1716 1260 1673T1156 1630Q1096 1630 1053 1673T1009 1776Z" />
<glyph unicode="&#x131;" glyph-name="dotlessi" horiz-adv-x="694" d="M531 121H683V0H26V121H177V942H26V1063H531V121Z" />
<glyph unicode="&#x132;" glyph-name="IJ" horiz-adv-x="1929" d="M17 0V121H208V1372H17V1493H785V1372H593V121H785V0H17ZM966 -358V-123H1096Q1102 -217 1140 -261T1255 -305Q1352 -305 1390 -231T1429 49V1372H1212V1493H2007V1372H1816V41Q1816 -202 1694
-314T1304 -426Q1221 -426 1137 -409T966 -358Z" />
<glyph unicode="&#x133;" glyph-name="ij" horiz-adv-x="1538" d="M129 1364Q129 1445 185 1500T322 1556Q401 1556 456 1501T512 1364Q512 1285 457 1230T322 1174Q241 1174 185 1229T129 1364ZM516 121H668V0H11V121H162V942H11V1063H516V121ZM1126 1364Q1126
1445 1181 1500T1319 1556Q1397 1556 1453 1500T1509 1364Q1509 1285 1454 1230T1319 1174Q1238 1174 1182 1229T1126 1364ZM1167 942H1016V1063H1521V-125Q1521 -288 1406 -371T1065 -455Q1005 -455 937 -445T796 -416V-190L909 -191Q911 -271 940 -306T1036 -342Q1109
-342 1138 -295T1167 -125V942Z" />
<glyph unicode="&#x134;" glyph-name="Jcircumflex" horiz-adv-x="969" d="M1240 1899H1548L1771 1635H1607L1394 1796L1181 1635H1017L1240 1899ZM6 -358V-123H136Q142 -217 180 -261T295 -305Q392 -305 430 -231T469 49V1372H252V1493H1047V1372H856V41Q856
-202 734 -314T344 -426Q261 -426 177 -409T6 -358Z" />
<glyph unicode="&#x135;" glyph-name="jcircumflex" horiz-adv-x="741" d="M73 1638H315L571 1262H407L194 1487L-19 1262H-183L73 1638ZM376 942H225V1063H730V-125Q730 -288 615 -371T274 -455Q214 -455 146 -445T5 -416V-190L118 -191Q120 -271 149 -306T245
-342Q318 -342 347 -295T376 -125V942Z" />
<glyph unicode="&#x136;" glyph-name="Kcommaaccent" horiz-adv-x="1780" d="M1498 -391Q1576 -349 1613 -297T1650 -176V-133H1864V-137Q1864 -248 1794 -327Q1725 -407 1581 -462L1498 -391ZM29 0V121H220V1372H29V1493H797V1372H605V827L1238 1372H1078V1493H1635V1372H1436L900
911L1629 121H1776V0H1270L605 725V121H797V0H29Z" />
<glyph unicode="&#x137;" glyph-name="kcommaaccent" horiz-adv-x="1419" d="M1291 -391Q1369 -349 1406 -297T1443 -176V-133H1657V-137Q1657 -248 1587 -327Q1518 -407 1374 -462L1291 -391ZM667 0H28V121H179V1436H28V1556H533V557L962 942H835V1063H1320V942H1123L849
696L1297 121H1412V0H802V121H927L632 500L533 412V121H667V0Z" />
<glyph unicode="&#x138;" glyph-name="kgreenlandic" horiz-adv-x="1441" d="M672 0H33V121H184V939H33V1060H538V556L967 939H840V1060H1325V939H1128L854 695L1302 121H1417V0H807V121H932L637 499L538 411V121H672V0Z" />
<glyph unicode="&#x139;" glyph-name="Lacute" horiz-adv-x="1440" d="M1266 1900H1545L1248 1636H1084L1266 1900ZM25 0V121H216V1372H25V1493H793V1372H601V137H1189V373H1324V0H25Z" />
<glyph unicode="&#x13a;" glyph-name="lacute" horiz-adv-x="778" d="M1146 1900H1425L1128 1636H964L1146 1900ZM522 121H674V0H17V121H168V1436H17V1556H522V121Z" />
<glyph unicode="&#x13b;" glyph-name="Lcommaaccent" horiz-adv-x="1440" d="M1274 -391Q1352 -349 1389 -297T1426 -176V-133H1640V-137Q1640 -248 1570 -327Q1501 -407 1357 -462L1274 -391ZM25 0V121H216V1372H25V1493H793V1372H601V137H1189V373H1324V0H25Z" />
<glyph unicode="&#x13c;" glyph-name="lcommaaccent" horiz-adv-x="778" d="M928 -391Q1006 -349 1043 -297T1080 -176V-133H1294V-137Q1294 -248 1224 -327Q1155 -407 1011 -462L928 -391ZM522 121H674V0H17V121H168V1436H17V1556H522V121Z" />
<glyph unicode="&#x13d;" glyph-name="Lcaron" horiz-adv-x="1440" d="M1813 1494H2092L1908 1118H1744L1813 1494ZM25 0V121H216V1372H25V1493H793V1372H601V137H1189V373H1324V0H25Z" />
<glyph unicode="&#x13e;" glyph-name="lcaron" horiz-adv-x="778" d="M1475 1557H1754L1570 1181H1406L1475 1557ZM522 121H674V0H17V121H168V1436H17V1556H522V121Z" />
<glyph unicode="&#x13f;" glyph-name="Ldot" horiz-adv-x="1440" d="M892 887Q892 965 948 1021T1082 1077Q1161 1077 1217 1021T1273 887Q1273 809 1217 754T1082 698Q1004 698 948 753T892 887ZM25 0V121H216V1372H25V1493H793V1372H601V137H1189V373H1324V0H25Z" />
<glyph unicode="&#x140;" glyph-name="ldot" horiz-adv-x="778" d="M527 883Q527 961 583 1017T717 1073Q796 1073 852 1017T908 883Q908 805 852 750T717 694Q639 694 583 749T527 883ZM522 121H674V0H17V121H168V1436H17V1556H522V121Z" />
<glyph unicode="&#x141;" glyph-name="Lslash" horiz-adv-x="1414" d="M109 0V121H301V549L86 422L16 539L301 707V1372H109V1493H877V1372H686V938L1026 1139L1096 1022L686 778V137H1274V373H1409V0H109Z" />
<glyph unicode="&#x142;" glyph-name="lslash" horiz-adv-x="805" d="M582 121H733V0H76V121H227V653L72 557L10 662L227 795V1436H76V1556H582V999L737 1096L801 991L582 858V121Z" />
<glyph unicode="&#x143;" glyph-name="Nacute" horiz-adv-x="1872" d="M1640 1900H1919L1622 1636H1458L1640 1900ZM28 0V121H219V1372H28V1493H495L1396 436V1372H1206V1493H1728V1372H1537V0H1275L360 1079V121H550V0H28Z" />
<glyph unicode="&#x144;" glyph-name="nacute" horiz-adv-x="1489" d="M413 1591H692L319 1215H155L413 1591ZM27 0V121H178V942H27V1063H532V913Q596 1008 678 1050T885 1092Q1064 1092 1155 987T1247 676V121H1399V0H764V121H893V686Q893 821 859 873T739 926Q632
926 582 848T532 598V121H662V0H27Z" />
<glyph unicode="&#x145;" glyph-name="Ncommaaccent" horiz-adv-x="1872" d="M1374 -391Q1452 -349 1489 -297T1526 -176V-133H1740V-137Q1740 -248 1670 -327Q1601 -407 1457 -462L1374 -391ZM28 0V121H219V1372H28V1493H495L1396 436V1372H1206V1493H1728V1372H1537V0H1275L360
1079V121H550V0H28Z" />
<glyph unicode="&#x146;" glyph-name="ncommaaccent" horiz-adv-x="1489" d="M1285 -391Q1363 -349 1400 -297T1437 -176V-133H1651V-137Q1651 -248 1581 -327Q1512 -407 1368 -462L1285 -391ZM27 0V121H178V942H27V1063H532V913Q596 1008 678 1050T885 1092Q1064
1092 1155 987T1247 676V121H1399V0H764V121H893V686Q893 821 859 873T739 926Q632 926 582 848T532 598V121H662V0H27Z" />
<glyph unicode="&#x147;" glyph-name="Ncaron" horiz-adv-x="1872" d="M28 0V121H219V1372H28V1493H495L1396 436V1372H1206V1493H1728V1372H1537V0H1275L360 1079V121H550V0H28ZM1665 1635L1442 1899H1606L1819 1737L2032 1899H2196L1973 1635H1665Z" />
<glyph unicode="&#x148;" glyph-name="ncaron" horiz-adv-x="1489" d="M27 0V121H178V942H27V1063H532V913Q596 1008 678 1050T885 1092Q1064 1092 1155 987T1247 676V121H1399V0H764V121H893V686Q893 821 859 873T739 926Q632 926 582 848T532 598V121H662V0H27ZM416
1262L160 1638H324L537 1411L750 1638H914L658 1262H416Z" />
<glyph unicode="&#x149;" glyph-name="napostrophe" horiz-adv-x="2065" d="M212 1070Q308 1137 352 1231T396 1465V1520H665Q657 1313 573 1172T317 934L212 1070ZM556 0V121H707V942H556V1063H1061V913Q1125 1008 1207 1050T1414 1092Q1593 1092 1684 987T1776
676V121H1928V0H1293V121H1422V686Q1422 821 1388 873T1268 926Q1161 926 1111 848T1061 598V121H1191V0H556Z" />
<glyph unicode="&#x14a;" glyph-name="Eng" horiz-adv-x="1521" d="M7 0V121H197V1372H46V1493H584V1339Q664 1436 768 1479Q869 1521 1030 1521Q1256 1521 1371 1380T1487 965V41Q1487 -202 1364 -314T974 -426Q891 -426 807 -409T636 -358V-123H769Q769 -217
810 -261T928 -305Q1025 -305 1063 -231T1102 49V927Q1102 1176 1053 1273T881 1370Q730 1370 656 1243Q584 1121 584 841V121H775V0H7Z" />
<glyph unicode="&#x14b;" glyph-name="eng" horiz-adv-x="1262" d="M7 0V121H158V942H7V1063H512V913Q576 1008 658 1050T865 1092Q1044 1092 1135 987T1227 676V-125Q1227 -288 1112 -371T771 -455Q711 -455 643 -445T502 -416V-191H615Q617 -271 646 -306T742
-342Q815 -342 844 -295T873 -125V686Q873 821 839 873T719 926Q612 926 562 848T512 598V121H642V0H7Z" />
<glyph unicode="&#x14c;" glyph-name="Omacron" horiz-adv-x="1784" d="M418 1872H1048V1684H418V1872ZM827 92Q1018 92 1111 253T1204 745Q1204 1077 1111 1238T827 1399Q637 1399 544 1237T450 745Q450 417 543 255T827 92ZM827 -29Q450 -29 236 177T22 745Q22
1107 236 1313T827 1520Q1204 1520 1418 1314T1632 745Q1632 383 1418 177T827 -29Z" />
<glyph unicode="&#x14d;" glyph-name="omacron" horiz-adv-x="1366" d="M211 1562H841V1374H211V1562ZM621 84Q733 84 778 180T824 532Q824 788 779 883T621 979Q508 979 462 883T416 532Q416 278 462 181T621 84ZM621 -29Q340 -29 181 120T21 532Q21 795 180
943T621 1092Q903 1092 1062 944T1221 532Q1221 270 1062 121T621 -29Z" />
<glyph unicode="&#x14e;" glyph-name="Obreve" horiz-adv-x="1784" d="M1422 1899H1545Q1567 1844 1622 1815T1762 1786Q1846 1786 1902 1815T1979 1899H2102Q2074 1768 1989 1702T1762 1635Q1618 1635 1534 1700T1422 1899ZM827 92Q1018 92 1111 253T1204 745Q1204
1077 1111 1238T827 1399Q637 1399 544 1237T450 745Q450 417 543 255T827 92ZM827 -29Q450 -29 236 177T22 745Q22 1107 236 1313T827 1520Q1204 1520 1418 1314T1632 745Q1632 383 1418 177T827 -29Z" />
<glyph unicode="&#x14f;" glyph-name="obreve" horiz-adv-x="1366" d="M193 1589H318Q324 1516 380 1477T535 1438Q634 1438 690 1477T752 1589H877Q877 1443 787 1361T535 1278Q372 1278 284 1359T193 1589ZM621 84Q733 84 778 180T824 532Q824 788 779 883T621
979Q508 979 462 883T416 532Q416 278 462 181T621 84ZM621 -29Q340 -29 181 120T21 532Q21 795 180 943T621 1092Q903 1092 1062 944T1221 532Q1221 270 1062 121T621 -29Z" />
<glyph unicode="&#x150;" glyph-name="Ohungarumlaut" horiz-adv-x="1784" d="M1936 1899H2215L1918 1635H1754L1936 1899ZM1604 1899H1883L1586 1635H1422L1604 1899ZM827 92Q1018 92 1111 253T1204 745Q1204 1077 1111 1238T827 1399Q637 1399 544 1237T450
745Q450 417 543 255T827 92ZM827 -29Q450 -29 236 177T22 745Q22 1107 236 1313T827 1520Q1204 1520 1418 1314T1632 745Q1632 383 1418 177T827 -29Z" />
<glyph unicode="&#x151;" glyph-name="ohungarumlaut" horiz-adv-x="1366" d="M742 1638H978L681 1262H517L742 1638ZM376 1638H593L349 1262H187L376 1638ZM621 84Q733 84 778 180T824 532Q824 788 779 883T621 979Q508 979 462 883T416 532Q416 278 462 181T621
84ZM621 -29Q340 -29 181 120T21 532Q21 795 180 943T621 1092Q903 1092 1062 944T1221 532Q1221 270 1062 121T621 -29Z" />
<glyph unicode="&#x152;" glyph-name="OE" horiz-adv-x="2290" d="M1105 121V1372H978Q714 1372 580 1215T446 748Q446 434 579 278T978 121H1105ZM2252 0H931Q724 0 589 26T352 109Q195 195 111 361T26 748Q26 968 110 1132T352 1384Q452 1442 586 1467T931 1493H2234V1141H2097V1356H1492V877H1859V1067H1996V551H1859V741H1492V137H2115V352H2252V0Z"
/>
<glyph unicode="&#x153;" glyph-name="oe" horiz-adv-x="1983" d="M627 84Q739 84 784 180T830 532Q830 788 785 883T627 979Q514 979 468 883T422 532Q422 278 468 181T627 84ZM1567 600Q1567 810 1528 894T1395 979Q1305 979 1266 897T1227 618V600H1567ZM1028
936Q1103 1016 1196 1054T1407 1092Q1667 1092 1808 935T1958 482L1227 481V473Q1227 266 1288 175T1487 84Q1602 84 1673 145T1764 322H1930Q1891 148 1765 60T1430 -29Q1298 -29 1199 9T1028 127Q958 50 852 11T611 -29Q341 -29 184 122T27 532Q27 795 186 943T627
1092Q754 1092 853 1054T1028 936Z" />
<glyph unicode="&#x154;" glyph-name="Racute" horiz-adv-x="1702" d="M1586 1900H1865L1568 1636H1404L1586 1900ZM1018 729Q1107 716 1168 670T1274 537L1492 121H1645V0H1154L916 451Q847 591 799 629T664 668H603V121H795V0H27V121H218V1372H27V1493H879Q1139
1493 1280 1389T1422 1092Q1422 936 1322 846T1018 729ZM603 788H734Q874 788 949 864T1025 1081Q1025 1222 950 1297T734 1372H603V788Z" />
<glyph unicode="&#x155;" glyph-name="racute" horiz-adv-x="1079" d="M413 1591H692L319 1215H155L413 1591ZM1063 1075V758H950Q944 843 904 884T788 926Q672 926 605 824T538 541V121H731V0H33V121H184V942H22V1063H538V874Q590 985 675 1038T885 1092Q916
1092 960 1088T1063 1075Z" />
<glyph unicode="&#x156;" glyph-name="Rcommaaccent" horiz-adv-x="1702" d="M1434 -391Q1512 -349 1549 -297T1586 -176V-133H1800V-137Q1800 -248 1730 -327Q1661 -407 1517 -462L1434 -391ZM1018 729Q1107 716 1168 670T1274 537L1492 121H1645V0H1154L916
451Q847 591 799 629T664 668H603V121H795V0H27V121H218V1372H27V1493H879Q1139 1493 1280 1389T1422 1092Q1422 936 1322 846T1018 729ZM603 788H734Q874 788 949 864T1025 1081Q1025 1222 950 1297T734 1372H603V788Z" />
<glyph unicode="&#x157;" glyph-name="rcommaaccent" horiz-adv-x="1079" d="M948 -391Q1026 -349 1063 -297T1100 -176V-133H1314V-137Q1314 -248 1244 -327Q1175 -407 1031 -462L948 -391ZM1063 1075V758H950Q944 843 904 884T788 926Q672 926 605 824T538 541V121H731V0H33V121H184V942H22V1063H538V874Q590
985 675 1038T885 1092Q916 1092 960 1088T1063 1075Z" />
<glyph unicode="&#x158;" glyph-name="Rcaron" horiz-adv-x="1702" d="M1018 729Q1107 716 1168 670T1274 537L1492 121H1645V0H1154L916 451Q847 591 799 629T664 668H603V121H795V0H27V121H218V1372H27V1493H879Q1139 1493 1280 1389T1422 1092Q1422 936 1322
846T1018 729ZM603 788H734Q874 788 949 864T1025 1081Q1025 1222 950 1297T734 1372H603V788ZM1611 1635L1388 1899H1552L1765 1737L1978 1899H2142L1919 1635H1611Z" />
<glyph unicode="&#x159;" glyph-name="rcaron" horiz-adv-x="1079" d="M1063 1075V758H950Q944 843 904 884T788 926Q672 926 605 824T538 541V121H731V0H33V121H184V942H22V1063H538V874Q590 985 675 1038T885 1092Q916 1092 960 1088T1063 1075ZM416 1262L160
1638H324L537 1411L750 1638H914L658 1262H416Z" />
<glyph unicode="&#x15a;" glyph-name="Sacute" horiz-adv-x="1479" d="M1586 1900H1865L1568 1636H1404L1586 1900ZM49 72V426H176Q205 258 313 175T612 92Q767 92 848 151T929 324Q929 414 874 464T647 557L423 612Q204 668 115 767T26 1051Q26 1273 173 1396T587
1520Q718 1520 859 1498T1153 1432V1102H1026Q997 1256 899 1327T620 1399Q472 1399 397 1348T321 1194Q321 1101 373 1053T628 952L852 897Q1060 845 1153 735T1247 432Q1247 206 1091 89T632 -29Q486 -29 342 -4T49 72Z" />
<glyph unicode="&#x15b;" glyph-name="sacute" horiz-adv-x="1153" d="M413 1591H692L319 1215H155L413 1591ZM36 31V328H149Q163 209 238 147T442 84Q550 84 607 121T665 229Q665 293 629 328T487 389L341 426Q176 467 102 543T28 750Q28 923 148 1007T518 1092Q612
1092 718 1077T954 1028V760H841Q832 869 764 924T567 979Q459 979 404 945T348 844Q348 790 380 759T495 707L640 670Q849 617 929 539T1009 322Q1009 142 881 57T481 -29Q382 -29 271 -14T36 31Z" />
<glyph unicode="&#x15c;" glyph-name="Scircumflex" horiz-adv-x="1479" d="M1476 1899H1784L2007 1635H1843L1630 1796L1417 1635H1253L1476 1899ZM49 72V426H176Q205 258 313 175T612 92Q767 92 848 151T929 324Q929 414 874 464T647 557L423 612Q204 668 115
767T26 1051Q26 1273 173 1396T587 1520Q718 1520 859 1498T1153 1432V1102H1026Q997 1256 899 1327T620 1399Q472 1399 397 1348T321 1194Q321 1101 373 1053T628 952L852 897Q1060 845 1153 735T1247 432Q1247 206 1091 89T632 -29Q486 -29 342 -4T49 72Z" />
<glyph unicode="&#x15d;" glyph-name="scircumflex" horiz-adv-x="1153" d="M331 1638H573L829 1262H665L452 1487L239 1262H75L331 1638ZM36 31V328H149Q163 209 238 147T442 84Q550 84 607 121T665 229Q665 293 629 328T487 389L341 426Q176 467 102 543T28
750Q28 923 148 1007T518 1092Q612 1092 718 1077T954 1028V760H841Q832 869 764 924T567 979Q459 979 404 945T348 844Q348 790 380 759T495 707L640 670Q849 617 929 539T1009 322Q1009 142 881 57T481 -29Q382 -29 271 -14T36 31Z" />
<glyph unicode="&#x15e;" glyph-name="Scedilla" horiz-adv-x="1479" d="M49 72V426H176Q205 258 313 175T612 92Q767 92 848 151T929 324Q929 414 874 464T647 557L423 612Q204 668 115 767T26 1051Q26 1273 173 1396T587 1520Q718 1520 859 1498T1153 1432V1102H1026Q997
1256 899 1327T620 1399Q472 1399 397 1348T321 1194Q321 1101 373 1053T628 952L852 897Q1060 845 1153 735T1247 432Q1247 206 1091 89T632 -29Q486 -29 342 -4T49 72ZM563 0Q625 -64 654 -118T684 -225Q684 -311 620 -356T434 -401Q386 -401 335 -395T232 -375L231
-219Q276 -236 318 -245T397 -254Q457 -254 488 -231T520 -162Q520 -134 504 -101T436 0H563Z" />
<glyph unicode="&#x15f;" glyph-name="scedilla" horiz-adv-x="1153" d="M36 31V328H149Q163 209 238 147T442 84Q550 84 607 121T665 229Q665 293 629 328T487 389L341 426Q176 467 102 543T28 750Q28 923 148 1007T518 1092Q612 1092 718 1077T954 1028V760H841Q832
869 764 924T567 979Q459 979 404 945T348 844Q348 790 380 759T495 707L640 670Q849 617 929 539T1009 322Q1009 142 881 57T481 -29Q382 -29 271 -14T36 31ZM402 0Q464 -64 493 -118T523 -225Q523 -311 459 -356T273 -401Q225 -401 174 -395T71 -375L70 -219Q115
-236 157 -245T236 -254Q296 -254 327 -231T359 -162Q359 -134 343 -101T275 0H402Z" />
<glyph unicode="&#x160;" glyph-name="Scaron" horiz-adv-x="1479" d="M49 72V426H176Q205 258 313 175T612 92Q767 92 848 151T929 324Q929 414 874 464T647 557L423 612Q204 668 115 767T26 1051Q26 1273 173 1396T587 1520Q718 1520 859 1498T1153 1432V1102H1026Q997
1256 899 1327T620 1399Q472 1399 397 1348T321 1194Q321 1101 373 1053T628 952L852 897Q1060 845 1153 735T1247 432Q1247 206 1091 89T632 -29Q486 -29 342 -4T49 72ZM1485 1635L1262 1899H1426L1639 1737L1852 1899H2016L1793 1635H1485Z" />
<glyph unicode="&#x161;" glyph-name="scaron" horiz-adv-x="1153" d="M36 31V328H149Q163 209 238 147T442 84Q550 84 607 121T665 229Q665 293 629 328T487 389L341 426Q176 467 102 543T28 750Q28 923 148 1007T518 1092Q612 1092 718 1077T954 1028V760H841Q832
869 764 924T567 979Q459 979 404 945T348 844Q348 790 380 759T495 707L640 670Q849 617 929 539T1009 322Q1009 142 881 57T481 -29Q382 -29 271 -14T36 31ZM330 1262L74 1638H238L451 1411L664 1638H828L572 1262H330Z" />
<glyph unicode="&#x162;" glyph-name="Tcommaaccent" horiz-adv-x="1524" d="M579 0Q641 -64 670 -118T700 -225Q700 -311 636 -356T450 -401Q402 -401 351 -395T248 -375L247 -219Q292 -236 334 -245T413 -254Q473 -254 504 -231T536 -162Q536 -134 520 -101T452
0H579ZM359 0V121H557V1356H148V1120H11V1493H1491V1120H1356V1356H944V121H1143V0H359Z" />
<glyph unicode="&#x163;" glyph-name="tcommaaccent" horiz-adv-x="946" d="M336 0Q398 -64 427 -118T457 -225Q457 -311 393 -356T207 -401Q159 -401 108 -395T5 -375L4 -219Q49 -236 91 -245T170 -254Q230 -254 261 -231T293 -162Q293 -134 277 -101T209 0H336ZM162
942H8V1063H162V1393H516V1063H811V942H516V291Q516 152 538 118T618 84Q682 84 713 127T746 260H895Q886 100 808 36T537 -29Q318 -29 240 39T162 291V942Z" />
<glyph unicode="&#x164;" glyph-name="Tcaron" horiz-adv-x="1524" d="M359 0V121H557V1356H148V1120H11V1493H1491V1120H1356V1356H944V121H1143V0H359ZM1515 1635L1292 1899H1456L1669 1737L1882 1899H2046L1823 1635H1515Z" />
<glyph unicode="&#x165;" glyph-name="tcaron" horiz-adv-x="946" d="M162 942H8V1063H162V1393H516V1063H811V942H516V291Q516 152 538 118T618 84Q682 84 713 127T746 260H895Q886 100 808 36T537 -29Q318 -29 240 39T162 291V942ZM1433 1599H1712L1528 1223H1364L1433
1599Z" />
<glyph unicode="&#x166;" glyph-name="Tbar" horiz-adv-x="1503" d="M225 713V850H557V1356H148V1120H11V1493H1491V1120H1356V1356H944V850H1276V713H944V121H1143V0H359V121H557V713H225Z" />
<glyph unicode="&#x167;" glyph-name="tbar" horiz-adv-x="901" d="M164 942H10V1063H164V1393H518V1063H813V942H518V665H813V544H518V291Q518 152 540 118T620 84Q684 84 715 127T748 260H897Q888 100 810 36T539 -29Q320 -29 242 39T164 291V544H10V665H164V942Z" />
<glyph unicode="&#x168;" glyph-name="Utilde" horiz-adv-x="1786" d="M1484 1635V1647Q1484 1770 1538 1836T1692 1903Q1753 1903 1833 1864Q1842 1860 1846 1858L1918 1825Q1946 1812 1964 1808T2000 1803Q2041 1803 2065 1828T2090 1897V1901H2200V1886Q2200
1764 2147 1699T1992 1633Q1958 1633 1925 1642T1838 1678L1781 1706Q1754 1719 1729 1726T1684 1733Q1643 1733 1619 1708T1594 1639V1635H1484ZM204 1372H14V1493H782V1372H591V625Q591 346 678 235T976 123Q1182 123 1268 235T1355 625V1372H1165V1493H1685V1372H1494V604Q1494
262 1346 117T849 -29Q502 -29 353 118T204 606V1372Z" />
<glyph unicode="&#x169;" glyph-name="utilde" horiz-adv-x="1489" d="M224 1309V1325Q224 1471 277 1546T432 1622Q469 1622 504 1610T586 1567L657 1520L660 1518Q704 1489 740 1489Q781 1489 805 1524T830 1620H940V1604Q940 1458 887 1383T732 1307Q695 1307
660 1319T578 1362L506 1409L505 1410Q460 1440 424 1440Q383 1440 359 1405T334 1309H224ZM1238 1063V121H1389V0H883V150Q820 55 738 13T531 -29Q352 -29 261 76T169 387V942H17V1063H523V442Q523 244 556 191T677 137Q784 137 833 216T883 467V942H754V1063H1238Z"
/>
<glyph unicode="&#x16a;" glyph-name="Umacron" horiz-adv-x="1786" d="M495 1872H1125V1684H495V1872ZM204 1372H14V1493H782V1372H591V625Q591 346 678 235T976 123Q1182 123 1268 235T1355 625V1372H1165V1493H1685V1372H1494V604Q1494 262 1346 117T849 -29Q502
-29 353 118T204 606V1372Z" />
<glyph unicode="&#x16b;" glyph-name="umacron" horiz-adv-x="1489" d="M259 1562H889V1374H259V1562ZM1238 1063V121H1389V0H883V150Q820 55 738 13T531 -29Q352 -29 261 76T169 387V942H17V1063H523V442Q523 244 556 191T677 137Q784 137 833 216T883 467V942H754V1063H1238Z"
/>
<glyph unicode="&#x16c;" glyph-name="Ubreve" horiz-adv-x="1786" d="M1473 1899H1596Q1618 1844 1673 1815T1813 1786Q1897 1786 1953 1815T2030 1899H2153Q2125 1768 2040 1702T1813 1635Q1669 1635 1585 1700T1473 1899ZM204 1372H14V1493H782V1372H591V625Q591
346 678 235T976 123Q1182 123 1268 235T1355 625V1372H1165V1493H1685V1372H1494V604Q1494 262 1346 117T849 -29Q502 -29 353 118T204 606V1372Z" />
<glyph unicode="&#x16d;" glyph-name="ubreve" horiz-adv-x="1489" d="M216 1589H341Q347 1516 403 1477T558 1438Q657 1438 713 1477T775 1589H900Q900 1443 810 1361T558 1278Q395 1278 307 1359T216 1589ZM1238 1063V121H1389V0H883V150Q820 55 738 13T531
-29Q352 -29 261 76T169 387V942H17V1063H523V442Q523 244 556 191T677 137Q784 137 833 216T883 467V942H754V1063H1238Z" />
<glyph unicode="&#x16e;" glyph-name="Uring" horiz-adv-x="1786" d="M204 1372H14V1493H782V1372H591V625Q591 346 678 235T976 123Q1182 123 1268 235T1355 625V1372H1165V1493H1685V1372H1494V604Q1494 262 1346 117T849 -29Q502 -29 353 118T204 606V1372ZM551
1879Q551 1997 634 2080T836 2164Q954 2164 1037 2081T1121 1879Q1121 1761 1038 1678T836 1594Q718 1594 635 1677T551 1879ZM705 1879Q705 1824 743 1786T836 1748Q891 1748 929 1786T967 1879Q967 1933 929 1971T836 2010Q781 2010 743 1972T705 1879Z" />
<glyph unicode="&#x16f;" glyph-name="uring" horiz-adv-x="1489" d="M1238 1063V121H1389V0H883V150Q820 55 738 13T531 -29Q352 -29 261 76T169 387V942H17V1063H523V442Q523 244 556 191T677 137Q784 137 833 216T883 467V942H754V1063H1238ZM203 1465Q203
1583 286 1666T488 1750Q606 1750 689 1667T773 1465Q773 1347 690 1264T488 1180Q370 1180 287 1263T203 1465ZM357 1465Q357 1410 395 1372T488 1334Q543 1334 581 1372T619 1465Q619 1519 581 1557T488 1596Q433 1596 395 1558T357 1465Z" />
<glyph unicode="&#x170;" glyph-name="Uhungarumlaut" horiz-adv-x="1786" d="M1987 1899H2266L1969 1635H1805L1987 1899ZM1655 1899H1934L1637 1635H1473L1655 1899ZM204 1372H14V1493H782V1372H591V625Q591 346 678 235T976 123Q1182 123 1268 235T1355 625V1372H1165V1493H1685V1372H1494V604Q1494
262 1346 117T849 -29Q502 -29 353 118T204 606V1372Z" />
<glyph unicode="&#x171;" glyph-name="uhungarumlaut" horiz-adv-x="1489" d="M765 1638H1001L704 1262H540L765 1638ZM399 1638H616L372 1262H210L399 1638ZM1238 1063V121H1389V0H883V150Q820 55 738 13T531 -29Q352 -29 261 76T169 387V942H17V1063H523V442Q523
244 556 191T677 137Q784 137 833 216T883 467V942H754V1063H1238Z" />
<glyph unicode="&#x172;" glyph-name="Uogonek" horiz-adv-x="1786" d="M204 1372H14V1493H782V1372H591V625Q591 346 678 235T976 123Q1182 123 1268 235T1355 625V1372H1165V1493H1685V1372H1494V604Q1494 262 1346 117T849 -29Q502 -29 353 118T204 606V1372ZM544
-15H669Q620 -80 601 -117T581 -183Q581 -224 609 -246T690 -269Q729 -269 769 -261T848 -238L847 -394Q793 -405 745 -410T655 -416Q542 -416 480 -370T417 -240Q417 -188 448 -134T544 -15Z" />
<glyph unicode="&#x173;" glyph-name="uogonek" horiz-adv-x="1489" d="M1238 1063V121H1389V0H883V150Q820 55 738 13T531 -29Q352 -29 261 76T169 387V942H17V1063H523V442Q523 244 556 191T677 137Q784 137 833 216T883 467V942H754V1063H1238ZM887 0H1012Q963
-65 944 -102T924 -168Q924 -209 952 -231T1033 -254Q1072 -254 1112 -246T1191 -223L1190 -379Q1136 -390 1088 -395T998 -401Q885 -401 823 -355T760 -225Q760 -173 791 -119T887 0Z" />
<glyph unicode="&#x174;" glyph-name="Wcircumflex" horiz-adv-x="2300" d="M1900 1906H2208L2431 1642H2267L2054 1803L1841 1642H1677L1900 1906ZM1776 0H1518L1180 1087L842 0H584L158 1372H13V1493H721V1372H561L846 455L1168 1493H1452L1780 438L2071 1372H1893V1493H2355V1372H2202L1776
0Z" />
<glyph unicode="&#x175;" glyph-name="wcircumflex" horiz-adv-x="1763" d="M646 1638H888L1144 1262H980L767 1487L554 1262H390L646 1638ZM1136 1063L1378 354L1578 942H1439V1063H1836V942H1711L1390 0H1146L921 666L694 0H452L130 942H14V1063H616V942H491L687
367L925 1063H1136Z" />
<glyph unicode="&#x176;" glyph-name="Ycircumflex" horiz-adv-x="1462" d="M1478 1906H1786L2009 1642H1845L1632 1803L1419 1642H1255L1478 1906ZM377 0V121H578V618L134 1372H7V1493H723V1372H557L893 803L1227 1372H1078V1493H1506V1372H1379L965 670V121H1166V0H377Z"
/>
<glyph unicode="&#x177;" glyph-name="ycircumflex" horiz-adv-x="1190" d="M359 1638H601L857 1262H693L480 1487L267 1262H103L359 1638ZM687 -240Q639 -357 571 -406T388 -455Q339 -455 279 -444T148 -412V-190L261 -191Q264 -268 297 -305T398 -342Q463 -342
503 -307T583 -172L599 -135L136 942H21V1063H634V942H507L777 313L1029 942H888V1063H1287V942H1158L687 -240Z" />
<glyph unicode="&#x178;" glyph-name="Ydieresis" horiz-adv-x="1462" d="M377 0V121H578V618L134 1372H7V1493H723V1372H557L893 803L1227 1372H1078V1493H1506V1372H1379L965 670V121H1166V0H377ZM1273 1776Q1273 1836 1317 1879T1421 1923Q1480 1923 1523 1880T1566
1776Q1566 1716 1524 1673T1421 1630Q1361 1630 1317 1673T1273 1776ZM1720 1776Q1720 1836 1763 1879T1867 1923Q1927 1923 1971 1880T2015 1776Q2015 1716 1971 1673T1867 1630Q1807 1630 1764 1673T1720 1776Z" />
<glyph unicode="&#x179;" glyph-name="Zacute" horiz-adv-x="1495" d="M1586 1900H1865L1568 1636H1404L1586 1900ZM34 0V141L925 1356H210V1133H73V1493H1369V1352L488 137H1242V346H1379V0H34Z" />
<glyph unicode="&#x17a;" glyph-name="zacute" horiz-adv-x="1163" d="M413 1591H692L319 1215H155L413 1591ZM35 0V121L645 946H186V764H67V1063H1057V944L446 119H938V311H1057V0H35Z" />
<glyph unicode="&#x17b;" glyph-name="Zdotaccent" horiz-adv-x="1495" d="M1282 1802Q1282 1862 1325 1905T1429 1949Q1489 1949 1532 1906T1576 1802Q1576 1742 1533 1699T1429 1656Q1369 1656 1326 1699T1282 1802ZM34 0V141L925 1356H210V1133H73V1493H1369V1352L488
137H1242V346H1379V0H34Z" />
<glyph unicode="&#x17c;" glyph-name="zdotaccent" horiz-adv-x="1163" d="M94 1665Q94 1725 137 1768T241 1811T344 1768T388 1665Q388 1606 345 1562T241 1518T138 1562T94 1665ZM35 0V121L645 946H186V764H67V1063H1057V944L446 119H938V311H1057V0H35Z" />
<glyph unicode="&#x17d;" glyph-name="Zcaron" horiz-adv-x="1495" d="M34 0V141L925 1356H210V1133H73V1493H1369V1352L488 137H1242V346H1379V0H34ZM1494 1635L1271 1899H1435L1648 1737L1861 1899H2025L1802 1635H1494Z" />
<glyph unicode="&#x17e;" glyph-name="zcaron" horiz-adv-x="1163" d="M35 0V121L645 946H186V764H67V1063H1057V944L446 119H938V311H1057V0H35ZM334 1262L78 1638H242L455 1411L668 1638H832L576 1262H334Z" />
<glyph unicode="&#x17f;" glyph-name="longs" horiz-adv-x="946" d="M522 121H727V0H17V121H168V942H10V1063H168V1196Q168 1373 281 1464T613 1556Q698 1556 779 1547T938 1518V1290H826Q818 1368 781 1406T674 1444Q594 1444 558 1386Q522 1324 522 1200V121Z" />
<glyph unicode="&#x180;" glyph-name="uni0180" horiz-adv-x="1340" d="M182 121V1196H24V1333H182V1436H30V1556H536V1333H895V1196H536V928Q581 1011 657 1051T845 1092Q1072 1092 1202 943T1333 532T1203 121T845 -29Q733 -29 657 11T536 135V0H30V121H182ZM536
479Q536 293 583 210T737 127Q846 127 890 215T935 532T891 848T737 936Q631 936 584 853T536 584V479Z" />
<glyph unicode="&#x181;" glyph-name="uni0181" horiz-adv-x="1904" d="M548 1493H1242Q1519 1493 1652 1401Q1789 1306 1789 1124Q1789 991 1695 913Q1600 835 1414 815Q1639 815 1759 695Q1879 596 1879 432Q1879 210 1711 105Q1544 0 1187 0H357V121H548V1372Q352
1372 283 1283Q213 1192 213 1006H15V1364Q98 1433 335 1476Q430 1493 548 1493ZM933 870H1064Q1236 870 1319 932Q1402 995 1402 1124Q1402 1254 1321 1313Q1241 1372 1064 1372H933V870ZM933 121H1076Q1267 121 1359 197T1451 432Q1451 592 1358 671T1076 750H933V121Z"
/>
<glyph unicode="&#x182;" glyph-name="uni0182" horiz-adv-x="1750" d="M603 121H747Q956 121 1048 197T1140 432Q1140 592 1047 671T747 750H603V121ZM27 1493H1477V1120H1342V1356H603V870H735Q1216 870 1392 736T1568 432Q1568 210 1401 105T858 0H27V121H218V1372H27V1493Z"
/>
<glyph unicode="&#x183;" glyph-name="uni0183" horiz-adv-x="1345" d="M528 479Q528 293 575 210Q623 127 729 127Q838 127 883 215Q927 303 927 532T883 848Q838 936 729 936Q623 936 575 853Q528 770 528 584V479ZM1127 1556V1268H1006V1436H528V928Q573 1011
649 1052Q725 1092 837 1092Q1064 1092 1195 942Q1325 793 1325 532T1195 121Q1064 -29 837 -29Q725 -29 649 12Q573 52 528 135V0H22V121H174V1436H22V1556H1127Z" />
<glyph unicode="&#x184;" glyph-name="uni0184" horiz-adv-x="1647" d="M681 870H813Q1017 870 1158 852Q1171 851 1181 849Q1378 815 1523 698Q1524 696 1526 695Q1646 596 1646 432Q1646 210 1479 105T936 0H105V121H296V834H9V955L681 1493V870ZM681 121H825Q1027
121 1120 193Q1123 195 1126 197Q1218 273 1218 432Q1218 592 1125 671Q1036 746 841 750Q833 750 825 750H681V121Z" />
<glyph unicode="&#x185;" glyph-name="uni0185" horiz-adv-x="1367" d="M565 479Q565 293 612 210T766 127Q875 127 919 215T964 532T920 848T766 936Q660 936 613 853T565 584V479ZM12 1008V1128L565 1557V928Q610 1011 686 1051T874 1092Q1101 1092 1231 943T1362
532T1232 121T874 -29Q762 -29 686 11T565 135V0H59V121H211L210 1008H12Z" />
<glyph unicode="&#x186;" glyph-name="uni0186" horiz-adv-x="1479" d="M20 1065Q79 1296 232 1408T643 1520Q1021 1520 1240 1312T1460 746Q1460 388 1241 180T643 -29Q510 -29 366 3T61 100V467H188Q227 279 330 186T602 92Q820 92 926 252T1032 746Q1032 1079
926 1239T600 1399Q451 1399 357 1316T219 1065H20Z" />
<glyph unicode="&#x187;" glyph-name="uni0187" horiz-adv-x="1792" d="M1452 426Q1393 195 1240 83T829 -29Q451 -29 232 180Q12 388 12 745Q12 1103 232 1312Q451 1520 829 1520Q962 1520 1106 1488Q1164 1475 1225 1457Q1242 1583 1326 1652Q1411 1721 1513
1721Q1573 1721 1641 1711T1782 1682V1457H1669Q1669 1537 1638 1572Q1608 1608 1542 1608Q1469 1608 1440 1561T1411 1391V1024H1284Q1245 1212 1142 1306Q1039 1399 870 1399Q652 1399 546 1238Q440 1078 440 745T546 252T872 92Q1021 92 1116 175Q1210 258 1253
426H1452Z" />
<glyph unicode="&#x188;" glyph-name="uni0188" horiz-adv-x="1420" d="M1076 332Q1038 150 921 60Q803 -29 601 -29Q317 -29 161 118T5 532Q5 796 159 944T587 1092Q697 1092 809 1071V1123Q809 1286 925 1370Q1040 1453 1143 1453Q1203 1453 1271 1443T1412
1414V1189H1299Q1299 1269 1267 1304Q1238 1340 1172 1340Q1099 1340 1070 1293T1041 1123V1008V713H929Q913 848 850 914Q787 979 673 979Q525 979 463 879Q400 779 400 532Q400 291 461 188Q522 84 660 84Q767 84 831 148Q896 212 910 332H1076Z" />
<glyph unicode="&#x189;" glyph-name="uni0189" horiz-adv-x="1790" d="M624 121H763Q997 121 1104 270T1212 748Q1212 1074 1105 1223T763 1372H624V850H956V713H624V121ZM47 0V121H239V713H26V850H239V1372H47V1493H815Q1215 1493 1427 1302T1640 748Q1640 385
1428 193T815 0H47Z" />
<glyph unicode="&#x18a;" glyph-name="uni018A" horiz-adv-x="1976" d="M549 1493H1124Q1526 1493 1739 1301T1952 748Q1952 385 1738 192Q1525 0 1124 0H358V121H549V1372Q353 1372 284 1283Q214 1192 214 1006H16V1364Q99 1433 336 1476Q431 1493 549 1493ZM934
121H1073Q1307 121 1416 271Q1524 421 1524 748Q1524 1073 1416 1222Q1308 1372 1073 1372H934V121Z" />
<glyph unicode="&#x18b;" glyph-name="uni018B" horiz-adv-x="1594" d="M991 1356H252V1120H117V1493H1567V1372H1376V121H1567V0H736Q361 0 194 105Q26 210 26 432Q26 596 146 695Q148 696 150 698Q294 815 491 849Q501 851 514 852Q655 870 859 870H991V1356ZM991
121V750H847H831Q636 750 547 671Q454 592 454 432Q454 273 546 197L552 193Q645 121 847 121H991Z" />
<glyph unicode="&#x18c;" glyph-name="uni018C" horiz-adv-x="1345" d="M817 479V584Q817 770 769 853Q722 936 616 936Q507 936 463 848Q418 761 418 532T463 215Q507 127 616 127Q722 127 769 210Q817 293 817 479ZM1322 1436H1171V121H1323V0H817V135Q772 52
696 12Q620 -29 508 -29Q281 -29 151 121Q20 271 20 532T151 942Q281 1092 508 1092Q620 1092 696 1052Q772 1011 817 928V1436H339V1268H218V1556H1322V1436Z" />
<glyph unicode="&#x18d;" glyph-name="uni018D" horiz-adv-x="1239" d="M947 41Q1110 -53 1110 -197Q1110 -366 977 -435L965 -441Q836 -504 619 -504Q519 -504 396 -491Q276 -478 160 -454V-241H272Q277 -277 293 -298Q303 -312 348 -345Q414 -391 521 -391Q641
-391 705 -343L738 -316Q777 -281 769 -193Q769 -29 619 -29Q336 -29 178 120Q19 269 19 531T179 942Q338 1092 619 1092T1059 942Q1219 793 1219 531Q1219 268 1059 120Q964 31 947 41ZM619 979Q507 979 461 883Q416 787 416 531T461 180Q506 84 619 84T778 180Q824
277 824 531T778 882T619 979Z" />
<glyph unicode="&#x18e;" glyph-name="uni018E" horiz-adv-x="1423" d="M1398 0H38V352H175V137H822V741H431V551H294V1067H431V877H822V1356H194V1141H56V1493H1398V1372H1207V121H1398V0Z" />
<glyph unicode="&#x18f;" glyph-name="uni018F" horiz-adv-x="1644" d="M1193 830Q1193 1099 1089 1238Q983 1398 763 1398Q614 1398 519 1315Q425 1232 382 1063H183Q242 1294 395 1407Q548 1519 806 1519Q1184 1519 1403 1310Q1623 1102 1623 745Q1623 383 1409
177Q1194 -29 818 -29Q441 -29 227 177T13 745V830H1193ZM1194 669H442Q442 388 535 254Q635 92 818 92Q1009 92 1102 253Q1194 395 1194 669Z" />
<glyph unicode="&#x190;" glyph-name="uni0190" horiz-adv-x="1311" d="M1230 1450V1151H1109Q1095 1274 1026 1338T788 1403Q619 1403 550 1336T480 1137Q480 1006 554 938T895 870H947V750H881Q602 750 516 662T429 416Q429 257 505 173T774 88Q905 88 995 157T1093
283H1292Q1246 172 1105 72T726 -29Q346 -29 184 82T22 403Q22 574 123 681T409 815Q249 844 166 928T83 1147Q83 1327 227 1423T718 1520Q850 1520 974 1503T1230 1450Z" />
<glyph unicode="&#x191;" glyph-name="uni0191" horiz-adv-x="1617" d="M351 -426Q187 -426 13 -358V-123H143Q143 -266 243 -296Q269 -305 302 -305Q399 -305 437 -230Q477 -155 476 49V1372H285V1493H1616V1141H1479V1356H863V877H1242V1067H1379V551H1242V741H863V41Q863
-222 718 -332Q594 -426 351 -426Z" />
<glyph unicode="&#x192;" glyph-name="florin" horiz-adv-x="1190" d="M1188 1290H1076Q1074 1305 1072 1318Q1061 1375 1031 1406Q993 1444 924 1444Q844 1444 808 1386Q772 1329 772 1200V1063H1039V942H772V-29Q772 -206 659 -298Q546 -389 327 -389Q242 -389
161 -380Q80 -370 2 -351V-123H114Q116 -138 118 -151Q129 -208 159 -239Q197 -277 266 -277Q346 -277 382 -220Q418 -162 418 -33V942H260V1063H418V1196Q418 1373 531 1464Q644 1556 863 1556Q948 1556 1029 1546Q1110 1537 1188 1518V1290Z" />
<glyph unicode="&#x193;" glyph-name="uni0193" horiz-adv-x="1847" d="M1276 1435Q1300 1590 1377 1652Q1462 1721 1564 1721Q1624 1721 1692 1711T1833 1682V1457H1720Q1720 1537 1688 1572Q1659 1608 1593 1608Q1520 1608 1491 1561T1462 1391V1024H1335Q1290
1222 1185 1310Q1080 1399 889 1399Q657 1399 548 1242Q440 1084 440 745Q440 409 544 250Q648 92 868 92Q952 92 1024 111T1155 168V578H975V698H1513V125Q1345 47 1178 9Q1010 -29 835 -29Q451 -29 232 178Q12 385 12 745Q12 1106 232 1313Q451 1520 835 1520Q1071
1520 1150 1488L1276 1435Z" />
<glyph unicode="&#x194;" glyph-name="uni0194" horiz-adv-x="1589" d="M674 710L194 1386H10V1493H691V1386H635L902 966L1213 1386H1014V1493H1576V1386H1383L979 855Q1544 90 1356 -44Q1154 -188 771 -188Q364 -188 293 12Q228 193 674 710ZM759 595Q442 212
444 80Q447 -70 771 -67Q1060 -65 1044 85Q1032 202 759 595Z" />
<glyph unicode="&#x195;" glyph-name="uni0195" horiz-adv-x="2022" d="M1256 346Q1256 120 1408 121Q1509 121 1572 233Q1634 345 1634 530Q1634 691 1592 787Q1539 908 1509 935V979H1638Q1814 915 1917 786Q2021 656 2021 514Q2021 406 1971 307Q1922 208 1830
135Q1747 68 1639 33Q1530 -3 1408 -3Q902 -3 902 348V686Q902 821 868 874Q833 926 748 926Q641 926 591 848Q541 769 541 598V121H671V0H36V121H187V1436H29V1556H541V913Q605 1008 687 1050T894 1092Q1073 1092 1164 986Q1256 881 1256 676V346Z" />
<glyph unicode="&#x196;" glyph-name="uni0196" horiz-adv-x="788" d="M195 337V1372H4V1493H772V1372H580V351Q580 220 619 160Q659 99 754 99V0H554Q353 0 316 24Q195 102 195 337Z" />
<glyph unicode="&#x197;" glyph-name="uni0197" horiz-adv-x="842" d="M37 0V121H228V713H15V850H228V1372H37V1493H805V1372H613V850H826V713H613V121H805V0H37Z" />
<glyph unicode="&#x198;" glyph-name="uni0198" horiz-adv-x="1817" d="M1390 1332L899 911L1628 121H1775V0H1269L604 725V121H796V0H28V121H219V1372H28V1493H796V1372H604V827L1237 1372Q1375 1491 1516 1493Q1568 1493 1644 1484Q1712 1474 1785 1455V1230H1672Q1672
1310 1640 1346Q1609 1384 1545 1381Q1441 1377 1390 1332Z" />
<glyph unicode="&#x199;" glyph-name="uni0199" horiz-adv-x="1406" d="M168 1226Q168 1389 283 1472Q399 1556 624 1556Q684 1556 752 1546T893 1517V1292H780Q780 1372 749 1408Q719 1443 653 1443Q580 1443 551 1396Q522 1347 522 1226V557L951 942H824V1063H1309V942H1112L838
696L1286 121H1401V0H791V121H916L621 500L522 412V121H656V0H17V121H168V1226Z" />
<glyph unicode="&#x19a;" glyph-name="uni019A" horiz-adv-x="686" d="M524 121H676V0H19V121H170V479H19V600H170V1436H19V1556H524V600H676V479H524V121Z" />
<glyph unicode="&#x19b;" glyph-name="uni019B" horiz-adv-x="1308" d="M1183 121H1306V0H907V121H1046L815 700L509 121H638V0H28V121H145L648 1109V1110L227 859L165 964L593 1220Q523 1345 457 1376Q413 1398 325 1400Q260 1400 225 1363Q191 1326 188 1249H75V1470Q149
1492 206 1502Q275 1514 315 1513Q541 1513 680 1272L892 1398L956 1293L736 1162L737 1160L1183 121Z" />
<glyph unicode="&#x19c;" glyph-name="uni019C" horiz-adv-x="2101" d="M900 174Q826 68 740 20T539 -29Q356 -29 266 74T175 387V1372H23V1493H656V1372H529V440Q529 241 559 189T673 137Q767 137 819 209T871 416V1372H744V1493H1352V1372H1225V440Q1225 241
1256 189T1369 137Q1464 137 1516 209T1568 416V1372H1441V1493H2073V1372H1922V121H2073V0H1568V150Q1506 57 1426 14T1236 -29Q1106 -29 1025 20T900 174Z" />
<glyph unicode="&#x19d;" glyph-name="uni019D" horiz-adv-x="1992" d="M17 -358V-123H147Q147 -266 247 -296Q273 -305 306 -305Q403 -305 441 -230Q480 -156 480 49V1372H289V1493H756L1657 436V1372H1467V1493H1989V1372H1798V0H1536L621 1079V41Q621 -244
511 -348Q430 -426 289 -426Q272 -426 188 -409T17 -358Z" />
<glyph unicode="&#x19e;" glyph-name="uni019E" horiz-adv-x="1392" d="M4 0V121H155V942H4V1063H509V913Q573 1008 655 1050T862 1092Q1041 1092 1132 986Q1224 880 1224 676V-305H1375V-426H740V-305H870V686Q870 821 836 874Q801 926 716 926Q609 926 559 848Q509
769 509 598V121H639V0H4Z" />
<glyph unicode="&#x19f;" glyph-name="uni019F" horiz-adv-x="1652" d="M826 -29Q449 -29 235 177T21 745T235 1313T826 1520Q1203 1520 1417 1314T1631 745Q1631 383 1417 177T826 -29ZM826 92Q1017 92 1110 253Q1192 395 1202 669H450Q460 398 543 254Q636 92
826 92ZM451 830H1201Q1191 1098 1110 1238Q1017 1399 826 1399Q636 1399 543 1236Q462 1096 451 830Z" />
<glyph unicode="&#x1a0;" glyph-name="Ohorn" horiz-adv-x="1784" d="M827 92Q1018 92 1111 253T1204 745Q1204 1077 1111 1238T827 1399Q637 1399 544 1237T450 745Q450 417 543 255T827 92ZM827 -29Q450 -29 236 177T22 745Q22 1107 236 1313T827 1520Q1204
1520 1418 1314T1632 745Q1632 383 1418 177T827 -29ZM1625 1248V1374Q1690 1325 1727 1306T1793 1286Q1834 1286 1856 1314T1879 1394Q1879 1433 1871 1473T1848 1552H2004Q2015 1498 2020 1450T2026 1360Q2026 1247 1980 1185T1850 1122Q1798 1122 1744 1152T1625
1248Z" />
<glyph unicode="&#x1a1;" glyph-name="ohorn" horiz-adv-x="1366" d="M622 84Q734 84 779 180T825 532Q825 788 780 883T622 979Q509 979 463 883T417 532Q417 278 463 181T622 84ZM622 -29Q341 -29 182 120T22 532Q22 795 181 943T622 1092Q904 1092 1063 944T1222
532Q1222 270 1063 121T622 -29ZM1367 818V944Q1432 895 1469 876T1535 856Q1576 856 1598 884T1621 964Q1621 1003 1613 1043T1590 1122H1746Q1757 1068 1762 1020T1768 930Q1768 817 1722 755T1592 692Q1540 692 1486 722T1367 818Z" />
<glyph unicode="&#x1a2;" glyph-name="uni01A2" horiz-adv-x="2305" d="M813 -29Q436 -29 222 177T8 745T222 1313T813 1520Q1067 1520 1247 1426Q1333 1459 1415 1476Q1499 1493 1582 1493Q1849 1493 1971 1381T2094 1026V-230H2285V-351H1516V-230H1707V1018Q1707
1223 1669 1297T1533 1372Q1457 1372 1419 1328Q1412 1321 1406 1312Q1618 1106 1618 745Q1618 383 1404 177T813 -29ZM813 92Q1004 92 1097 253T1190 745Q1190 1077 1097 1238T813 1399Q623 1399 530 1237T436 745Q436 417 529 255T813 92Z" />
<glyph unicode="&#x1a3;" glyph-name="uni01A3" horiz-adv-x="1823" d="M1285 -305L1286 733Q1286 856 1257 903Q1228 950 1155 950Q1097 950 1067 923Q1205 777 1205 532Q1205 270 1046 121T605 -29T165 120T5 532Q5 795 164 943T605 1092Q792 1092 925 1027Q993
1044 1056 1053Q1124 1063 1184 1063Q1409 1063 1524 980T1640 733V-305H1804V-426H1134V-305H1285ZM605 84Q717 84 762 180T808 532T763 883T605 979T446 883T400 532T446 181T605 84Z" />
<glyph unicode="&#x1a4;" glyph-name="uni01A4" horiz-adv-x="1757" d="M547 1493H1206Q1455 1493 1602 1374Q1749 1256 1749 1057Q1749 857 1602 738Q1454 618 1206 618H932V121H1173V0H356V121H547V1372Q351 1372 282 1283Q212 1192 212 1006H14V1364Q97 1433
334 1476Q429 1493 547 1493ZM932 739H1044Q1174 739 1252 826Q1329 912 1329 1057Q1329 1201 1252 1286Q1175 1372 1044 1372H932V739Z" />
<glyph unicode="&#x1a5;" glyph-name="uni01A5" horiz-adv-x="1322" d="M522 584V479Q522 293 569 210Q617 127 723 127Q832 127 877 215Q921 303 921 532T877 848Q832 936 723 936Q617 936 569 853Q522 770 522 584ZM168 -305V1123Q168 1286 283 1370Q399 1453
624 1453Q684 1453 752 1443T893 1414V1189H780Q780 1269 749 1304Q719 1340 653 1340Q580 1340 551 1293T522 1123V928Q567 1011 643 1052Q719 1092 831 1092Q1058 1092 1189 942Q1319 793 1319 532T1189 121Q1058 -29 831 -29Q719 -29 643 12Q567 52 522 135V-305H686V-426H16V-305H168Z"
/>
<glyph unicode="&#x1a6;" glyph-name="uni01A6" horiz-adv-x="1630" d="M201 1372H10V1493H774V1372H586V1202H862Q1122 1202 1263 1098T1405 801Q1405 645 1305 555T1001 438Q1090 425 1151 379Q1211 334 1257 246L1475 -170H1628V-291H1137L899 160Q822 307
782 338Q733 377 647 377H586L582 121H774V0H6V121H197L201 1372ZM586 497H717Q857 497 932 573T1008 790T933 1006T717 1081H586V497Z" />
<glyph unicode="&#x1a7;" glyph-name="uni01A7" horiz-adv-x="1269" d="M1220 72Q1071 21 927 -4T637 -29Q334 -29 178 88Q22 206 22 432Q22 625 115 735Q209 845 417 897L641 952Q844 1004 896 1052Q948 1101 948 1194Q948 1296 873 1348Q797 1399 649 1399Q468
1399 370 1328Q272 1256 243 1102H116V1432Q268 1476 409 1498Q551 1520 682 1520Q948 1520 1095 1396Q1243 1273 1243 1051Q1243 867 1154 768Q1065 668 846 612L622 557Q450 514 395 464T340 324Q340 210 421 151T657 92Q848 92 956 175T1093 426H1220V72Z" />
<glyph unicode="&#x1a8;" glyph-name="uni01A8" horiz-adv-x="1033" d="M997 31Q873 1 762 -14T552 -29Q281 -29 152 56Q24 142 24 322Q24 461 104 539T393 670L538 707Q621 728 653 759T685 844Q685 910 630 944Q574 979 466 979Q338 979 270 924Q201 869 192
760H79V1028Q208 1061 314 1076Q421 1092 515 1092Q765 1092 885 1008Q1005 923 1005 750Q1005 620 931 544Q857 467 692 426L546 389Q441 363 404 328Q368 293 368 229Q368 159 426 122Q483 84 591 84Q720 84 795 146Q870 209 884 328H997V31Z" />
<glyph unicode="&#x1a9;" glyph-name="uni01A9" horiz-adv-x="1448" d="M21 0L685 748L21 1493H1248V1161H1125V1356H614L1012 886L464 278H1125V422H1248V0H21Z" />
<glyph unicode="&#x1aa;" glyph-name="uni01AA" horiz-adv-x="951" d="M898 1523Q898 1434 851 1353Q815 1290 719 1235Q719 1231 718 1227L517 -100Q499 -216 553 -287Q596 -344 669 -344Q738 -344 775 -306T821 -190H933V-418Q855 -437 774 -446T608 -456Q401
-456 276 -365Q138 -263 163 -96L350 1133Q313 1131 275 1131Q212 1131 164 1142Q13 1179 13 1331Q13 1553 361 1556Q490 1557 603 1473Q677 1418 705 1349Q730 1372 748 1400Q776 1444 788 1523H898ZM363 1223L364 1227Q383 1351 335 1397Q306 1425 277 1427Q145
1434 145 1346Q145 1219 329 1221Q346 1221 363 1223Z" />
<glyph unicode="&#x1ab;" glyph-name="uni01AB" horiz-adv-x="898" d="M161 942H7V1063H161V1393H515V1063H810V942H515V291Q515 152 537 118T617 84H894V-125Q894 -288 779 -371T438 -455Q378 -455 310 -445T169 -416V-191H282Q284 -271 313 -306T409 -342Q481
-342 511 -295Q540 -250 540 -125V-29Q538 -29 536 -29Q317 -29 239 39T161 291V942Z" />
<glyph unicode="&#x1ac;" glyph-name="uni01AC" horiz-adv-x="1489" d="M544 1356Q336 1356 279 1283Q209 1192 209 1006H11V1364Q94 1433 331 1476Q426 1493 544 1493H1478V1120H1343V1356H931V121H1130V0H346V121H544V1356Z" />
<glyph unicode="&#x1ad;" glyph-name="uni01AD" horiz-adv-x="924" d="M161 942H7V1063H161V1226Q161 1389 276 1472Q392 1556 617 1556Q677 1556 745 1546T886 1517V1292H773Q771 1372 742 1408Q712 1443 646 1443Q576 1443 544 1396Q515 1354 515 1226V1063H810V942H515V291Q515
152 537 118T617 84Q681 84 712 127T745 260H894Q894 100 806 36Q728 -29 536 -29Q317 -29 239 40Q161 108 161 291V942Z" />
<glyph unicode="&#x1ae;" glyph-name="uni01AE" horiz-adv-x="1513" d="M549 41V1356H140V1120H3V1493H1483V1120H1348V1356H936V49Q936 -156 974 -230Q1013 -305 1110 -305Q1186 -305 1224 -261Q1263 -217 1269 -123H1399V-358Q1312 -392 1228 -409T1061 -426Q794
-426 672 -314Q549 -202 549 41Z" />
<glyph unicode="&#x1af;" glyph-name="Uhorn" horiz-adv-x="1786" d="M210 1372H20V1493H788V1372H597V625Q597 346 684 235T982 123Q1188 123 1274 235T1361 625V1372H1171V1493H1691V1372H1500V604Q1500 262 1352 117T855 -29Q508 -29 359 118T210 606V1372ZM1989
1367V1493Q2054 1444 2091 1425T2157 1405Q2198 1405 2220 1433T2243 1513Q2243 1552 2235 1592T2212 1671H2368Q2379 1617 2384 1569T2390 1479Q2390 1366 2344 1304T2214 1241Q2162 1241 2108 1271T1989 1367Z" />
<glyph unicode="&#x1b0;" glyph-name="uhorn" horiz-adv-x="1489" d="M1242 1063V121H1393V0H887V150Q824 55 742 13T535 -29Q356 -29 265 76T173 387V942H21V1063H527V442Q527 244 560 191T681 137Q788 137 837 216T887 467V942H758V1063H1242ZM1490 818V944Q1555
895 1592 876T1658 856Q1699 856 1721 884T1744 964Q1744 1003 1736 1043T1713 1122H1869Q1880 1068 1885 1020T1891 930Q1891 817 1845 755T1715 692Q1663 692 1609 722T1490 818Z" />
<glyph unicode="&#x1b1;" glyph-name="uni01B1" horiz-adv-x="1693" d="M509 1336H175V1211H38V1520H771V1327Q615 1295 535 1143T455 725Q455 430 555 276Q655 121 847 121T1139 276Q1238 430 1238 727Q1238 988 1157 1142Q1076 1295 922 1327V1520H1656V1211H1520V1336H1185Q1422
1244 1544 1084Q1666 923 1666 703Q1666 387 1441 194Q1217 0 847 0T252 194Q27 387 27 703Q27 923 149 1084Q271 1244 509 1336Z" />
<glyph unicode="&#x1b2;" glyph-name="uni01B2" horiz-adv-x="1602" d="M767 121Q959 121 1058 275T1158 727Q1158 990 1077 1142Q1007 1272 947 1272V1372H1067Q1314 1282 1464 1084Q1586 923 1586 703Q1586 387 1362 194T767 0H567Q366 0 329 24Q208 102 208
337V1372H17V1493H785V1372H593V373Q593 244 632 182Q670 121 767 121Z" />
<glyph unicode="&#x1b3;" glyph-name="uni01B3" horiz-adv-x="1707" d="M1229 1372Q1301 1495 1473 1495Q1522 1495 1560 1485Q1628 1475 1701 1456V1231H1588Q1586 1311 1557 1346T1461 1382Q1387 1382 1359 1335L967 670V121H1168V0H379V121H580V618L136 1372H9V1493H725V1372H559L895
803L1229 1372Z" />
<glyph unicode="&#x1b4;" glyph-name="uni01B4" horiz-adv-x="1497" d="M1155 932L684 -240Q636 -357 568 -406T385 -455Q336 -455 276 -444T145 -412V-190L258 -191Q261 -268 294 -305T395 -342Q460 -342 500 -307T580 -172L596 -135L133 942H18V1063H631V942H504L774
313L1026 942Q1087 1093 1257 1092Q1288 1092 1356 1082T1497 1053V828H1384Q1382 908 1353 943T1257 979Q1176 983 1155 932Z" />
<glyph unicode="&#x1b5;" glyph-name="uni01B5" horiz-adv-x="1416" d="M34 0V141L453 713H190V850H554L925 1356H210V1133H73V1493H1369V1352L1005 850H1262V713H906L488 137H1242V346H1379V0H34Z" />
<glyph unicode="&#x1b6;" glyph-name="uni01B6" horiz-adv-x="1096" d="M939 600V479H713L446 119H938V311H1057V0H35V121L300 479H150V600H389L645 946H186V764H67V1063H1057V944L802 600H939Z" />
<glyph unicode="&#x1b7;" glyph-name="uni01B7" horiz-adv-x="1200" d="M690 839Q911 818 1022 734Q1182 613 1182 403Q1182 194 1017 83T537 -29Q419 -29 294 -9T31 51V379H152Q163 237 241 163T457 88Q609 88 692 172T775 412Q775 574 689 662T443 750H377V974L642
1356H212V1133H75V1493H1054V1356L690 839Z" />
<glyph unicode="&#x1b8;" glyph-name="uni01B8" horiz-adv-x="1200" d="M510 839L146 1356V1493H1125V1133H988V1356H558L823 974V750H757Q598 750 512 662T425 412Q425 257 508 173T743 88Q881 88 959 162T1048 379H1169V51Q1032 11 907 -9T663 -29Q349 -29 184
82T18 403Q18 613 178 734Q289 818 510 839Z" />
<glyph unicode="&#x1b9;" glyph-name="uni01B9" horiz-adv-x="1201" d="M510 452Q510 452 146 944V1063H1136V764H1017V946H558L823 588V363H757Q598 363 512 275T425 25Q425 -130 508 -214T743 -299Q881 -299 959 -225T1048 -8H1169V-336Q1032 -376 907 -396T663
-416Q349 -416 184 -305T18 16Q18 226 178 347Q289 431 510 452Z" />
<glyph unicode="&#x1ba;" glyph-name="uni01BA" horiz-adv-x="1172" d="M413 363H347V588L612 946H153V764H34V1063H1024V944L660 452Q1152 405 1152 216Q1152 79 798 4T444 -228Q444 -356 687 -356T1023 -168H1136V-352Q902 -450 470 -450T38 -256Q38 -96 391
-2T745 225Q745 363 413 363Z" />
<glyph unicode="&#x1bb;" glyph-name="uni01BB" horiz-adv-x="1222" d="M168 1124H48V1446Q170 1483 289 1501T531 1520Q816 1520 975 1404T1135 1079Q1135 954 1072 850H1202V713H951Q860 633 711 535L295 262H1002V438H1139V0H35V244L256 397Q523 582 621 713H130V850H695Q727
942 727 1049Q727 1222 656 1312T447 1403Q329 1403 258 1332T168 1124Z" />
<glyph unicode="&#x1bc;" glyph-name="uni01BC" horiz-adv-x="1376" d="M946 840Q1141 809 1237 707T1333 403Q1333 194 1168 83T688 -29Q570 -29 445 -9T182 51V379H303Q314 237 392 163T608 88Q760 88 843 172T926 412Q926 574 840 662T594 750H207V1372H16V1493H1347V1141H1210V1356H594V870Q765
869 946 840Z" />
<glyph unicode="&#x1bd;" glyph-name="uni01BD" horiz-adv-x="1207" d="M690 472Q953 419 1022 367Q1182 246 1182 16Q1182 -193 1017 -304T537 -416Q419 -416 294 -396T31 -336V-8H152Q163 -150 241 -224T457 -299Q609 -299 692 -215T775 25Q775 187 689 275T443
363H180V942H29V1063H1133V774H1012V942H534V483Q647 481 690 472Z" />
<glyph unicode="&#x1be;" glyph-name="uni01BE" horiz-adv-x="754" d="M174 1393H528V1049H676V928H528V787Q555 779 644 702Q742 617 742 380Q742 156 644 63T286 -30Q214 -30 148 -14T20 36L17 234H130Q134 152 161 118Q190 83 280 83Q382 83 407 130Q432 178
436 412Q440 623 394 666Q363 696 290 696H174V928H19V1049H174V1393Z" />
<glyph unicode="&#x1bf;" glyph-name="uni01BF" horiz-adv-x="1372" d="M525 15Q1015 349 1015 769Q1015 882 951 924T760 967Q658 967 525 784V15ZM525 955Q675 1147 996 1147Q1200 1147 1284 1026T1369 769Q1369 349 525 -132V-305H689V-426H19V-305H171V942H19V1063H525V955Z"
/>
<glyph unicode="&#x1c0;" glyph-name="uni01C0" horiz-adv-x="296" d="M255 1493V0H39V1493H255Z" />
<glyph unicode="&#x1c1;" glyph-name="uni01C1" horiz-adv-x="1008" d="M255 1493V0H39V1493H255ZM659 1493V0H443V1493H659Z" />
<glyph unicode="&#x1c2;" glyph-name="uni01C2" horiz-adv-x="904" d="M344 851H0V1013H344V1493H560V1013H904V851H560V642H904V480H560V0H344V480H0V642H344V851Z" />
<glyph unicode="&#x1c3;" glyph-name="uni01C3" horiz-adv-x="290" d="M252 216V0H36V216H252ZM252 1493V432H36V1493H252Z" />
<glyph unicode="&#x1c4;" glyph-name="uni01C4" horiz-adv-x="3129" d="M1762 0V141L2653 1356H1938V1133H1801V1493H3097V1352L2216 137H2970V346H3107V0H1762ZM2280 1635L2057 1899H2221L2434 1737L2647 1899H2811L2588 1635H2280ZM582 121H721Q955 121 1063
271T1172 748Q1172 1073 1064 1222T721 1372H582V121ZM6 0V121H197V1372H6V1493H772Q1174 1493 1387 1301T1600 748Q1600 385 1387 193T772 0H6Z" />
<glyph unicode="&#x1c5;" glyph-name="uni01C5" horiz-adv-x="2825" d="M1772 0V121L2382 946H1923V764H1804V1063H2794V944L2183 119H2675V311H2794V0H1772ZM2161 1262L1905 1638H2069L2282 1411L2495 1638H2659L2403 1262H2161ZM596 121H735Q969 121 1077 271T1186
748Q1186 1073 1078 1222T735 1372H596V121ZM20 0V121H211V1372H20V1493H786Q1188 1493 1401 1301T1614 748Q1614 385 1401 193T786 0H20Z" />
<glyph unicode="&#x1c6;" glyph-name="uni01C6" horiz-adv-x="2481" d="M1433 0V121L2043 946H1584V764H1465V1063H2455V944L1844 119H2336V311H2455V0H1433ZM1822 1262L1566 1638H1730L1943 1411L2156 1638H2320L2064 1262H1822ZM808 479V584Q808 770 760 853T607
936Q497 936 453 849T408 532Q408 303 453 215T607 127Q712 127 760 210T808 479ZM1162 121H1313V0H808V135Q763 52 687 12T498 -29Q272 -29 143 121T13 532Q13 794 142 943T498 1092Q610 1092 686 1052T808 928V1436H656V1556H1162V121Z" />
<glyph unicode="&#x1c7;" glyph-name="uni01C7" horiz-adv-x="2409" d="M1446 -358V-123H1576Q1582 -217 1620 -261T1735 -305Q1832 -305 1870 -231T1909 49V1372H1692V1493H2487V1372H2296V41Q2296 -202 2174 -314T1784 -426Q1701 -426 1617 -409T1446 -358ZM25
0V121H216V1372H25V1493H793V1372H601V137H1189V373H1324V0H25Z" />
<glyph unicode="&#x1c8;" glyph-name="uni01C8" horiz-adv-x="2181" d="M1770 1364Q1770 1445 1825 1500T1963 1556Q2041 1556 2097 1500T2153 1364Q2153 1285 2098 1230T1963 1174Q1882 1174 1826 1229T1770 1364ZM1811 942H1660V1063H2165V-125Q2165 -288 2050
-371T1709 -455Q1649 -455 1581 -445T1440 -416V-190L1553 -191Q1555 -271 1584 -306T1680 -342Q1753 -342 1782 -295T1811 -125V942ZM25 0V121H216V1372H25V1493H793V1372H601V137H1189V373H1324V0H25Z" />
<glyph unicode="&#x1c9;" glyph-name="uni01C9" horiz-adv-x="1519" d="M1108 1364Q1108 1445 1163 1500T1301 1556Q1379 1556 1435 1500T1491 1364Q1491 1285 1436 1230T1301 1174Q1220 1174 1164 1229T1108 1364ZM1149 942H998V1063H1503V-125Q1503 -288 1388
-371T1047 -455Q987 -455 919 -445T778 -416V-190L891 -191Q893 -271 922 -306T1018 -342Q1091 -342 1120 -295T1149 -125V942ZM522 121H674V0H17V121H168V1436H17V1556H522V121Z" />
<glyph unicode="&#x1ca;" glyph-name="uni01CA" horiz-adv-x="2841" d="M1878 -358V-123H2008Q2014 -217 2052 -261T2167 -305Q2264 -305 2302 -231T2341 49V1372H2124V1493H2919V1372H2728V41Q2728 -202 2606 -314T2216 -426Q2133 -426 2049 -409T1878 -358ZM28
0V121H219V1372H28V1493H495L1396 436V1372H1206V1493H1728V1372H1537V0H1275L360 1079V121H550V0H28Z" />
<glyph unicode="&#x1cb;" glyph-name="uni01CB" horiz-adv-x="2613" d="M2202 1364Q2202 1445 2257 1500T2395 1556Q2473 1556 2529 1500T2585 1364Q2585 1285 2530 1230T2395 1174Q2314 1174 2258 1229T2202 1364ZM2243 942H2092V1063H2597V-125Q2597 -288 2482
-371T2141 -455Q2081 -455 2013 -445T1872 -416V-190L1985 -191Q1987 -271 2016 -306T2112 -342Q2185 -342 2214 -295T2243 -125V942ZM28 0V121H219V1372H28V1493H495L1396 436V1372H1206V1493H1728V1372H1537V0H1275L360 1079V121H550V0H28Z" />
<glyph unicode="&#x1cc;" glyph-name="uni01CC" horiz-adv-x="2230" d="M1819 1364Q1819 1445 1874 1500T2012 1556Q2090 1556 2146 1500T2202 1364Q2202 1285 2147 1230T2012 1174Q1931 1174 1875 1229T1819 1364ZM1860 942H1709V1063H2214V-125Q2214 -288 2099
-371T1758 -455Q1698 -455 1630 -445T1489 -416V-190L1602 -191Q1604 -271 1633 -306T1729 -342Q1802 -342 1831 -295T1860 -125V942ZM27 0V121H178V942H27V1063H532V913Q596 1008 678 1050T885 1092Q1064 1092 1155 987T1247 676V121H1399V0H764V121H893V686Q893
821 859 873T739 926Q632 926 582 848T532 598V121H662V0H27Z" />
<glyph unicode="&#x1cd;" glyph-name="uni01CD" horiz-adv-x="1589" d="M4 0V121H126L688 1493H927L1490 121H1632V0H933V121H1079L956 426H395L270 121H448V0H4ZM444 547H907L677 1118L444 547ZM1518 1635L1295 1899H1459L1672 1737L1885 1899H2049L1826 1635H1518Z" />
<glyph unicode="&#x1ce;" glyph-name="uni01CE" horiz-adv-x="1327" d="M1070 653V121H1222V0H716V135Q646 51 560 11T364 -29Q201 -29 114 58T26 309Q26 488 151 577T530 666H716V729Q716 858 655 919T466 981Q360 981 303 938T221 795H108V1024Q203 1058 305
1075T520 1092Q805 1092 937 986T1070 653ZM716 334V547H583Q484 547 431 493T378 338Q378 237 416 187T534 137Q616 137 666 191T716 334ZM354 1262L98 1638H262L475 1411L688 1638H852L596 1262H354Z" />
<glyph unicode="&#x1cf;" glyph-name="uni01CF" horiz-adv-x="958" d="M17 0V121H208V1372H17V1493H785V1372H593V121H785V0H17ZM1228 1635L1005 1899H1169L1382 1737L1595 1899H1759L1536 1635H1228Z" />
<glyph unicode="&#x1d0;" glyph-name="uni01D0" horiz-adv-x="778" d="M531 121H683V0H26V121H177V942H26V1063H531V121ZM399 1262L143 1638H307L520 1411L733 1638H897L641 1262H399Z" />
<glyph unicode="&#x1d1;" glyph-name="uni01D1" horiz-adv-x="1784" d="M827 92Q1018 92 1111 253T1204 745Q1204 1077 1111 1238T827 1399Q637 1399 544 1237T450 745Q450 417 543 255T827 92ZM827 -29Q450 -29 236 177T22 745Q22 1107 236 1313T827 1520Q1204
1520 1418 1314T1632 745Q1632 383 1418 177T827 -29ZM1640 1635L1417 1899H1581L1794 1737L2007 1899H2171L1948 1635H1640Z" />
<glyph unicode="&#x1d2;" glyph-name="uni01D2" horiz-adv-x="1366" d="M621 84Q733 84 778 180T824 532Q824 788 779 883T621 979Q508 979 462 883T416 532Q416 278 462 181T621 84ZM621 -29Q340 -29 181 120T21 532Q21 795 180 943T621 1092Q903 1092 1062 944T1221
532Q1221 270 1062 121T621 -29ZM436 1262L180 1638H344L557 1411L770 1638H934L678 1262H436Z" />
<glyph unicode="&#x1d3;" glyph-name="uni01D3" horiz-adv-x="1786" d="M204 1372H14V1493H782V1372H591V625Q591 346 678 235T976 123Q1182 123 1268 235T1355 625V1372H1165V1493H1685V1372H1494V604Q1494 262 1346 117T849 -29Q502 -29 353 118T204 606V1372ZM1690
1635L1467 1899H1631L1844 1737L2057 1899H2221L1998 1635H1690Z" />
<glyph unicode="&#x1d4;" glyph-name="uni01D4" horiz-adv-x="1489" d="M1238 1063V121H1389V0H883V150Q820 55 738 13T531 -29Q352 -29 261 76T169 387V942H17V1063H523V442Q523 244 556 191T677 137Q784 137 833 216T883 467V942H754V1063H1238ZM456 1262L200
1638H364L577 1411L790 1638H954L698 1262H456Z" />
<glyph unicode="&#x1d5;" glyph-name="uni01D5" horiz-adv-x="1684" d="M509 1747Q509 1807 553 1850T657 1894Q716 1894 759 1851T802 1747Q802 1687 760 1644T657 1601Q597 1601 553 1644T509 1747ZM956 1747Q956 1807 999 1850T1103 1894Q1163 1894 1207 1851T1251
1747Q1251 1687 1207 1644T1103 1601Q1043 1601 1000 1644T956 1747ZM565 2122H1195V1934H565V2122ZM196 1372H6V1493H774V1372H583V625Q583 346 670 235T968 123Q1174 123 1260 235T1347 625V1372H1157V1493H1677V1372H1486V604Q1486 262 1338 117T841 -29Q494
-29 345 118T196 606V1372Z" />
<glyph unicode="&#x1d6;" glyph-name="uni01D6" horiz-adv-x="1386" d="M296 1467Q296 1527 340 1570T444 1614Q503 1614 546 1571T589 1467Q589 1407 547 1364T444 1321Q384 1321 340 1364T296 1467ZM743 1467Q743 1527 786 1570T890 1614Q950 1614 994 1571T1038
1467Q1038 1407 994 1364T890 1321Q830 1321 787 1364T743 1467ZM352 1842H982V1654H352V1842ZM1228 1063V121H1379V0H873V150Q810 55 728 13T521 -29Q342 -29 251 76T159 387V942H7V1063H513V442Q513 244 546 191T667 137Q774 137 823 216T873 467V942H744V1063H1228Z"
/>
<glyph unicode="&#x1d7;" glyph-name="uni01D7" horiz-adv-x="1682" d="M507 1747Q507 1807 551 1850T655 1894Q714 1894 757 1851T800 1747Q800 1687 758 1644T655 1601Q595 1601 551 1644T507 1747ZM954 1747Q954 1807 997 1850T1101 1894Q1161 1894 1205 1851T1249
1747Q1249 1687 1205 1644T1101 1601Q1041 1601 998 1644T954 1747ZM938 2165H1217L920 1901H756L938 2165ZM194 1372H4V1493H772V1372H581V625Q581 346 668 235T966 123Q1172 123 1258 235T1345 625V1372H1155V1493H1675V1372H1484V604Q1484 262 1336 117T839
-29Q492 -29 343 118T194 606V1372Z" />
<glyph unicode="&#x1d8;" glyph-name="uni01D8" horiz-adv-x="1382" d="M293 1467Q293 1527 337 1570T441 1614Q500 1614 543 1571T586 1467Q586 1407 544 1364T441 1321Q381 1321 337 1364T293 1467ZM740 1467Q740 1527 783 1570T887 1614Q947 1614 991 1571T1035
1467Q1035 1407 991 1364T887 1321Q827 1321 784 1364T740 1467ZM724 1885H1003L706 1621H542L724 1885ZM1225 1063V121H1376V0H870V150Q807 55 725 13T518 -29Q339 -29 248 76T156 387V942H4V1063H510V442Q510 244 543 191T664 137Q771 137 820 216T870 467V942H741V1063H1225Z"
/>
<glyph unicode="&#x1d9;" glyph-name="uni01D9" horiz-adv-x="1684" d="M509 1747Q509 1807 553 1850T657 1894Q716 1894 759 1851T802 1747Q802 1687 760 1644T657 1601Q597 1601 553 1644T509 1747ZM956 1747Q956 1807 999 1850T1103 1894Q1163 1894 1207 1851T1251
1747Q1251 1687 1207 1644T1103 1601Q1043 1601 1000 1644T956 1747ZM726 1901L503 2165H667L880 2003L1093 2165H1257L1034 1901H726ZM196 1372H6V1493H774V1372H583V625Q583 346 670 235T968 123Q1174 123 1260 235T1347 625V1372H1157V1493H1677V1372H1486V604Q1486
262 1338 117T841 -29Q494 -29 345 118T196 606V1372Z" />
<glyph unicode="&#x1da;" glyph-name="uni01DA" horiz-adv-x="1387" d="M297 1467Q297 1527 341 1570T445 1614Q504 1614 547 1571T590 1467Q590 1407 548 1364T445 1321Q385 1321 341 1364T297 1467ZM744 1467Q744 1527 787 1570T891 1614Q951 1614 995 1571T1039
1467Q1039 1407 995 1364T891 1321Q831 1321 788 1364T744 1467ZM514 1621L291 1885H455L668 1723L881 1885H1045L822 1621H514ZM1229 1063V121H1380V0H874V150Q811 55 729 13T522 -29Q343 -29 252 76T160 387V942H8V1063H514V442Q514 244 547 191T668 137Q775
137 824 216T874 467V942H745V1063H1229Z" />
<glyph unicode="&#x1db;" glyph-name="uni01DB" horiz-adv-x="1681" d="M508 1747Q508 1807 552 1850T656 1894Q715 1894 758 1851T801 1747Q801 1687 759 1644T656 1601Q596 1601 552 1644T508 1747ZM955 1747Q955 1807 998 1850T1102 1894Q1162 1894 1206 1851T1250
1747Q1250 1687 1206 1644T1102 1601Q1042 1601 999 1644T955 1747ZM805 2165L987 1901H823L526 2165H805ZM195 1372H5V1493H773V1372H582V625Q582 346 669 235T967 123Q1173 123 1259 235T1346 625V1372H1156V1493H1676V1372H1485V604Q1485 262 1337 117T840 -29Q493
-29 344 118T195 606V1372Z" />
<glyph unicode="&#x1dc;" glyph-name="uni01DC" horiz-adv-x="1383" d="M296 1467Q296 1527 340 1570T444 1614Q503 1614 546 1571T589 1467Q589 1407 547 1364T444 1321Q384 1321 340 1364T296 1467ZM743 1467Q743 1527 786 1570T890 1614Q950 1614 994 1571T1038
1467Q1038 1407 994 1364T890 1321Q830 1321 787 1364T743 1467ZM593 1885L775 1621H611L314 1885H593ZM1228 1063V121H1379V0H873V150Q810 55 728 13T521 -29Q342 -29 251 76T159 387V942H7V1063H513V442Q513 244 546 191T667 137Q774 137 823 216T873 467V942H744V1063H1228Z"
/>
<glyph unicode="&#x1dd;" glyph-name="uni01DD" horiz-adv-x="1303" d="M406 463Q406 253 445 169T578 84Q669 84 708 167T748 445V463H406ZM17 582H748V590Q748 796 686 887T486 979Q371 979 300 918T209 741H43Q86 922 214 1007T572 1092Q848 1092 995 947T1143
531Q1143 267 992 119T572 -29Q308 -29 167 126T17 582Z" />
<glyph unicode="&#x1de;" glyph-name="uni01DE" horiz-adv-x="1635" d="M421 1747Q421 1807 465 1850T569 1894Q628 1894 671 1851T714 1747Q714 1687 672 1644T569 1601Q509 1601 465 1644T421 1747ZM868 1747Q868 1807 911 1850T1015 1894Q1075 1894 1119 1851T1163
1747Q1163 1687 1119 1644T1015 1601Q955 1601 912 1644T868 1747ZM477 2122H1107V1934H477V2122ZM4 0V121H126L688 1493H927L1490 121H1632V0H933V121H1079L956 426H395L270 121H448V0H4ZM444 547H907L677 1118L444 547Z" />
<glyph unicode="&#x1df;" glyph-name="uni01DF" horiz-adv-x="1216" d="M161 1467Q161 1527 205 1570T309 1614Q368 1614 411 1571T454 1467Q454 1407 412 1364T309 1321Q249 1321 205 1364T161 1467ZM608 1467Q608 1527 651 1570T755 1614Q815 1614 859 1571T903
1467Q903 1407 859 1364T755 1321Q695 1321 652 1364T608 1467ZM217 1842H847V1654H217V1842ZM1060 653V121H1212V0H706V135Q636 51 550 11T354 -29Q191 -29 104 58T16 309Q16 488 141 577T520 666H706V729Q706 858 645 919T456 981Q350 981 293 938T211 795H98V1024Q193
1058 295 1075T510 1092Q795 1092 927 986T1060 653ZM706 334V547H573Q474 547 421 493T368 338Q368 237 406 187T524 137Q606 137 656 191T706 334Z" />
<glyph unicode="&#x1e0;" glyph-name="uni01E0" horiz-adv-x="1631" d="M475 2122H1105V1934H475V2122ZM643 1747Q643 1807 686 1850T790 1894Q850 1894 893 1851T937 1747Q937 1687 894 1644T790 1601Q730 1601 687 1644T643 1747ZM2 0V121H124L686 1493H925L1488
121H1630V0H931V121H1077L954 426H393L268 121H446V0H2ZM442 547H905L675 1118L442 547Z" />
<glyph unicode="&#x1e1;" glyph-name="uni01E1" horiz-adv-x="1211" d="M213 1842H843V1654H213V1842ZM381 1467Q381 1527 424 1570T528 1614Q588 1614 631 1571T675 1467Q675 1407 632 1364T528 1321Q468 1321 425 1364T381 1467ZM1056 653V121H1208V0H702V135Q632
51 546 11T350 -29Q187 -29 100 58T12 309Q12 488 137 577T516 666H702V729Q702 858 641 919T452 981Q346 981 289 938T207 795H94V1024Q189 1058 291 1075T506 1092Q791 1092 923 986T1056 653ZM702 334V547H569Q470 547 417 493T364 338Q364 237 402 187T520
137Q602 137 652 191T702 334Z" />
<glyph unicode="&#x1e2;" glyph-name="uni01E2" horiz-adv-x="2118" d="M745 1872H1375V1684H745V1872ZM473 545H938V1372H863L473 545ZM748 0V121H938V424H416L273 121H437V0H9V121H123L715 1372H514V1493H2065V1141H1927V1356H1325V877H1692V1067H1827V551H1692V741H1325V137H1948V352H2083V0H748Z"
/>
<glyph unicode="&#x1e3;" glyph-name="uni01E3" horiz-adv-x="1997" d="M490 1562H1120V1374H490V1562ZM1458 600Q1458 810 1419 894T1286 979Q1195 979 1156 896T1116 618V600H1458ZM920 936Q997 1014 1089 1053T1293 1092Q1556 1092 1697 937T1847 481H1116V473Q1116
267 1178 176T1379 84Q1493 84 1563 144T1653 322H1821Q1778 141 1651 56T1293 -29Q1159 -29 1055 9T873 127Q784 49 679 10T449 -29Q243 -29 136 57T29 309Q29 489 156 577T543 666H729V729Q729 845 659 912T465 979Q362 979 305 936T224 795H111V1024Q206 1058
308 1075T523 1092Q660 1092 758 1054T920 936ZM729 330V547H596Q487 547 434 492T381 324Q381 211 420 163T549 115Q635 115 682 171T729 330Z" />
<glyph unicode="&#x1e4;" glyph-name="uni01E4" horiz-adv-x="1732" d="M1345 1024Q1300 1222 1195 1310T899 1399Q667 1399 559 1242T450 745Q450 409 554 251T878 92Q962 92 1034 111T1165 168V311H796V431H1165V578H985V698H1523V431H1722V311H1523V125Q1355
47 1188 9T845 -29Q461 -29 242 178T22 745Q22 1106 241 1313T845 1520Q1005 1520 1160 1488T1472 1391V1024H1345Z" />
<glyph unicode="&#x1e5;" glyph-name="uni01E5" horiz-adv-x="1339" d="M819 475H612V596H819Q817 773 771 853Q723 936 618 936Q508 936 464 849T419 532T464 215T618 127Q723 127 771 210Q818 292 819 475ZM1173 475V14Q1173 -210 1014 -332T563 -455Q457 -455
348 -439T124 -389V-135H237Q252 -240 321 -291T520 -342Q684 -342 751 -264T819 14V135Q774 52 698 12T509 -29Q283 -29 154 121T24 532Q24 794 153 943T509 1092Q621 1092 697 1052T819 928V1063H1324V942H1173V596H1324V475H1173Z" />
<glyph unicode="&#x1e6;" glyph-name="Gcaron" horiz-adv-x="1749" d="M1656 1635L1433 1899H1597L1810 1737L2023 1899H2187L1964 1635H1656ZM1343 1024Q1298 1222 1193 1310T897 1399Q665 1399 557 1242T448 745Q448 409 552 251T876 92Q960 92 1032 111T1163
168V578H983V698H1521V125Q1353 47 1186 9T843 -29Q459 -29 240 178T20 745Q20 1106 239 1313T843 1520Q1003 1520 1158 1488T1470 1391V1024H1343Z" />
<glyph unicode="&#x1e7;" glyph-name="gcaron" horiz-adv-x="1322" d="M488 1262L232 1638H396L609 1411L822 1638H986L730 1262H488ZM1164 942V14Q1164 -210 1005 -332T554 -455Q448 -455 339 -439T115 -389V-135H228Q243 -240 312 -291T511 -342Q675 -342 742
-264T810 14V135Q765 52 689 12T500 -29Q274 -29 145 121T15 532Q15 794 144 943T500 1092Q612 1092 688 1052T810 928V1063H1315V942H1164ZM810 584Q810 770 762 853T609 936Q499 936 455 849T410 532Q410 303 455 215T609 127Q714 127 762 210T810 479V584Z"
/>
<glyph unicode="&#x1e8;" glyph-name="uni01E8" horiz-adv-x="1780" d="M1776 1635L1553 1899H1717L1930 1737L2143 1899H2307L2084 1635H1776ZM29 0V121H220V1372H29V1493H797V1372H605V827L1238 1372H1078V1493H1635V1372H1436L900 911L1629 121H1776V0H1270L605
725V121H797V0H29Z" />
<glyph unicode="&#x1e9;" glyph-name="uni01E9" horiz-adv-x="1419" d="M1074 1635L851 1899H1015L1228 1737L1441 1899H1605L1382 1635H1074ZM667 0H28V121H179V1436H28V1556H533V557L962 942H835V1063H1320V942H1123L849 696L1297 121H1412V0H802V121H927L632
500L533 412V121H667V0Z" />
<glyph unicode="&#x1ea;" glyph-name="uni01EA" horiz-adv-x="1784" d="M530 -15H655Q606 -80 587 -117T567 -183Q567 -224 595 -246T676 -269Q715 -269 755 -261T834 -238L833 -394Q779 -405 731 -410T641 -416Q528 -416 466 -370T403 -240Q403 -188 434 -134T530
-15ZM827 92Q1018 92 1111 253T1204 745Q1204 1077 1111 1238T827 1399Q637 1399 544 1237T450 745Q450 417 543 255T827 92ZM827 -29Q450 -29 236 177T22 745Q22 1107 236 1313T827 1520Q1204 1520 1418 1314T1632 745Q1632 383 1418 177T827 -29Z" />
<glyph unicode="&#x1eb;" glyph-name="uni01EB" horiz-adv-x="1366" d="M324 -15H449Q400 -80 381 -117T361 -183Q361 -224 389 -246T470 -269Q509 -269 549 -261T628 -238L627 -394Q573 -405 525 -410T435 -416Q322 -416 260 -370T197 -240Q197 -188 228 -134T324
-15ZM621 84Q733 84 778 180T824 532Q824 788 779 883T621 979Q508 979 462 883T416 532Q416 278 462 181T621 84ZM621 -29Q340 -29 181 120T21 532Q21 795 180 943T621 1092Q903 1092 1062 944T1221 532Q1221 270 1062 121T621 -29Z" />
<glyph unicode="&#x1ec;" glyph-name="uni01EC" horiz-adv-x="1620" d="M495 1872H1125V1684H495V1872ZM747 -16H872Q823 -81 804 -118T784 -184Q784 -225 812 -247T893 -270Q932 -270 972 -262T1051 -239L1050 -395Q996 -406 948 -411T858 -417Q745 -417 683
-371T620 -241Q620 -189 651 -135T747 -16ZM810 92Q1001 92 1094 253T1187 745Q1187 1077 1094 1238T810 1399Q620 1399 527 1237T433 745Q433 417 526 255T810 92ZM810 -29Q433 -29 219 177T5 745Q5 1107 219 1313T810 1520Q1187 1520 1401 1314T1615 745Q1615
383 1401 177T810 -29Z" />
<glyph unicode="&#x1ed;" glyph-name="uni01ED" horiz-adv-x="1206" d="M288 1562H918V1374H288V1562ZM541 -16H666Q617 -81 598 -118T578 -184Q578 -225 606 -247T687 -270Q726 -270 766 -262T845 -239L844 -395Q790 -406 742 -411T652 -417Q539 -417 477 -371T414
-241Q414 -189 445 -135T541 -16ZM603 84Q715 84 760 180T806 532Q806 788 761 883T603 979Q490 979 444 883T398 532Q398 278 444 181T603 84ZM603 -29Q322 -29 163 120T3 532Q3 795 162 943T603 1092Q885 1092 1044 944T1203 532Q1203 270 1044 121T603 -29Z"
/>
<glyph unicode="&#x1ee;" glyph-name="uni01EE" horiz-adv-x="1345" d="M1404 1635L1181 1899H1345L1558 1737L1771 1899H1935L1712 1635H1404ZM690 839Q911 818 1022 734Q1182 613 1182 403Q1182 194 1017 83T537 -29Q419 -29 294 -9T31 51V379H152Q163 237 241
163T457 88Q609 88 692 172T775 412Q775 574 689 662T443 750H377V974L642 1356H212V1133H75V1493H1054V1356L690 839Z" />
<glyph unicode="&#x1ef;" glyph-name="uni01EF" horiz-adv-x="1177" d="M408 1262L152 1638H316L529 1411L742 1638H906L650 1262H408ZM677 452Q898 431 1009 347Q1169 226 1169 16Q1169 -193 1004 -304T524 -416Q406 -416 281 -396T18 -336V-8H139Q150 -150 228
-224T444 -299Q596 -299 679 -215T762 25Q762 187 676 275T430 363H364V588L629 946H170V764H51V1063H1041V944L677 452Z" />
<glyph unicode="&#x1f0;" glyph-name="uni01F0" horiz-adv-x="778" d="M376 942H225V1063H730V-125Q730 -288 615 -371T274 -455Q214 -455 146 -445T5 -416V-190L118 -191Q120 -271 149 -306T245 -342Q318 -342 347 -295T376 -125V942ZM399 1262L143 1638H307L520
1411L733 1638H897L641 1262H399Z" />
<glyph unicode="&#x1f1;" glyph-name="uni01F1" horiz-adv-x="3271" d="M1810 0V141L2701 1356H1986V1133H1849V1493H3145V1352L2264 137H3018V346H3155V0H1810ZM604 121H743Q977 121 1085 271T1194 748Q1194 1073 1086 1222T743 1372H604V121ZM28 0V121H219V1372H28V1493H794Q1196
1493 1409 1301T1622 748Q1622 385 1409 193T794 0H28Z" />
<glyph unicode="&#x1f2;" glyph-name="uni01F2" horiz-adv-x="2939" d="M1811 0V121L2421 946H1962V764H1843V1063H2833V944L2222 119H2714V311H2833V0H1811ZM604 121H743Q977 121 1085 271T1194 748Q1194 1073 1086 1222T743 1372H604V121ZM28 0V121H219V1372H28V1493H794Q1196
1493 1409 1301T1622 748Q1622 385 1409 193T794 0H28Z" />
<glyph unicode="&#x1f3;" glyph-name="uni01F3" horiz-adv-x="2595" d="M1467 0V121L2077 946H1618V764H1499V1063H2489V944L1878 119H2370V311H2489V0H1467ZM801 479V584Q801 770 753 853T600 936Q490 936 446 849T401 532Q401 303 446 215T600 127Q705 127 753
210T801 479ZM1155 121H1306V0H801V135Q756 52 680 12T491 -29Q265 -29 136 121T6 532Q6 794 135 943T491 1092Q603 1092 679 1052T801 928V1436H649V1556H1155V121Z" />
<glyph unicode="&#x1f4;" glyph-name="uni01F4" horiz-adv-x="1749" d="M1610 1900H1889L1592 1636H1428L1610 1900ZM1343 1024Q1298 1222 1193 1310T897 1399Q665 1399 557 1242T448 745Q448 409 552 251T876 92Q960 92 1032 111T1163 168V578H983V698H1521V125Q1353
47 1186 9T843 -29Q459 -29 240 178T20 745Q20 1106 239 1313T843 1520Q1003 1520 1158 1488T1470 1391V1024H1343Z" />
<glyph unicode="&#x1f5;" glyph-name="uni01F5" horiz-adv-x="1315" d="M695 1638H974L601 1262H437L695 1638ZM1158 942V14Q1158 -210 999 -332T548 -455Q442 -455 333 -439T109 -389V-135H222Q237 -240 306 -291T505 -342Q669 -342 736 -264T804 14V135Q759
52 683 12T494 -29Q268 -29 139 121T9 532Q9 794 138 943T494 1092Q606 1092 682 1052T804 928V1063H1309V942H1158ZM804 584Q804 770 756 853T603 936Q493 936 449 849T404 532Q404 303 449 215T603 127Q708 127 756 210T804 479V584Z" />
<glyph unicode="&#x1f6;" glyph-name="uni01F6" horiz-adv-x="2380" d="M1580 625Q1580 296 1630 234Q1720 123 1872 123Q2048 123 2134 235T2221 625V943H2031V1063H2360V604Q2360 259 2212 116Q2060 -29 1745 -29Q1436 -29 1305 118Q1195 241 1195 604V733H601V121H793V0H25V121H216V1372H25V1493H793V1372H601V870H1195V1372H1004V1493H1772V1372H1580V625Z"
/>
<glyph unicode="&#x1f7;" glyph-name="uni01F7" horiz-adv-x="1526" d="M596 267Q1117 635 1117 1104Q1117 1228 1055 1281T854 1334Q736 1334 596 1140V267ZM596 1308Q760 1520 1114 1520Q1338 1520 1431 1386T1524 1104Q1524 642 596 113V-305H837V-426H20V-305H211V1372H20V1493H596V1308Z"
/>
<glyph unicode="&#x1f8;" glyph-name="uni01F8" horiz-adv-x="1872" d="M1714 1899L1896 1635H1732L1435 1899H1714ZM28 0V121H219V1372H28V1493H495L1396 436V1372H1206V1493H1728V1372H1537V0H1275L360 1079V121H550V0H28Z" />
<glyph unicode="&#x1f9;" glyph-name="uni01F9" horiz-adv-x="1387" d="M515 1638L773 1262H609L236 1638H515ZM13 0V121H164V942H13V1063H518V913Q582 1008 664 1050T871 1092Q1050 1092 1141 987T1233 676V121H1385V0H750V121H879V686Q879 821 845 873T725 926Q618
926 568 848T518 598V121H648V0H13Z" />
<glyph unicode="&#x1fa;" glyph-name="Aringacute" horiz-adv-x="1633" d="M441 547H904L676 1118L441 547ZM805 1299Q860 1299 898 1337T937 1430T898 1522T805 1561Q752 1561 713 1523T674 1430T713 1338T805 1299ZM891 1900H1170L930 1687Q971 1666 1007 1631Q1090
1547 1090 1430Q1090 1356 1059 1297Q1045 1270 1025 1247L1487 121H1629V0H930V121H1076L953 426H392L267 121H445V0H1V121H123L586 1247Q566 1269 553 1296Q521 1356 521 1430Q521 1547 605 1631Q672 1699 761 1712L891 1900Z" />
<glyph unicode="&#x1fb;" glyph-name="aringacute" horiz-adv-x="1208" d="M1053 653V121H1205V0H699V135Q629 51 543 11T347 -29Q184 -29 97 58T9 309Q9 488 134 577T513 666H699V729Q699 858 638 919T449 981Q343 981 286 938T204 795H91V1024Q186 1058 288
1075T503 1092Q788 1092 920 986T1053 653ZM699 334V547H566Q467 547 414 493T361 338T399 187T517 137Q599 137 649 191T699 334ZM611 1900H890L650 1687Q691 1667 727 1632Q810 1548 810 1430T727 1229T525 1145T324 1228T240 1430T323 1632Q391 1699 481 1712L611
1900ZM394 1430Q394 1375 432 1337T525 1299Q580 1299 618 1337T656 1430T618 1522T525 1561Q470 1561 432 1523T394 1430Z" />
<glyph unicode="&#x1fc;" glyph-name="AEacute" horiz-adv-x="2118" d="M1915 1900H2194L1897 1636H1733L1915 1900ZM473 545H938V1372H863L473 545ZM748 0V121H938V424H416L273 121H437V0H9V121H123L715 1372H514V1493H2065V1141H1927V1356H1325V877H1692V1067H1827V551H1692V741H1325V137H1948V352H2083V0H748Z"
/>
<glyph unicode="&#x1fd;" glyph-name="aeacute" horiz-adv-x="1833" d="M989 1638H1268L895 1262H731L989 1638ZM1435 600Q1435 810 1396 894T1263 979Q1172 979 1133 896T1093 618V600H1435ZM897 936Q974 1014 1066 1053T1270 1092Q1533 1092 1674 937T1824 481H1093V473Q1093
267 1155 176T1356 84Q1470 84 1540 144T1630 322H1798Q1755 141 1628 56T1270 -29Q1136 -29 1032 9T850 127Q761 49 656 10T426 -29Q220 -29 113 57T6 309Q6 489 133 577T520 666H706V729Q706 845 636 912T442 979Q339 979 282 936T201 795H88V1024Q183 1058 285
1075T500 1092Q637 1092 735 1054T897 936ZM706 330V547H573Q464 547 411 492T358 324Q358 211 397 163T526 115Q612 115 659 171T706 330Z" />
<glyph unicode="&#x1fe;" glyph-name="Oslashacute" horiz-adv-x="1784" d="M1586 1900H1865L1568 1636H1404L1586 1900ZM488 479L1165 1157Q1123 1276 1042 1337T844 1399Q654 1399 561 1237T467 745Q467 669 472 603T488 479ZM524 334Q569 212 648 152T844 92Q1039
92 1131 259T1223 784Q1223 849 1217 899T1198 993L524 334ZM1469 1280Q1559 1176 1604 1043T1649 745Q1649 383 1435 177T844 -29Q686 -29 554 10T315 127L111 -78L21 12L221 213Q130 315 85 448T39 745Q39 1107 253 1313T844 1520Q1004 1520 1137 1482T1374 1366L1577
1569L1667 1479L1469 1280Z" />
<glyph unicode="&#x1ff;" glyph-name="oslashacute" horiz-adv-x="1278" d="M730 1638H1009L636 1262H472L730 1638ZM435 416L822 801Q805 891 760 935T638 979Q528 979 482 884T435 553V416ZM454 262Q469 173 515 129T638 84Q747 84 793 178T839 508V649L454
262ZM1105 913Q1171 841 1204 746T1238 532Q1238 270 1079 121T638 -29Q527 -29 434 -5T261 70L89 -102L5 -16L169 147Q104 222 71 318T38 532Q38 795 197 943T638 1092Q754 1092 848 1067T1015 993L1183 1161L1269 1075L1105 913Z" />
<glyph unicode="&#x200;" glyph-name="uni0200" horiz-adv-x="1589" d="M1629 1904L1811 1640H1647L1350 1904H1629ZM1961 1904L2143 1640H1979L1682 1904H1961ZM4 0V121H126L688 1493H927L1490 121H1632V0H933V121H1079L956 426H395L270 121H448V0H4ZM444 547H907L677
1118L444 547Z" />
<glyph unicode="&#x201;" glyph-name="uni0201" horiz-adv-x="1327" d="M1355 1638L1580 1262H1416L1119 1638H1355ZM1721 1638L1910 1262H1748L1504 1638H1721ZM1070 653V121H1222V0H716V135Q646 51 560 11T364 -29Q201 -29 114 58T26 309Q26 488 151 577T530
666H716V729Q716 858 655 919T466 981Q360 981 303 938T221 795H108V1024Q203 1058 305 1075T520 1092Q805 1092 937 986T1070 653ZM716 334V547H583Q484 547 431 493T378 338Q378 237 416 187T534 137Q616 137 666 191T716 334Z" />
<glyph unicode="&#x202;" glyph-name="uni0202" horiz-adv-x="1589" d="M1990 1651H1865Q1859 1724 1803 1763T1648 1802T1493 1763T1431 1651H1306Q1306 1797 1396 1879T1648 1962Q1811 1962 1899 1881T1990 1651ZM4 0V121H126L688 1493H927L1490 121H1632V0H933V121H1079L956
426H395L270 121H448V0H4ZM444 547H907L677 1118L444 547Z" />
<glyph unicode="&#x203;" glyph-name="uni0203" horiz-adv-x="1327" d="M1818 1278H1693Q1687 1351 1631 1390T1476 1429T1321 1390T1259 1278H1134Q1134 1424 1224 1506T1476 1589Q1639 1589 1727 1508T1818 1278ZM1070 653V121H1222V0H716V135Q646 51 560 11T364
-29Q201 -29 114 58T26 309Q26 488 151 577T530 666H716V729Q716 858 655 919T466 981Q360 981 303 938T221 795H108V1024Q203 1058 305 1075T520 1092Q805 1092 937 986T1070 653ZM716 334V547H583Q484 547 431 493T378 338Q378 237 416 187T534 137Q616 137 666
191T716 334Z" />
<glyph unicode="&#x204;" glyph-name="uni0204" horiz-adv-x="1561" d="M1677 1904L1859 1640H1695L1398 1904H1677ZM2009 1904L2191 1640H2027L1730 1904H2009ZM26 0V121H217V1372H26V1493H1368V1141H1230V1356H602V877H993V1067H1130V551H993V741H602V137H1249V352H1386V0H26Z"
/>
<glyph unicode="&#x205;" glyph-name="uni0205" horiz-adv-x="1303" d="M1406 1638L1631 1262H1467L1170 1638H1406ZM1772 1638L1961 1262H1799L1555 1638H1772ZM759 600Q759 810 720 894T587 979Q496 979 457 896T417 618V600H759ZM1148 481H417V473Q417 267
479 176T679 84Q794 84 865 145T956 322H1122Q1079 141 951 56T593 -29Q317 -29 170 116T22 532Q22 796 173 944T593 1092Q857 1092 998 937T1148 481Z" />
<glyph unicode="&#x206;" glyph-name="uni0206" horiz-adv-x="1561" d="M2033 1651H1908Q1902 1724 1846 1763T1691 1802T1536 1763T1474 1651H1349Q1349 1797 1439 1879T1691 1962Q1854 1962 1942 1881T2033 1651ZM26 0V121H217V1372H26V1493H1368V1141H1230V1356H602V877H993V1067H1130V551H993V741H602V137H1249V352H1386V0H26Z"
/>
<glyph unicode="&#x207;" glyph-name="uni0207" horiz-adv-x="1303" d="M1869 1278H1744Q1738 1351 1682 1390T1527 1429T1372 1390T1310 1278H1185Q1185 1424 1275 1506T1527 1589Q1690 1589 1778 1508T1869 1278ZM759 600Q759 810 720 894T587 979Q496 979 457
896T417 618V600H759ZM1148 481H417V473Q417 267 479 176T679 84Q794 84 865 145T956 322H1122Q1079 141 951 56T593 -29Q317 -29 170 116T22 532Q22 796 173 944T593 1092Q857 1092 998 937T1148 481Z" />
<glyph unicode="&#x208;" glyph-name="uni0208" horiz-adv-x="958" d="M1345 1904L1527 1640H1363L1066 1904H1345ZM1677 1904L1859 1640H1695L1398 1904H1677ZM17 0V121H208V1372H17V1493H785V1372H593V121H785V0H17Z" />
<glyph unicode="&#x209;" glyph-name="uni0209" horiz-adv-x="778" d="M531 121H683V0H26V121H177V942H26V1063H531V121ZM1136 1641L1361 1265H1197L900 1641H1136ZM1502 1641L1691 1265H1529L1285 1641H1502Z" />
<glyph unicode="&#x20a;" glyph-name="uni020A" horiz-adv-x="958" d="M1697 1651H1572Q1566 1724 1510 1763T1355 1802T1200 1763T1138 1651H1013Q1013 1797 1103 1879T1355 1962Q1518 1962 1606 1881T1697 1651ZM17 0V121H208V1372H17V1493H785V1372H593V121H785V0H17Z" />
<glyph unicode="&#x20b;" glyph-name="uni020B" horiz-adv-x="778" d="M531 121H683V0H26V121H177V942H26V1063H531V121ZM1599 1261H1474Q1468 1334 1412 1373T1257 1412T1102 1373T1040 1261H915Q915 1407 1005 1489T1257 1572Q1420 1572 1508 1491T1599 1261Z" />
<glyph unicode="&#x20c;" glyph-name="uni020C" horiz-adv-x="1784" d="M1757 1904L1939 1640H1775L1478 1904H1757ZM2089 1904L2271 1640H2107L1810 1904H2089ZM827 92Q1018 92 1111 253T1204 745Q1204 1077 1111 1238T827 1399Q637 1399 544 1237T450 745Q450
417 543 255T827 92ZM827 -29Q450 -29 236 177T22 745Q22 1107 236 1313T827 1520Q1204 1520 1418 1314T1632 745Q1632 383 1418 177T827 -29Z" />
<glyph unicode="&#x20d;" glyph-name="uni020D" horiz-adv-x="1366" d="M1439 1638L1664 1262H1500L1203 1638H1439ZM1805 1638L1994 1262H1832L1588 1638H1805ZM621 84Q733 84 778 180T824 532Q824 788 779 883T621 979Q508 979 462 883T416 532Q416 278 462
181T621 84ZM621 -29Q340 -29 181 120T21 532Q21 795 180 943T621 1092Q903 1092 1062 944T1221 532Q1221 270 1062 121T621 -29Z" />
<glyph unicode="&#x20e;" glyph-name="uni020E" horiz-adv-x="1784" d="M2111 1651H1986Q1980 1724 1924 1763T1769 1802T1614 1763T1552 1651H1427Q1427 1797 1517 1879T1769 1962Q1932 1962 2020 1881T2111 1651ZM827 92Q1018 92 1111 253T1204 745Q1204 1077
1111 1238T827 1399Q637 1399 544 1237T450 745Q450 417 543 255T827 92ZM827 -29Q450 -29 236 177T22 745Q22 1107 236 1313T827 1520Q1204 1520 1418 1314T1632 745Q1632 383 1418 177T827 -29Z" />
<glyph unicode="&#x20f;" glyph-name="uni020F" horiz-adv-x="1366" d="M1902 1278H1777Q1771 1351 1715 1390T1560 1429T1405 1390T1343 1278H1218Q1218 1424 1308 1506T1560 1589Q1723 1589 1811 1508T1902 1278ZM621 84Q733 84 778 180T824 532Q824 788 779
883T621 979Q508 979 462 883T416 532Q416 278 462 181T621 84ZM621 -29Q340 -29 181 120T21 532Q21 795 180 943T621 1092Q903 1092 1062 944T1221 532Q1221 270 1062 121T621 -29Z" />
<glyph unicode="&#x210;" glyph-name="uni0210" horiz-adv-x="1702" d="M1725 1904L1907 1640H1743L1446 1904H1725ZM2057 1904L2239 1640H2075L1778 1904H2057ZM1018 729Q1107 716 1168 670T1274 537L1492 121H1645V0H1154L916 451Q847 591 799 629T664 668H603V121H795V0H27V121H218V1372H27V1493H879Q1139
1493 1280 1389T1422 1092Q1422 936 1322 846T1018 729ZM603 788H734Q874 788 949 864T1025 1081Q1025 1222 950 1297T734 1372H603V788Z" />
<glyph unicode="&#x211;" glyph-name="uni0211" horiz-adv-x="1079" d="M1419 1638L1644 1262H1480L1183 1638H1419ZM1785 1638L1974 1262H1812L1568 1638H1785ZM1063 1075V758H950Q944 843 904 884T788 926Q672 926 605 824T538 541V121H731V0H33V121H184V942H22V1063H538V874Q590
985 675 1038T885 1092Q916 1092 960 1088T1063 1075Z" />
<glyph unicode="&#x212;" glyph-name="uni0212" horiz-adv-x="1702" d="M2083 1651H1958Q1952 1724 1896 1763T1741 1802T1586 1763T1524 1651H1399Q1399 1797 1489 1879T1741 1962Q1904 1962 1992 1881T2083 1651ZM1018 729Q1107 716 1168 670T1274 537L1492
121H1645V0H1154L916 451Q847 591 799 629T664 668H603V121H795V0H27V121H218V1372H27V1493H879Q1139 1493 1280 1389T1422 1092Q1422 936 1322 846T1018 729ZM603 788H734Q874 788 949 864T1025 1081Q1025 1222 950 1297T734 1372H603V788Z" />
<glyph unicode="&#x213;" glyph-name="uni0213" horiz-adv-x="1079" d="M1882 1278H1757Q1751 1351 1695 1390T1540 1429T1385 1390T1323 1278H1198Q1198 1424 1288 1506T1540 1589Q1703 1589 1791 1508T1882 1278ZM1063 1075V758H950Q944 843 904 884T788 926Q672
926 605 824T538 541V121H731V0H33V121H184V942H22V1063H538V874Q590 985 675 1038T885 1092Q916 1092 960 1088T1063 1075Z" />
<glyph unicode="&#x214;" glyph-name="uni0214" horiz-adv-x="1786" d="M1805 1904L1987 1640H1823L1526 1904H1805ZM2137 1904L2319 1640H2155L1858 1904H2137ZM204 1372H14V1493H782V1372H591V625Q591 346 678 235T976 123Q1182 123 1268 235T1355 625V1372H1165V1493H1685V1372H1494V604Q1494
262 1346 117T849 -29Q502 -29 353 118T204 606V1372Z" />
<glyph unicode="&#x215;" glyph-name="uni0215" horiz-adv-x="1489" d="M1462 1638L1687 1262H1523L1226 1638H1462ZM1828 1638L2017 1262H1855L1611 1638H1828ZM1238 1063V121H1389V0H883V150Q820 55 738 13T531 -29Q352 -29 261 76T169 387V942H17V1063H523V442Q523
244 556 191T677 137Q784 137 833 216T883 467V942H754V1063H1238Z" />
<glyph unicode="&#x216;" glyph-name="uni0216" horiz-adv-x="1786" d="M2162 1651H2037Q2031 1724 1975 1763T1820 1802T1665 1763T1603 1651H1478Q1478 1797 1568 1879T1820 1962Q1983 1962 2071 1881T2162 1651ZM204 1372H14V1493H782V1372H591V625Q591 346
678 235T976 123Q1182 123 1268 235T1355 625V1372H1165V1493H1685V1372H1494V604Q1494 262 1346 117T849 -29Q502 -29 353 118T204 606V1372Z" />
<glyph unicode="&#x217;" glyph-name="uni0217" horiz-adv-x="1489" d="M1925 1278H1800Q1794 1351 1738 1390T1583 1429T1428 1390T1366 1278H1241Q1241 1424 1331 1506T1583 1589Q1746 1589 1834 1508T1925 1278ZM1238 1063V121H1389V0H883V150Q820 55 738 13T531
-29Q352 -29 261 76T169 387V942H17V1063H523V442Q523 244 556 191T677 137Q784 137 833 216T883 467V942H754V1063H1238Z" />
<glyph unicode="&#x218;" glyph-name="Scommaaccent" horiz-adv-x="1479" d="M49 72V426H176Q205 258 313 175T612 92Q767 92 848 151T929 324Q929 414 874 464T647 557L423 612Q204 668 115 767T26 1051Q26 1273 173 1396T587 1520Q718 1520 859 1498T1153 1432V1102H1026Q997
1256 899 1327T620 1399Q472 1399 397 1348T321 1194Q321 1101 373 1053T628 952L852 897Q1060 845 1153 735T1247 432Q1247 206 1091 89T632 -29Q486 -29 342 -4T49 72ZM1218 -400Q1296 -358 1333 -306T1370 -185V-142H1584V-146Q1584 -257 1514 -336Q1445 -416
1301 -471L1218 -400Z" />
<glyph unicode="&#x219;" glyph-name="scommaaccent" horiz-adv-x="1153" d="M36 31V328H149Q163 209 238 147T442 84Q550 84 607 121T665 229Q665 293 629 328T487 389L341 426Q176 467 102 543T28 750Q28 923 148 1007T518 1092Q612 1092 718 1077T954 1028V760H841Q832
869 764 924T567 979Q459 979 404 945T348 844Q348 790 380 759T495 707L640 670Q849 617 929 539T1009 322Q1009 142 881 57T481 -29Q382 -29 271 -14T36 31ZM1026 -400Q1104 -358 1141 -306T1178 -185V-142H1392V-146Q1392 -257 1322 -336Q1253 -416 1109 -471L1026
-400Z" />
<glyph unicode="&#x21a;" glyph-name="uni021A" horiz-adv-x="1524" d="M1235 -400Q1313 -358 1350 -306T1387 -185V-142H1601V-146Q1601 -257 1531 -336Q1462 -416 1318 -471L1235 -400ZM359 0V121H557V1356H148V1120H11V1493H1491V1120H1356V1356H944V121H1143V0H359Z" />
<glyph unicode="&#x21b;" glyph-name="uni021B" horiz-adv-x="946" d="M1026 -400Q1104 -358 1141 -306T1178 -185V-142H1392V-146Q1392 -257 1322 -336Q1253 -416 1109 -471L1026 -400ZM162 942H8V1063H162V1393H516V1063H811V942H516V291Q516 152 538 118T618
84Q682 84 713 127T746 260H895Q886 100 808 36T537 -29Q318 -29 240 39T162 291V942Z" />
<glyph unicode="&#x21c;" glyph-name="uni021C" horiz-adv-x="1157" d="M150 1024H23V1391Q183 1456 295 1487T562 1520Q807 1523 960 1411T1113 1133T1037 857T830 674Q977 655 1062 541T1148 311Q1148 132 909 -46Q749 -165 490 -277T23 -430V-301Q141 -274
378 -145Q728 46 728 278Q728 389 665 456Q556 573 404 495L196 388V519L409 657Q559 754 618 850Q687 961 687 1110T618 1330Q530 1417 452 1399Q215 1344 150 1024Z" />
<glyph unicode="&#x21d;" glyph-name="uni021D" horiz-adv-x="1047" d="M424 973Q310 973 232 908T138 707H26V1002Q263 1087 497 1087T869 987T1007 773Q1007 569 753 441Q886 426 962 334T1039 147Q1039 -82 402 -326Q211 -399 26 -433V-320Q174 -286 332 -208Q653
-51 653 104Q653 199 597 254T469 310Q408 310 366 295L182 230V343L369 430Q476 480 553 585Q616 671 616 758Q616 864 558 916Q496 973 424 973Z" />
<glyph unicode="&#x21e;" glyph-name="uni021E" horiz-adv-x="1935" d="M1713 1635L1490 1899H1654L1867 1737L2080 1899H2244L2021 1635H1713ZM29 0V121H220V1372H29V1493H797V1372H605V870H1199V1372H1008V1493H1776V1372H1584V121H1776V0H1008V121H1199V733H605V121H797V0H29Z"
/>
<glyph unicode="&#x21f;" glyph-name="uni021F" horiz-adv-x="1489" d="M1076 1635L853 1899H1017L1230 1737L1443 1899H1607L1384 1635H1076ZM34 0V121H185V1436H27V1556H539V913Q603 1008 685 1050T892 1092Q1071 1092 1162 987T1254 676V121H1406V0H771V121H900V686Q900
821 866 873T746 926Q639 926 589 848T539 598V121H669V0H34Z" />
<glyph unicode="&#x220;" glyph-name="uni0220" horiz-adv-x="1692" d="M5 0V121H195V1372H44V1493H582V1339Q663 1436 766 1479Q868 1521 1028 1521Q1254 1521 1369 1380T1485 965V-305H1676V-426H910V-305H1100V927Q1100 1176 1051 1273T879 1370Q728 1370 654
1243Q582 1121 582 841V121H773V0H5Z" />
<glyph unicode="&#x221;" glyph-name="uni0221" horiz-adv-x="1515" d="M728 42Q722 33 681 12Q604 -29 492 -29Q266 -29 137 121T7 532Q7 794 136 943T492 1092Q604 1092 680 1052T802 928V1436H650V1556H1156V393L1245 395Q1291 395 1355 384Q1506 358 1506
195Q1506 -27 1158 -30Q1019 -31 917 52Q895 71 896 75Q871 52 853 24Q825 -20 813 -99H703Q703 -21 728 42ZM1156 303V299Q1156 175 1184 129Q1202 102 1242 99Q1374 92 1374 180Q1374 307 1191 305Q1174 305 1156 303ZM802 479V584Q802 770 754 853T601 936Q491
936 447 849T402 532T447 215T601 127Q706 127 754 210T802 479Z" />
<glyph unicode="&#x222;" glyph-name="uni0222" horiz-adv-x="1280" d="M368 1116Q368 1063 675 941Q893 1045 893 1144Q893 1413 683 1413V1520Q1118 1520 1118 1137Q1118 980 887 842Q1264 637 1264 368Q1264 -29 587 -29Q14 -29 14 368Q14 590 300 765Q98 895
98 1063Q98 1352 491 1352V1244Q368 1244 368 1116ZM587 92Q906 92 906 361Q906 501 501 664Q251 539 251 368Q251 92 587 92Z" />
<glyph unicode="&#x223;" glyph-name="uni0223" horiz-adv-x="1096" d="M799 1232Q799 1346 659 1497L771 1556Q988 1398 988 1188Q988 1049 763 894Q1077 704 1077 378Q1077 -29 534 -29Q21 -29 21 378Q21 599 300 783Q85 925 85 1169Q85 1378 293 1556L381 1510Q265
1415 265 1268Q265 1144 608 981Q799 1083 799 1232ZM534 80Q783 80 783 378Q783 547 451 695Q218 577 218 378Q218 80 534 80Z" />
<glyph unicode="&#x224;" glyph-name="uni0224" horiz-adv-x="1370" d="M1 0V141L892 1356H177V1133H40V1493H1336V1352L455 137H1061H1346V111Q1346 -110 1254 -269T969 -538L859 -397Q970 -307 1012 -209Q1055 -109 1060 0H1Z" />
<glyph unicode="&#x225;" glyph-name="uni0225" horiz-adv-x="1045" d="M2 0V121L612 946H153V764H34V1063H1024V944L413 119H739H1024V111Q1024 -110 932 -269T647 -538L537 -397Q641 -313 690 -209Q733 -118 738 0H2Z" />
<glyph unicode="&#x226;" glyph-name="uni0226" horiz-adv-x="1589" d="M1302 1776Q1302 1836 1345 1879T1449 1923Q1509 1923 1552 1880T1596 1776Q1596 1716 1553 1673T1449 1630Q1389 1630 1346 1673T1302 1776ZM4 0V121H126L688 1493H927L1490 121H1632V0H933V121H1079L956
426H395L270 121H448V0H4ZM444 547H907L677 1118L444 547Z" />
<glyph unicode="&#x227;" glyph-name="uni0227" horiz-adv-x="1209" d="M380 1468Q380 1528 423 1571T527 1614T630 1571T674 1468Q674 1409 631 1365T527 1321T424 1365T380 1468ZM1055 653V121H1207V0H701V135Q631 51 545 11T349 -29Q186 -29 99 58T11 309Q11
488 136 577T515 666H701V729Q701 858 640 919T451 981Q345 981 288 938T206 795H93V1024Q188 1058 290 1075T505 1092Q790 1092 922 986T1055 653ZM701 334V547H568Q469 547 416 493T363 338Q363 237 401 187T519 137Q601 137 651 191T701 334Z" />
<glyph unicode="&#x228;" glyph-name="uni0228" horiz-adv-x="1381" d="M798 0Q860 -64 889 -118T919 -225Q919 -311 855 -356T669 -401Q621 -401 570 -395T467 -375L466 -219Q511 -236 553 -245T632 -254Q692 -254 723 -231T755 -162Q755 -134 739 -101T671 0H798ZM8
0V121H199V1372H8V1493H1350V1141H1212V1356H584V877H975V1067H1112V551H975V741H584V137H1231V352H1368V0H8Z" />
<glyph unicode="&#x229;" glyph-name="uni0229" horiz-adv-x="1145" d="M649 0Q711 -64 740 -118T770 -225Q770 -311 706 -356T520 -401Q472 -401 421 -395T318 -375L317 -219Q362 -236 404 -245T483 -254Q543 -254 574 -231T606 -162Q606 -134 590 -101T522 0H649ZM749
600Q749 810 710 894T577 979Q486 979 447 896T407 618V600H749ZM1138 481H407V473Q407 267 469 176T669 84Q784 84 855 145T946 322H1112Q1069 141 941 56T583 -29Q307 -29 160 116T12 532Q12 796 163 944T583 1092Q847 1092 988 937T1138 481Z" />
<glyph unicode="&#x22a;" glyph-name="uni022A" horiz-adv-x="1632" d="M447 1747Q447 1807 491 1850T595 1894Q654 1894 697 1851T740 1747Q740 1687 698 1644T595 1601Q535 1601 491 1644T447 1747ZM894 1747Q894 1807 937 1850T1041 1894Q1101 1894 1145 1851T1189
1747Q1189 1687 1145 1644T1041 1601Q981 1601 938 1644T894 1747ZM503 2122H1133V1934H503V2122ZM816 92Q1007 92 1100 253T1193 745Q1193 1077 1100 1238T816 1399Q626 1399 533 1237T439 745Q439 417 532 255T816 92ZM816 -29Q439 -29 225 177T11 745Q11 1107
225 1313T816 1520Q1193 1520 1407 1314T1621 745Q1621 383 1407 177T816 -29Z" />
<glyph unicode="&#x22b;" glyph-name="uni022B" horiz-adv-x="1222" d="M240 1467Q240 1527 284 1570T388 1614Q447 1614 490 1571T533 1467Q533 1407 491 1364T388 1321Q328 1321 284 1364T240 1467ZM687 1467Q687 1527 730 1570T834 1614Q894 1614 938 1571T982
1467Q982 1407 938 1364T834 1321Q774 1321 731 1364T687 1467ZM296 1842H926V1654H296V1842ZM611 84Q723 84 768 180T814 532Q814 788 769 883T611 979Q498 979 452 883T406 532Q406 278 452 181T611 84ZM611 -29Q330 -29 171 120T11 532Q11 795 170 943T611 1092Q893
1092 1052 944T1211 532Q1211 270 1052 121T611 -29Z" />
<glyph unicode="&#x22c;" glyph-name="uni022C" horiz-adv-x="1630" d="M500 2122H1130V1934H500V2122ZM459 1601V1613Q459 1736 513 1802T667 1869Q728 1869 808 1830Q817 1826 821 1824L893 1791Q921 1778 939 1774T975 1769Q1016 1769 1040 1794T1065 1863V1867H1175V1852Q1175
1730 1122 1665T967 1599Q933 1599 900 1608T813 1644L756 1672Q729 1685 704 1692T659 1699Q618 1699 594 1674T569 1605V1601H459ZM815 92Q1006 92 1099 253T1192 745Q1192 1077 1099 1238T815 1399Q625 1399 532 1237T438 745Q438 417 531 255T815 92ZM815 -29Q438
-29 224 177T10 745Q10 1107 224 1313T815 1520Q1192 1520 1406 1314T1620 745Q1620 383 1406 177T815 -29Z" />
<glyph unicode="&#x22d;" glyph-name="uni022D" horiz-adv-x="1218" d="M293 1830H923V1642H293V1830ZM252 1309V1321Q252 1444 306 1510T460 1577Q521 1577 601 1538Q610 1534 614 1532L686 1499Q714 1486 732 1482T768 1477Q809 1477 833 1502T858 1571V1575H968V1560Q968
1438 915 1373T760 1307Q726 1307 693 1316T606 1352L549 1380Q522 1393 497 1400T452 1407Q411 1407 387 1382T362 1313V1309H252ZM609 84Q721 84 766 180T812 532Q812 788 767 883T609 979Q496 979 450 883T404 532Q404 278 450 181T609 84ZM609 -29Q328 -29
169 120T9 532Q9 795 168 943T609 1092Q891 1092 1050 944T1209 532Q1209 270 1050 121T609 -29Z" />
<glyph unicode="&#x22e;" glyph-name="uni022E" horiz-adv-x="1784" d="M1421 1776Q1421 1836 1464 1879T1568 1923Q1628 1923 1671 1880T1715 1776Q1715 1716 1672 1673T1568 1630Q1508 1630 1465 1673T1421 1776ZM827 92Q1018 92 1111 253T1204 745Q1204 1077
1111 1238T827 1399Q637 1399 544 1237T450 745Q450 417 543 255T827 92ZM827 -29Q450 -29 236 177T22 745Q22 1107 236 1313T827 1520Q1204 1520 1418 1314T1632 745Q1632 383 1418 177T827 -29Z" />
<glyph unicode="&#x22f;" glyph-name="uni022F" horiz-adv-x="1366" d="M190 1468Q190 1528 233 1571T337 1614T440 1571T484 1468Q484 1409 441 1365T337 1321T234 1365T190 1468ZM621 84Q733 84 778 180T824 532Q824 788 779 883T621 979Q508 979 462 883T416
532Q416 278 462 181T621 84ZM621 -29Q340 -29 181 120T21 532Q21 795 180 943T621 1092Q903 1092 1062 944T1221 532Q1221 270 1062 121T621 -29Z" />
<glyph unicode="&#x230;" glyph-name="uni0230" horiz-adv-x="1628" d="M501 2122H1131V1934H501V2122ZM669 1747Q669 1807 712 1850T816 1894Q876 1894 919 1851T963 1747Q963 1687 920 1644T816 1601Q756 1601 713 1644T669 1747ZM814 92Q1005 92 1098 253T1191
745Q1191 1077 1098 1238T814 1399Q624 1399 531 1237T437 745Q437 417 530 255T814 92ZM814 -29Q437 -29 223 177T9 745Q9 1107 223 1313T814 1520Q1191 1520 1405 1314T1619 745Q1619 383 1405 177T814 -29Z" />
<glyph unicode="&#x231;" glyph-name="uni0231" horiz-adv-x="1216" d="M293 1842H923V1654H293V1842ZM461 1467Q461 1527 504 1570T608 1614Q668 1614 711 1571T755 1467Q755 1407 712 1364T608 1321Q548 1321 505 1364T461 1467ZM608 84Q720 84 765 180T811
532Q811 788 766 883T608 979Q495 979 449 883T403 532Q403 278 449 181T608 84ZM608 -29Q327 -29 168 120T8 532Q8 795 167 943T608 1092Q890 1092 1049 944T1208 532Q1208 270 1049 121T608 -29Z" />
<glyph unicode="&#x232;" glyph-name="uni0232" horiz-adv-x="1462" d="M333 1872H963V1684H333V1872ZM377 0V121H578V618L134 1372H7V1493H723V1372H557L893 803L1227 1372H1078V1493H1506V1372H1379L965 670V121H1166V0H377Z" />
<glyph unicode="&#x233;" glyph-name="uni0233" horiz-adv-x="1190" d="M133 1562H763V1374H133V1562ZM687 -240Q639 -357 571 -406T388 -455Q339 -455 279 -444T148 -412V-190L261 -191Q264 -268 297 -305T398 -342Q463 -342 503 -307T583 -172L599 -135L136
942H21V1063H634V942H507L777 313L1029 942H888V1063H1287V942H1158L687 -240Z" />
<glyph unicode="&#x234;" glyph-name="uni0234" horiz-adv-x="1077" d="M578 222Q671 69 827 70Q965 69 965 176Q965 301 875 300Q620 298 578 222ZM514 524Q514 430 541 316Q689 390 869 390Q1077 390 1077 172Q1077 -38 741 -41Q560 -43 429 30Q418 -2 419 -87V-231H282L283
-87Q287 14 316 93Q293 112 293 112Q160 266 160 524V1436H9V1556H514V524Z" />
<glyph unicode="&#x235;" glyph-name="uni0235" horiz-adv-x="1796" d="M1295 222Q1388 69 1544 70Q1682 69 1682 176Q1682 301 1592 300Q1337 298 1295 222ZM1231 524Q1231 430 1258 316Q1406 390 1586 390Q1794 390 1794 172Q1794 -38 1458 -41Q1277 -43 1146
30Q1135 -2 1136 -87V-231H999L1000 -87Q1004 14 1033 93Q1010 112 1010 112Q877 266 877 524V686Q877 821 843 873T723 926Q616 926 566 848T516 598V121H646V0H11V121H162V942H11V1063H516V913Q580 1008 662 1050T869 1092Q1048 1092 1139 987T1231 676V524Z"
/>
<glyph unicode="&#x236;" glyph-name="uni0236" horiz-adv-x="1079" d="M580 222Q673 69 829 70Q967 69 967 176Q967 301 877 300Q622 298 580 222ZM162 520V942H8V1063H162V1393H516V1063H811V942H516V520Q516 430 543 316Q691 390 871 390Q1079 390 1079 172Q1079
-38 743 -41Q562 -43 431 30Q420 -2 421 -87V-231H284L285 -87Q289 14 318 93Q295 112 295 112Q162 266 162 520Z" />
<glyph unicode="&#x237;" glyph-name="dotlessj" horiz-adv-x="766" d="M376 942H225V1063H730V-125Q730 -288 615 -371T274 -455Q214 -455 146 -445T5 -416V-190L118 -191Q120 -271 149 -306T245 -342Q318 -342 347 -295T376 -125V942Z" />
<glyph unicode="&#x238;" glyph-name="uni0238" horiz-adv-x="1972" d="M1163 479Q1163 293 1210 210T1364 127Q1473 127 1517 215T1562 532T1518 848T1364 936Q1258 936 1211 853T1163 584V479ZM809 121V135Q764 52 688 12T499 -29Q273 -29 144 121T14 532Q14
794 143 943T499 1092Q611 1092 687 1052T809 928V1436H657V1556H1163V928Q1208 1011 1284 1051T1472 1092Q1699 1092 1829 943T1960 532T1830 121T1472 -29Q1360 -29 1284 11T1163 135V121V0H809V121ZM809 479V584Q809 770 761 853T608 936Q498 936 454 849T409
532T454 215T608 127Q713 127 761 210T809 479Z" />
<glyph unicode="&#x239;" glyph-name="uni0239" horiz-adv-x="1976" d="M1166 942V928Q1211 1011 1287 1051T1476 1092Q1702 1092 1831 942T1961 531Q1961 269 1832 120T1476 -29Q1364 -29 1288 11T1166 135V-305H1318V-425L660 -426V-305H812V135Q767 52 691
12T503 -29Q276 -29 146 120T15 531T145 942T503 1092Q615 1092 691 1052T812 928V942V1063H1166V942ZM812 584Q812 770 764 853T611 936Q501 936 457 849T412 532T457 215T611 127Q716 127 764 210T812 479V584ZM1166 584V479Q1166 293 1213 210T1367 127Q1476
127 1520 215T1565 532T1521 848T1367 936Q1261 936 1214 853T1166 584Z" />
<glyph unicode="&#x23a;" glyph-name="uni023A" horiz-adv-x="1662" d="M92 -78L2 12L14 25V121H110L154 164L698 1493H937L1096 1107L1558 1569L1648 1479L1148 979L1500 121H1642V0H943V121H1089L966 426H595L290 121H458V0H169L92 -78ZM808 819L687 1118L454
547H536L808 819ZM716 547H917L859 690L716 547ZM398 409L415 426H405L398 409Z" />
<glyph unicode="&#x23b;" glyph-name="uni023B" horiz-adv-x="1671" d="M105 -78L15 12L259 256Q109 450 109 745Q109 1103 328 1311T926 1520Q1059 1520 1203 1488Q1309 1464 1425 1423L1571 1569L1661 1479L1508 1326V1024H1381Q1366 1098 1340 1158L579 396Q603
312 643 252Q749 92 969 92Q1118 92 1212 175T1350 426H1549Q1490 195 1337 83T926 -29Q563 -29 346 163L105 -78ZM548 546L1273 1270Q1257 1289 1239 1306Q1136 1399 967 1399Q749 1399 643 1239T537 745Q537 636 548 546Z" />
<glyph unicode="&#x23c;" glyph-name="uni023C" horiz-adv-x="1283" d="M1175 332Q1137 150 1020 61T700 -29Q442 -29 290 92L96 -102L12 -16L206 178Q104 316 104 532Q104 796 258 944T686 1092Q797 1092 910 1071Q985 1057 1062 1034L1190 1161L1276 1075L1140
940V713H1028Q1022 766 1008 808L516 317Q531 237 560 188Q621 84 759 84Q866 84 930 148T1009 332H1175ZM945 917Q883 979 772 979Q624 979 562 879T499 532Q499 501 500 472L945 917Z" />
<glyph unicode="&#x23d;" glyph-name="uni023D" horiz-adv-x="1347" d="M45 0V121H236V713H23V850H236V1372H45V1493H813V1372H621V850H953V713H621V137H1209V373H1344V0H45Z" />
<glyph unicode="&#x23e;" glyph-name="uni023E" horiz-adv-x="1663" d="M1229 0H445V121H644V461L105 -78L15 12L644 641V1356H232V1120H97V1493H1495L1571 1569L1661 1479L1577 1395V1120H1440V1258L1031 849V121H1229V0ZM1358 1356H1031V1029L1358 1356Z" />
<glyph unicode="&#x23f;" glyph-name="uni023F" horiz-adv-x="1023" d="M942 -402Q815 -440 705 -444Q670 -445 600 -445Q467 -445 372 -386Q271 -324 234 -230L152 -24Q144 -3 123 9Q91 15 58 23Q41 26 24 31V328H137Q159 140 327 96Q374 86 430 84Q623 84 649
197Q653 212 653 229Q653 310 590 347Q553 369 475 389L329 426Q163 468 90 544Q16 620 16 750Q16 996 261 1064Q362 1092 506 1092Q692 1092 942 1028V760H829Q811 979 555 979Q347 979 337 856Q336 850 336 844Q336 771 399 737Q430 721 483 707L628 670Q834
617 915 540Q997 461 997 322Q997 112 821 30Q705 -24 509 -29Q515 -40 520 -52L564 -162Q603 -260 644 -296Q684 -332 750 -332Q759 -332 792 -295T829 -181L942 -180V-402Z" />
<glyph unicode="&#x240;" glyph-name="uni0240" horiz-adv-x="1128" d="M210 0H8V121L618 946H159V764H40V1063H1030V944L419 119Q607 120 667 -34L721 -172Q759 -269 801 -306Q841 -342 907 -342Q916 -342 949 -305T986 -191L1099 -190V-412Q1028 -433 968 -444T757
-455Q624 -455 529 -396Q429 -334 391 -240L312 -44Q293 0 210 0Z" />
<glyph unicode="&#x241;" glyph-name="uni0241" horiz-adv-x="1238" d="M295 1372Q192 1372 170 1344Q143 1311 139 1229H26V1427Q88 1461 157 1477T295 1493H688Q937 1493 1084 1375T1231 1057T1084 739T688 619H649V121H890V0H73V121H264L265 740H526Q656 740
733 826T811 1057Q811 1201 734 1286T526 1372H295Z" />
<glyph unicode="&#x242;" glyph-name="uni0242" horiz-adv-x="1015" d="M292 339Q422 339 499 425T577 656Q577 800 500 885T292 971Q189 971 167 944Q140 910 136 828H23V1026Q85 1060 154 1076T292 1092H454Q703 1092 850 974T997 656T849 338Q764 269 646 239V121H887V0H100V121H291L292
339Z" />
<glyph unicode="&#x243;" glyph-name="uni0243" horiz-adv-x="1591" d="M25 363V500H237V1372H46V1493H931Q1204 1493 1341 1401T1478 1124Q1478 991 1384 913T1103 815Q1328 794 1448 695T1568 432Q1568 210 1401 105T876 0H46V121H237V363H25ZM622 870H753Q925
870 1008 932T1091 1124Q1091 1254 1011 1313T753 1372H622V870ZM622 121H765Q956 121 1048 197T1140 432Q1140 592 1047 671T765 750H622V500H955V363H622V121Z" />
<glyph unicode="&#x244;" glyph-name="uni0244" horiz-adv-x="1722" d="M216 1372H26V1493H794V1372H603V850H1367V1372H1177V1493H1697V1372H1506V850H1707V713H1506V604Q1506 262 1358 117T861 -29Q514 -29 365 118T216 606V713H15V850H216V1372ZM1367 713H603V625Q603
346 690 235T988 123Q1194 123 1280 235T1367 625V713Z" />
<glyph unicode="&#x245;" glyph-name="uni0245" horiz-adv-x="1589" d="M269 121H447V0H3V121H125L687 1493H926L1489 121H1631V0H932V121H1078L676 1118L269 121Z" />
<glyph unicode="&#x246;" glyph-name="uni0246" horiz-adv-x="1392" d="M643 -116L522 -79L546 0H12V121H203V1372H12V1493H1003L1038 1608L1159 1571L1135 1493H1354V1141H1216V1356H1093L1005 1067H1116V551H979V741H905L720 137H1235V352H1372V0H678L643 -116ZM588
137L773 741H588V137ZM979 983L947 877H979V983ZM814 877L961 1356H588V877H814Z" />
<glyph unicode="&#x247;" glyph-name="uni0247" horiz-adv-x="1149" d="M870 600Q863 786 791 880Q772 905 748 924L649 600H870ZM431 -115L315 -80L342 7Q236 42 162 116Q14 262 14 532Q14 796 165 944T585 1092Q630 1092 671 1088L702 1189L818 1154L790 1063Q910
1024 990 936Q1131 780 1140 481H613L507 135Q568 84 671 84Q786 84 857 145T948 322H1114Q1071 141 943 56T585 -29Q519 -29 460 -21L431 -115ZM522 600L635 970Q610 979 579 979Q488 979 449 896T409 618V600H522ZM427 286L486 481H409V473Q409 363 427 286Z"
/>
<glyph unicode="&#x248;" glyph-name="uni0248" horiz-adv-x="1075" d="M6 -358V-123H136Q142 -217 180 -261T295 -305Q392 -305 430 -231T469 49V713H231V850H469V1372H252V1493H1047V1372H856V850H1068V713H856V41Q856 -202 734 -314T344 -426Q261 -426 177
-409T6 -358Z" />
<glyph unicode="&#x249;" glyph-name="uni0249" horiz-adv-x="792" d="M19 1364Q19 1445 75 1500T212 1556Q291 1556 346 1501T402 1364Q402 1285 347 1230T212 1174Q131 1174 75 1229T19 1364ZM379 942H228V1063H733V600H887V479H733V-125Q733 -288 618 -371T277
-455Q217 -455 149 -445T8 -416V-190L121 -191Q123 -271 152 -306T248 -342Q321 -342 350 -295T379 -125V479H230V600H379V942Z" />
<glyph unicode="&#x24a;" glyph-name="uni024A" horiz-adv-x="1853" d="M989 1490H1578V1360H1376V49Q1376 -156 1414 -230T1550 -305Q1626 -305 1664 -261T1709 -123H1839V-358Q1752 -392 1668 -409T1501 -426Q1234 -426 1112 -314T989 41V151Q934 60 839 15Q747
-29 607 -29Q328 -29 169 178Q9 386 9 746Q9 1107 169 1314Q328 1520 607 1520Q747 1520 839 1476Q934 1431 989 1340V1490ZM989 824Q989 1104 922 1228T709 1352Q556 1352 494 1221Q432 1089 432 746T495 271T709 139Q855 139 922 263T989 667V824Z" />
<glyph unicode="&#x24b;" glyph-name="uni024B" horiz-adv-x="1542" d="M801 928V1064H1306V943H1155V-124Q1155 -247 1184 -294T1286 -341Q1352 -341 1381 -306T1413 -190L1526 -189V-415Q1453 -434 1385 -444T1257 -454Q1032 -454 917 -371T801 -124V135Q756
52 680 12T491 -29Q265 -29 136 121T6 532Q6 794 135 943T491 1092Q603 1092 679 1052T801 928ZM801 584Q801 770 753 853T600 936Q490 936 446 849T401 532T446 215T600 127Q705 127 753 210T801 479V584Z" />
<glyph unicode="&#x24c;" glyph-name="uni024C" horiz-adv-x="1679" d="M624 788H755Q895 788 970 864T1046 1081T971 1297T755 1372H624V788ZM1039 729Q1128 716 1189 670Q1249 625 1295 537L1513 121H1666V0H1175L937 451Q868 591 820 629T685 668H624V121H816V0H48V121H239V668H26V788H239V1372H48V1493H900Q1160
1493 1301 1389T1443 1092Q1443 936 1343 846T1039 729Z" />
<glyph unicode="&#x24d;" glyph-name="uni024D" horiz-adv-x="1073" d="M24 479V600H186V942H24V1063H540V874Q592 985 677 1038T887 1092Q918 1092 962 1088T1065 1075V758H952Q946 843 906 884T790 926Q674 926 607 824Q551 739 542 600H800V479H540V121H733V0H35V121H186V479H24Z"
/>
<glyph unicode="&#x24e;" glyph-name="uni024E" horiz-adv-x="1516" d="M378 0V121H579V618L323 1053H8V1190H242L135 1372H8V1493H724V1372H558L665 1190H1121L1228 1372H1079V1493H1507V1372H1380L1273 1190H1507V1053H1192L966 670V121H1167V0H378ZM1041 1053H746L894
803L1041 1053Z" />
<glyph unicode="&#x24f;" glyph-name="uni024F" horiz-adv-x="1288" d="M22 629V750H220L137 942H22V1063H635V942H508L590 750H953L1030 942H889V1063H1288V942H1159L1082 750H1288V629H1034L688 -240Q640 -357 572 -406T389 -455Q340 -455 280 -444T149 -412V-190L262
-191Q265 -268 298 -305T399 -342Q464 -342 504 -307T584 -172L600 -135L272 629H22ZM905 629H642L778 313L905 629Z" />
<glyph unicode="&#x250;" glyph-name="uni0250" horiz-adv-x="1234" d="M164 410V942H12V1063H518V928Q588 1012 674 1052T870 1092Q1033 1092 1120 1005T1208 754Q1208 575 1083 486T704 397H518V334Q518 205 579 144T768 82Q874 82 931 125T1013 268H1126V39Q1031
5 929 -12T714 -29Q429 -29 297 77T164 410ZM518 729V516H651Q750 516 803 570T856 725T818 876T700 926Q618 926 568 872T518 729Z" />
<glyph unicode="&#x251;" glyph-name="uni0251" horiz-adv-x="1346" d="M820 479V584Q820 770 772 853T619 936Q509 936 465 849T420 532T465 215T619 127Q724 127 772 210T820 479ZM820 1064H1325V943H1174V121H1325V0H820V135Q775 52 699 12T510 -29Q284 -29
155 121T25 532Q25 794 154 943T510 1092Q622 1092 698 1052T820 928V944V1064Z" />
<glyph unicode="&#x252;" glyph-name="uni0252" horiz-adv-x="1346" d="M526 584V479Q526 293 574 210T727 127Q837 127 881 214T926 531T881 848T727 936Q622 936 574 853T526 584ZM526 -1H21V120H172V942H21V1063H526V928Q571 1011 647 1051T836 1092Q1062 1092
1191 942T1321 531Q1321 269 1192 120T836 -29Q724 -29 648 11T526 135V119V-1Z" />
<glyph unicode="&#x253;" glyph-name="uni0253" horiz-adv-x="1330" d="M521 479Q521 293 568 210T722 127Q831 127 875 215T920 532T876 848T722 936Q616 936 569 853T521 584V479ZM167 121V1164H168V1226Q168 1389 283 1472T624 1556Q684 1556 752 1546T893
1517V1292H780Q778 1372 749 1407T653 1443Q580 1443 551 1396T522 1226V930Q567 1011 642 1052Q718 1092 830 1092Q1057 1092 1187 943T1318 532T1188 121T830 -29Q718 -29 642 11T521 135V0H15V121H167Z" />
<glyph unicode="&#x254;" glyph-name="uni0254" horiz-adv-x="1112" d="M21 731Q59 913 176 1002T496 1092Q780 1092 936 945T1092 531Q1092 267 938 119T510 -29Q399 -29 286 -8T56 55V350H168Q184 215 247 150T424 84Q572 84 634 184T697 531Q697 772 636 875T437
979Q330 979 266 915T187 731H21Z" />
<glyph unicode="&#x255;" glyph-name="uni0255" horiz-adv-x="1096" d="M472 222Q564 71 721 70Q973 69 973 186Q973 302 769 300Q514 298 472 222ZM435 316Q579 388 823 390Q1091 390 1086 158Q1082 -41 635 -41Q451 -41 323 30Q312 -2 313 -87V-231H176L177
-87Q181 14 210 93Q198 103 187 112Q18 266 18 520Q18 775 187 928Q356 1080 635 1080Q796 1080 884 1056Q972 1033 1061 985V713H966Q948 853 886 917Q824 981 709 981Q560 981 484 866Q406 746 408 520Q409 426 435 316Z" />
<glyph unicode="&#x256;" glyph-name="uni0256" horiz-adv-x="1531" d="M796 479V584Q796 770 748 853T595 936Q485 936 441 849T396 532T441 215T595 127Q700 127 748 210T796 479ZM795 133Q750 52 675 12Q598 -29 486 -29Q260 -29 131 121T1 532Q1 794 130 943T486
1092Q598 1092 674 1052T796 928V1436H644V1556H1150V0H1149V-125Q1149 -248 1178 -295T1280 -342Q1346 -342 1375 -307T1407 -191H1520V-416Q1447 -435 1379 -445T1251 -455Q1026 -455 911 -372T795 -125V133Z" />
<glyph unicode="&#x257;" glyph-name="uni0257" horiz-adv-x="1542" d="M1155 121H1306V0H801V135Q756 52 680 12T491 -29Q265 -29 136 121T6 532Q6 794 135 943T491 1092Q603 1092 679 1052T801 928V1116H802V1226Q802 1389 917 1472T1258 1556Q1318 1556 1386
1546T1527 1517V1292H1414Q1412 1372 1383 1407T1287 1443Q1214 1443 1185 1396T1156 1226V816H1155V121ZM801 479V584Q801 770 753 853T600 936Q490 936 446 849T401 532T446 215T600 127Q705 127 753 210T801 479Z" />
<glyph unicode="&#x258;" glyph-name="uni0258" horiz-adv-x="1164" d="M406 600H748V618Q748 813 709 896T578 979Q484 979 445 895T406 600ZM17 481Q26 781 167 936T572 1092Q841 1092 992 944T1143 532Q1143 262 996 117T572 -29Q342 -29 214 56T43 322H209Q229
206 300 145T486 84Q624 84 686 175T748 473V481H17Z" />
<glyph unicode="&#x259;" glyph-name="uni0259" horiz-adv-x="1164" d="M406 463Q406 253 445 169T578 84Q669 84 708 167T748 445V463H406ZM17 582H748V590Q748 796 686 887T486 979Q371 979 300 918T209 741H43Q86 922 214 1007T572 1092Q848 1092 995 947T1143
531Q1143 267 992 119T572 -29Q308 -29 167 126T17 582Z" />
<glyph unicode="&#x25a;" glyph-name="uni025A" horiz-adv-x="1771" d="M728 606L387 409Q391 242 425 168Q464 84 558 84Q649 84 689 167Q728 249 728 445V606ZM718 738Q703 833 666 888Q604 979 466 979Q351 979 280 918T189 741H23Q66 922 194 1007T552 1092Q828
1092 975 946Q994 928 1011 907L1216 1025L1391 1022V979Q1391 885 1438 843Q1487 799 1546 799Q1645 799 1653 831L1771 679Q1694 631 1691 630Q1644 613 1549 613Q1433 613 1340 706Q1259 787 1248 907L1072 805Q1123 689 1123 531Q1123 267 972 119T552 -29Q288
-29 147 126Q70 212 32 342L210 445L718 738Z" />
<glyph unicode="&#x25b;" glyph-name="uni025B" horiz-adv-x="1086" d="M76 826Q76 941 185 1010Q310 1090 567 1092Q821 1093 1026 1042V829H914Q903 898 829 939Q758 978 665 979Q542 979 477 930Q417 885 417 822Q417 753 474 707Q543 651 671 651H737V500H676Q527
500 437 430Q369 377 370 289Q371 210 433 156Q510 89 663 88Q814 87 898 168Q938 206 945 266H1056V32Q789 -25 590 -25Q366 -25 211 36Q21 111 20 283Q20 413 108 481Q211 562 352 576Q214 603 145 669T76 826Z" />
<glyph unicode="&#x25c;" glyph-name="uni025C" horiz-adv-x="1086" d="M1010 812Q1010 721 941 662T734 576Q875 562 978 481Q1066 413 1066 283Q1065 111 875 36Q720 -25 496 -25Q297 -25 30 32V266H141Q148 206 188 168Q272 87 423 88Q576 89 653 156Q715 210
716 289Q717 377 649 430Q559 500 410 500H349V637H415Q543 637 612 693Q669 739 669 808Q669 871 609 916Q544 965 421 965Q328 964 257 925Q183 884 172 815H60V1028Q265 1079 519 1078Q776 1076 901 996Q1010 927 1010 812Z" />
<glyph unicode="&#x25d;" glyph-name="uni025D" horiz-adv-x="1806" d="M944 662Q875 603 737 576Q877 562 981 481Q1069 412 1069 283Q1068 111 878 36Q723 -25 499 -25Q300 -25 33 32V266H144Q151 206 191 168Q276 87 426 88Q579 89 656 156Q718 210 719 289Q720
377 652 430Q562 500 413 500H352V637H418Q546 637 615 693Q672 739 672 808Q672 871 612 916Q547 965 424 965Q331 964 260 925Q186 884 175 815H63V1028Q268 1079 522 1078Q779 1076 904 996Q995 938 1010 849L1251 1025L1426 1022V979Q1426 885 1473 843Q1522
799 1580 799Q1679 799 1688 831L1806 679Q1729 631 1726 630Q1679 613 1584 613Q1468 613 1375 706Q1294 787 1283 907L944 662Z" />
<glyph unicode="&#x25e;" glyph-name="uni025E" horiz-adv-x="1340" d="M724 70Q833 71 890 121Q947 172 947 268Q947 341 877 405Q808 467 668 467H630V587H668Q806 587 877 651Q947 713 947 789Q947 884 890 935Q832 987 724 987Q708 987 634 969Q597 960 533
923Q317 800 317 525Q317 273 533 127Q571 101 634 81Q668 70 724 70ZM752 1092Q1028 1092 1171 1015T1314 797Q1314 695 1213 624Q1110 552 928 528Q1110 504 1213 433Q1314 362 1314 259Q1314 118 1171 41T721 -36Q700 -36 557 -17Q498 -9 385 38Q17 192 17 528Q17
836 385 1018Q454 1052 557 1074Q641 1092 752 1092Z" />
<glyph unicode="&#x25f;" glyph-name="uni025F" horiz-adv-x="894" d="M379 942H228V1063H733V600H887V479H733V-125Q733 -288 618 -371T277 -455Q217 -455 149 -445T8 -416V-190L121 -191Q123 -271 152 -306T248 -342Q321 -342 350 -295T379 -125V479H230V600H379V942Z" />
<glyph unicode="&#x260;" glyph-name="uni0260" horiz-adv-x="1533" d="M802 936H600Q490 936 446 849T401 532T446 215T600 127Q705 127 753 210T801 479V584L802 936ZM1155 816V14Q1155 -210 996 -332T545 -455Q439 -455 330 -439T106 -389V-135H219Q234 -240
303 -291T502 -342Q666 -342 733 -264T801 14V135Q756 52 680 12T491 -29Q265 -29 136 121T6 532Q6 762 138 914Q268 1063 494 1063H802V1226Q802 1389 917 1472T1258 1556Q1318 1556 1386 1546T1527 1517V1292H1414Q1412 1372 1383 1407T1287 1443Q1214 1443 1185
1396T1156 1226V816H1155Z" />
<glyph unicode="&#x261;" glyph-name="uni0261" horiz-adv-x="1338" d="M512 1063H1324V942H1173V14Q1173 -210 1014 -332T563 -455Q457 -455 348 -439T124 -389V-135H237Q252 -240 321 -291T520 -342Q684 -342 751 -264T819 14V135Q774 52 698 12T509 -29Q283
-29 154 121T24 532Q24 762 156 914Q286 1063 512 1063ZM819 584L820 936H618Q508 936 464 849T419 532T464 215T618 127Q723 127 771 210T819 479V584Z" />
<glyph unicode="&#x262;" glyph-name="uni0262" horiz-adv-x="1089" d="M898 720Q876 835 776 919Q704 980 627 980Q511 980 436 871Q360 762 360 527Q360 294 432 185Q505 75 613 75Q662 75 720 115L721 411H576V495H1060V98Q943 44 827 17Q711 -9 590 -9Q324
-9 172 134Q20 278 20 527Q20 777 172 920Q324 1064 590 1064Q701 1064 808 1042Q915 1019 1024 974V720H898Z" />
<glyph unicode="&#x263;" glyph-name="uni0263" horiz-adv-x="1213" d="M589 305Q540 238 410 40Q328 -84 328 -183Q328 -235 365 -270Q397 -300 528 -300Q652 -300 713 -267Q773 -235 772 -180Q772 -78 716 54Q645 224 589 305ZM1112 -207Q1112 -328 992 -390Q879
-448 557 -448Q342 -448 252 -372Q188 -319 188 -192Q188 -94 294 80Q396 248 528 404L133 942H14V1063H663V942H534L723 678L911 942H780V1063H1194V942H1053L782 563Q942 334 1028 120Q1112 -88 1112 -207Z" />
<glyph unicode="&#x264;" glyph-name="uni0264" horiz-adv-x="1192" d="M16 974Q16 1064 230 1064Q457 1064 716 692Q1010 1066 1100 1066Q1156 1066 1171 970L1170 818H1065V837Q1065 910 1046 910Q1018 910 780 588Q896 426 957 312Q1028 182 1028 113Q1028
12 922 -46Q868 -76 589 -76Q349 -76 286 -36T223 104Q223 214 378 360Q448 426 498 465Q405 645 204 880Q174 915 156 915Q130 915 130 840V818H16V974ZM408 157Q408 122 430 103Q463 76 564 76Q626 76 649 117Q662 141 662 170Q662 207 628 261Q603 300 560 348Q554
339 488 280Q408 210 408 157Z" />
<glyph unicode="&#x265;" glyph-name="uni0265" horiz-adv-x="1402" d="M1223 1063V-306H1381V-426H869V150Q805 55 723 13T516 -29Q337 -29 246 76T154 387V942H2V1063H637V942H508V377Q508 242 542 190T662 137Q769 137 819 215T869 465V942H739V1063H1223Z" />
<glyph unicode="&#x266;" glyph-name="uni0266" horiz-adv-x="1396" d="M17 0V121H168V1086H169V1226Q169 1389 284 1472T625 1556Q685 1556 753 1546T894 1517V1292H781Q779 1372 750 1407T654 1443Q581 1443 552 1396T523 1226V914Q587 1008 668 1050Q750 1092
875 1092Q1054 1092 1145 987T1237 676V121H1389V0H754V121H883V686Q883 821 849 873T729 926Q622 926 572 848T522 598V121H652V0H17Z" />
<glyph unicode="&#x267;" glyph-name="uni0267" horiz-adv-x="1245" d="M5 0V121H156V1086H157V1226Q157 1389 272 1472T613 1556Q673 1556 741 1546T882 1517V1292H769Q767 1372 738 1407T642 1443Q569 1443 540 1396T511 1226V914Q575 1008 656 1050Q738 1092
863 1092Q1042 1092 1133 987T1225 676V285V121V0V-125Q1225 -288 1110 -371T769 -455Q709 -455 641 -445T500 -416V-191H613Q615 -271 644 -306T740 -342Q813 -342 842 -295T871 -125V0V121V285V686Q871 821 837 873T717 926Q610 926 560 848T510 598V121H640V0H5Z"
/>
<glyph unicode="&#x268;" glyph-name="uni0268" horiz-adv-x="778" d="M19 1364Q19 1445 75 1500T212 1556Q291 1556 346 1501T402 1364Q402 1285 347 1230T212 1174Q131 1174 75 1229T19 1364ZM533 121H685V0H28V121H179V479H28V600H179V942H28V1063H533V600H685V479H533V121Z"
/>
<glyph unicode="&#x269;" glyph-name="uni0269" horiz-adv-x="694" d="M154 337V942H7V1063H508V351Q508 220 550 160Q594 99 685 99V0H512Q326 0 251 48Q154 111 154 337Z" />
<glyph unicode="&#x26a;" glyph-name="uni026A" horiz-adv-x="710" d="M26 1063H683V942H532L531 121H683V0H26V121H177V942H26V1063Z" />
<glyph unicode="&#x26b;" glyph-name="uni026B" horiz-adv-x="739" d="M560 121H712V0H55V121H206V822Q170 819 147 787Q123 752 123 691H13V707Q13 853 66 928Q115 998 206 1004V1436H55V1556H560V877Q580 885 595 906Q619 941 619 1002H729V986Q729 840 676
764Q634 704 560 692V121Z" />
<glyph unicode="&#x26c;" glyph-name="uni026C" horiz-adv-x="946" d="M761 121H913V0H256V121H407V657H250Q1 660 1 831Q1 1082 292 1082Q358 1082 407 1070V1436H256V1556H761V777H933V657H761V121ZM407 918Q397 991 286 978Q148 962 148 867Q148 771 262 777H407V918Z" />
<glyph unicode="&#x26d;" glyph-name="uni026D" horiz-adv-x="886" d="M159 1436H8V1556H513L514 285V-125Q514 -248 543 -295T645 -342Q711 -342 740 -307T772 -191H885V-416Q812 -435 744 -445T616 -455Q391 -455 276 -372T160 -125L159 1436Z" />
<glyph unicode="&#x26e;" glyph-name="uni026E" horiz-adv-x="1634" d="M1140 452Q1360 431 1472 347Q1632 226 1632 16Q1632 -193 1467 -304T987 -416Q869 -416 744 -396T481 -336V-8H602Q613 -150 691 -224T907 -299Q1059 -299 1142 -215T1225 25Q1225 187 1139
275T893 363H827V588L1092 946H633L519 764V121H671V0H14V121H165V1436H14V1556H519V1063H1504V944L1140 452Z" />
<glyph unicode="&#x26f;" glyph-name="uni026F" horiz-adv-x="2103" d="M900 174Q826 68 740 20T539 -29Q356 -29 266 74T175 387V942H23V1063H656V942H529V440Q529 241 559 189T673 137Q767 137 819 209T871 416V942H744V1063H1352V942H1225V440Q1225 241 1256
189T1369 137Q1464 137 1516 209T1568 416V942H1441V1063H2073V942H1922V121H2073V0H1568V150Q1506 57 1426 14T1236 -29Q1106 -29 1025 20T900 174Z" />
<glyph unicode="&#x270;" glyph-name="uni0270" horiz-adv-x="2084" d="M879 174Q805 68 719 20T518 -29Q335 -29 245 74T154 387V942H2V1063H635V942H508V440Q508 241 538 189T652 137Q746 137 798 209T850 416V942H723V1063H1331V942H1204V440Q1204 241 1235
189T1348 137Q1443 137 1495 209T1547 416V942H1420V1063H2052V942H1901V-305H2052V-426H1547V150Q1485 57 1405 14T1215 -29Q1085 -29 1004 20T879 174Z" />
<glyph unicode="&#x271;" glyph-name="uni0271" horiz-adv-x="1938" d="M1177 889Q1251 995 1337 1043T1538 1092Q1721 1092 1811 989T1902 676V285V0V-125Q1902 -288 1787 -371T1446 -455Q1386 -455 1318 -445T1177 -416V-191H1290Q1292 -271 1321 -306T1417
-342Q1490 -342 1519 -295T1548 -125V0V285V623Q1548 822 1518 874T1404 926Q1310 926 1258 854T1206 647V121H1333V0H725V121H852V623Q852 822 821 874T708 926Q613 926 561 854T509 647V121H636V0H4V121H155V942H4V1063H509V913Q571 1006 651 1049T841 1092Q971
1092 1052 1043T1177 889Z" />
<glyph unicode="&#x272;" glyph-name="uni0272" horiz-adv-x="1611" d="M388 942H237V1063H742V913Q806 1008 888 1050T1095 1092Q1274 1092 1365 987T1457 676V121H1609V0H974V121H1103V686Q1103 821 1069 873T949 926Q842 926 792 848T742 598V0H741V-125Q741
-288 626 -371T285 -455Q225 -455 157 -445T16 -416V-191H129Q131 -271 160 -306T256 -342Q329 -342 358 -295T387 -125V285L388 942Z" />
<glyph unicode="&#x273;" glyph-name="uni0273" horiz-adv-x="1604" d="M4 0V121H155V942H4V1063H509V913Q573 1008 655 1050T862 1092Q1041 1092 1132 987T1224 676V0H1222V-125Q1222 -248 1251 -295T1353 -342Q1419 -342 1448 -307T1480 -191H1593V-416Q1520
-435 1452 -445T1324 -455Q1099 -455 984 -372T868 -125V235Q869 261 870 285V686Q870 821 836 873T716 926Q609 926 559 848T509 598V121H639V0H4Z" />
<glyph unicode="&#x274;" glyph-name="uni0274" horiz-adv-x="1272" d="M33 0V122H170V938H33V1063H367L978 439V938H875V1063H1249V938H1112V0H925L303 635V122H406V0H33Z" />
<glyph unicode="&#x275;" glyph-name="uni0275" horiz-adv-x="1242" d="M21 532Q21 795 180 943T621 1092Q903 1092 1062 944T1221 532Q1221 270 1062 121T621 -29T181 120T21 532ZM621 84Q733 84 779 180Q819 266 823 479H417Q421 268 462 181Q508 84 621 84ZM417
600H823Q818 801 779 884Q734 979 621 979T462 882Q422 800 417 600Z" />
<glyph unicode="&#x276;" glyph-name="uni0276" horiz-adv-x="1992" d="M924 87V981H797Q713 981 630 924Q444 797 444 535Q444 290 618 144Q686 87 797 87H924ZM1954 0H929Q722 0 587 18T350 78Q193 139 109 258T24 535Q24 692 108 809T350 990Q450 1031 584
1049T929 1068H1936V816H1799V970H1311V627H1561V763H1698V394H1561V530H1311V98H1817V252H1954V0Z" />
<glyph unicode="&#x277;" glyph-name="uni0277" horiz-adv-x="1401" d="M824 529V489Q824 369 863 263Q935 66 965 66Q1056 66 1054 430Q1053 603 998 772Q906 969 699 973Q499 977 403 772Q348 603 347 430Q347 66 436 66Q465 66 538 263Q577 369 577 489V529H824ZM699
272Q670 130 585 50Q500 -29 376 -29Q207 -29 114 83Q22 194 22 400Q22 479 45 560Q74 666 111 727Q329 1085 699 1085Q1072 1085 1290 727Q1328 666 1356 560Q1379 479 1379 400Q1379 194 1287 83Q1194 -29 1025 -29Q902 -29 816 50Q731 130 699 272Z" />
<glyph unicode="&#x278;" glyph-name="uni0278" horiz-adv-x="1390" d="M362 1556H1019V1435H824L823 1086Q1057 1061 1202 944Q1385 795 1385 532Q1385 270 1202 120Q1056 2 823 -23V-315H1019V-436H362V-315H557V-22Q331 4 188 120Q5 270 5 532Q5 795 188 944Q331
1059 557 1085V1435H362V1556ZM557 113V950Q512 926 485 882Q424 786 424 532T485 181Q512 137 557 113ZM823 955V109Q874 133 903 180Q964 276 964 532T904 884Q875 931 823 955Z" />
<glyph unicode="&#x279;" glyph-name="uni0279" horiz-adv-x="1070" d="M8 -12V305H121Q127 220 167 179T283 137Q399 137 466 239T533 522V942H340V1063H1038V942H887V121H1049V0H533V189Q481 78 396 25T186 -29Q155 -29 111 -25T8 -12Z" />
<glyph unicode="&#x27a;" glyph-name="uni027A" horiz-adv-x="1063" d="M5 -12V305H118Q124 220 164 179T280 137Q396 137 463 239Q530 343 530 522V1436H337V1557H1035V1436H884V121H1046V0H530V189Q478 78 393 25T183 -29Q152 -29 108 -25T5 -12Z" />
<glyph unicode="&#x27b;" glyph-name="uni027B" horiz-adv-x="1266" d="M0 -12V305H113Q113 220 159 178Q199 137 275 137Q391 137 458 239T525 522V942H332V1063H1030V942H879V-125Q879 -248 909 -295Q938 -342 1011 -342Q1077 -342 1107 -306Q1136 -271 1138
-191H1251V-416Q1178 -435 1110 -445T982 -455Q757 -455 641 -372Q526 -288 526 -125V0H525V189Q473 78 387 24Q302 -29 178 -29Q147 -29 103 -24Q58 -20 0 -12Z" />
<glyph unicode="&#x27c;" glyph-name="uni027C" horiz-adv-x="1064" d="M1059 1075V758H946Q940 843 900 884T784 926Q668 926 601 824Q534 720 534 541V-303H727V-424H29V-303H180V942H18V1063H534V874Q586 985 671 1038T881 1092Q912 1092 956 1088T1059 1075Z" />
<glyph unicode="&#x27d;" glyph-name="uni027D" horiz-adv-x="1072" d="M1050 1075V758H937Q931 843 891 884T775 926Q659 926 592 824T525 541V0V-125Q525 -248 554 -295T656 -342Q722 -342 751 -307T783 -191H896V-416Q823 -435 755 -445T627 -455Q402 -455
287 -372T171 -125V0V942H9V1063H525V874Q577 985 662 1038T872 1092Q903 1092 947 1088T1050 1075Z" />
<glyph unicode="&#x27e;" glyph-name="uni027E" horiz-adv-x="898" d="M514 121H707V0H9V121H160V762Q160 925 275 1008T616 1092Q676 1092 744 1082T885 1053V828H772Q770 908 741 943T645 979Q572 979 543 932Q514 883 514 762V121Z" />
<glyph unicode="&#x27f;" glyph-name="uni027F" horiz-adv-x="898" d="M384 121V762Q384 883 355 932Q326 979 253 979Q187 979 158 944T126 828H13V1053Q86 1072 154 1082T282 1092Q507 1092 622 1009T738 762V121H889V0H191V121H384Z" />
<glyph unicode="&#x280;" glyph-name="uni0280" horiz-adv-x="1443" d="M887 519Q970 510 1025 477Q1081 444 1123 382L1268 121H1429V0H976L793 321Q735 412 722 426T697 448Q663 469 649 472Q634 476 607 476H551V121H728V0H32V121H208V942H32V1063H759Q940
1063 1054 1010Q1074 1001 1094 989Q1225 914 1225 777Q1225 666 1132 602Q1053 547 961 529Q928 523 887 519ZM551 597H672Q774 597 829 648Q893 708 893 770Q893 842 840 884Q801 916 753 932Q723 942 672 942H551V597Z" />
<glyph unicode="&#x281;" glyph-name="uni0281" horiz-adv-x="1442" d="M887 544Q928 540 961 534Q1053 516 1132 461Q1225 396 1225 286Q1225 149 1094 74Q1074 62 1054 53Q940 0 759 0H32V121H208V942H32V1063H728V942H551V587H607Q634 587 649 591Q663 594
697 615Q709 622 722 636T793 742L976 1063H1429V942H1268L1123 681Q1081 619 1025 586Q970 553 887 544ZM551 466V121H672Q723 121 753 131Q801 147 840 179Q893 221 893 293Q893 355 829 415Q774 466 672 466H551Z" />
<glyph unicode="&#x282;" glyph-name="uni0282" horiz-adv-x="1024" d="M37 328H150Q164 209 239 147T443 84Q551 84 608 121T666 229Q666 293 630 328T488 389L342 426Q176 468 103 544Q29 620 29 750Q29 923 149 1007T519 1092Q613 1092 719 1077T955 1028V760H842Q833
869 765 924T568 979Q460 979 405 945T349 844Q349 790 381 759T496 707L641 670Q850 617 930 539T1010 322Q1010 142 882 57T482 -29Q438 -29 391 -26V-125Q391 -248 420 -295T522 -342Q588 -342 617 -307T649 -191H762V-416Q689 -435 621 -445T493 -455Q268 -455
153 -372T37 -125V328Z" />
<glyph unicode="&#x283;" glyph-name="uni0283" horiz-adv-x="955" d="M179 1196Q152 1371 292 1464Q405 1556 624 1556Q709 1556 790 1547T949 1518V1290H837Q829 1368 792 1406T685 1444Q603 1444 569 1386Q514 1327 533 1200L734 -127Q756 -273 619 -374Q503
-457 278 -457Q218 -457 150 -447T9 -418V-192L122 -193Q124 -273 153 -308T249 -344Q322 -344 351 -297Q395 -224 380 -127L179 1196Z" />
<glyph unicode="&#x284;" glyph-name="uni0284" horiz-adv-x="1148" d="M376 1063V1196Q376 1373 489 1464T821 1556Q906 1556 987 1547T1146 1518V1290H1034Q1026 1368 989 1406T882 1444Q801 1444 766 1386Q730 1327 730 1200V942H728V600H882V479H728V-125Q728
-288 613 -371T272 -455Q212 -455 144 -445T3 -416V-190L116 -191Q118 -271 147 -306T243 -342Q316 -342 345 -295T374 -125V479H225V600H374V942H223H218V1063H223H376Z" />
<glyph unicode="&#x285;" glyph-name="uni0285" horiz-adv-x="961" d="M779 720L578 -125Q557 -212 607 -295Q636 -342 709 -342Q775 -342 804 -307T836 -191L949 -190V-416Q876 -435 808 -445T680 -455Q455 -455 339 -372Q191 -264 224 -125L425 724Q450 830
389 910Q346 968 273 968Q204 968 167 930T121 814H9V1042Q87 1061 168 1070T334 1080Q541 1080 666 988Q817 878 779 720Z" />
<glyph unicode="&#x286;" glyph-name="uni0286" horiz-adv-x="949" d="M897 -423H787Q775 -344 747 -300Q729 -272 704 -249Q676 -318 602 -374Q489 -457 360 -456Q12 -453 12 -231Q12 -79 163 -42Q211 -31 274 -31Q312 -31 349 -33L162 1196Q137 1363 275 1464Q400
1556 607 1556Q692 1556 773 1547T932 1518V1290H820Q812 1368 775 1406T668 1444Q595 1444 552 1386Q498 1316 516 1200L717 -127Q718 -131 718 -135Q814 -190 850 -253Q897 -334 897 -423ZM362 -123Q345 -121 328 -121Q144 -119 144 -246Q144 -334 276 -327Q305
-325 334 -297Q382 -251 363 -127L362 -123Z" />
<glyph unicode="&#x287;" glyph-name="uni0287" horiz-adv-x="898" d="M736 121H890V0H736V-330H382V0H87V121H382V772Q382 911 360 945T280 979Q216 979 185 936T152 803H3Q12 963 90 1027T361 1092Q580 1092 658 1024T736 772V121Z" />
<glyph unicode="&#x288;" glyph-name="uni0288" horiz-adv-x="889" d="M161 942H7V1063H161V1393H515V1063H810V942H515V-125Q515 -248 544 -295T646 -342Q712 -342 741 -307T773 -191H886V-416Q813 -435 745 -445T617 -455Q392 -455 277 -372T161 -125V942Z" />
<glyph unicode="&#x289;" glyph-name="uni0289" horiz-adv-x="1411" d="M885 600V942H756V1063H1240V600H1380V479H1240V121H1391V0H885V150Q822 55 740 13T533 -29Q354 -29 263 76T171 387V479H42V600H171V942H19V1063H525V600H885ZM885 479H525V442Q525 244
558 191T679 137Q786 137 835 216T885 467V479Z" />
<glyph unicode="&#x28a;" glyph-name="uni028A" horiz-adv-x="1269" d="M1148 975H866Q1042 911 1145 782Q1249 652 1249 510Q1249 402 1200 303T1058 131Q975 64 867 29Q758 -7 636 -7Q513 -7 406 28T215 131Q121 206 72 303Q23 400 23 510Q23 652 127 781Q230
911 407 975H24V1096H536V931Q505 910 452 782Q410 684 410 526Q410 341 472 229Q535 117 636 117T799 229Q862 341 862 526Q862 687 820 783Q767 904 737 931V1096H1148V975Z" />
<glyph unicode="&#x28b;" glyph-name="uni028B" horiz-adv-x="1300" d="M672 -3Q166 0 166 348V942H15V1063H520V346Q520 120 672 121Q773 121 836 233Q898 345 898 530Q898 691 856 787Q803 908 773 935V979H902Q1078 915 1181 786Q1285 656 1285 514Q1285 406
1235 307Q1186 208 1094 135Q1011 68 903 33Q794 -3 672 -3Z" />
<glyph unicode="&#x28c;" glyph-name="uni028C" horiz-adv-x="1289" d="M789 1063L1166 121H1283V0H673V121H802L533 793L265 121H404V0H5V121H128L505 1063H789Z" />
<glyph unicode="&#x28d;" glyph-name="uni028D" horiz-adv-x="1851" d="M714 0L472 709L272 121H411V0H14V121H139L460 1063H704L929 397L1156 1063H1398L1720 121H1836V0H1234V121H1359L1163 696L925 0H714Z" />
<glyph unicode="&#x28e;" glyph-name="uni028E" horiz-adv-x="1287" d="M600 1303Q648 1420 716 1469T899 1518Q948 1518 1008 1507T1139 1475V1253L1026 1254Q1023 1331 990 1368T889 1405Q824 1405 784 1370T704 1235L688 1198L1151 121H1266V0H653V121H780L510
750L258 121H399V0H0V121H129L600 1303Z" />
<glyph unicode="&#x28f;" glyph-name="uni028F" horiz-adv-x="1273" d="M256 0V121H457V403L140 944H13V1065H729V944H563L772 588L979 944H830V1065H1258V944H1131L844 455V121H1045V0H256Z" />
</font>
</defs>
</svg>
