<?xml version="1.0" standalone="no"?> <!DOCTYPE svg PUBLIC "-//W3C//DTD SVG 1.0//EN" "http://www.w3.org/TR/2001/REC-SVG-20010904/DTD/svg10.dtd" > <svg xmlns="http://www.w3.org/2000/svg" width="100%" height="100%">
<defs >
<font horiz-adv-x="1054" ><font-face
    font-family="DejaVu Sans Mono"
    units-per-em="2048"
    panose-1="2 11 6 9 3 8 4 2 2 4"
    ascent="1901"
    descent="-483"
    alphabetic="0" />
<missing-glyph horiz-adv-x="1086" d="M31 -362V1444H1055V-362H31ZM146 -248H941V1329H146V-248Z" />
<glyph unicode=" " glyph-name="space" horiz-adv-x="1233" />
<glyph unicode="!" glyph-name="exclam" horiz-adv-x="241" d="M31 1493H234V838L213 481H52L31 838V1493ZM31 254H234V0H31V254Z" />
<glyph unicode="&quot;" glyph-name="quotedbl" horiz-adv-x="620" d="M588 1493V938H414V1493H588ZM205 1493V938H31V1493H205Z" />
<glyph unicode="#" glyph-name="numbersign" horiz-adv-x="1232" d="M684 1470L580 1055H825L930 1470H1090L985 1055H1229V901H948L864 567H1114V414H825L721 0H561L666 414H420L315 0H156L260 414H2V567H299L383 901H117V1055H420L524 1470H684ZM788 901H543L459
567H705L788 901Z" />
<glyph unicode="$" glyph-name="dollar" horiz-adv-x="926" d="M503 580V146Q613 149 675 207T737 365Q737 458 681 509T503 580ZM403 770V1183Q299 1179 241 1123T182 973Q182 887 236 837T403 770ZM503 -301H403L402 0Q300 5 200 28T1 92V272Q101 210 202 177T403
142V600Q203 631 102 722T1 963Q1 1120 106 1213T403 1321V1556H503L504 1321Q583 1316 664 1301T829 1260V1087Q744 1130 664 1153T503 1181V750Q709 719 817 622T925 371Q925 217 809 114T504 2L503 -301Z" />
<glyph unicode="%" glyph-name="percent" horiz-adv-x="1173" d="M666 319Q666 241 718 188T849 135Q926 135 979 188T1033 319Q1033 396 979 450T849 504Q771 504 719 451T666 319ZM531 319Q531 454 623 546T849 639Q913 639 970 615T1074 545Q1120 498 1145
440T1170 319Q1170 186 1077 93T849 0Q713 0 622 91T531 319ZM91 465L56 561L1098 979L1139 883L91 465ZM138 1112Q138 1033 190 981T322 928Q399 928 453 981T507 1112Q507 1189 453 1242T322 1296Q245 1296 192 1243T138 1112ZM3 1112Q3 1247 95 1339T322 1432Q386
1432 444 1408T548 1339Q593 1294 617 1236T642 1112Q642 978 549 886T322 793Q187 793 95 885T3 1112Z" />
<glyph unicode="&amp;" glyph-name="ampersand" horiz-adv-x="1182" d="M502 907L918 348Q957 397 976 472T995 651Q995 683 992 753L991 760H1155V721Q1155 560 1118 439T1006 229L1176 0H963L885 109Q802 39 709 5T510 -29Q294 -29 153 105T12 444Q12 581 81
698T289 915Q239 987 215 1056T191 1196Q191 1346 290 1433T563 1520Q628 1520 693 1508T829 1473V1290Q770 1329 708 1347T576 1366Q479 1366 423 1321T367 1198Q367 1139 396 1075T502 907ZM371 803Q279 730 234 649T188 475Q188 324 288 225T543 125Q585 125
631 137T721 172Q748 187 765 198T799 223L371 803Z" />
<glyph unicode="&apos;" glyph-name="quotesingle" horiz-adv-x="238" d="M205 1493V938H31V1493H205Z" />
<glyph unicode="(" glyph-name="parenleft" horiz-adv-x="469" d="M462 1554Q329 1326 264 1100T198 643Q198 414 263 187T462 -270H302Q151 -32 77 193T3 643Q3 866 77 1092T302 1554H462Z" />
<glyph unicode=")" glyph-name="parenright" horiz-adv-x="469" d="M7 1554H167Q318 1318 392 1092T466 643Q466 418 392 192T167 -270H7Q140 -38 205 189T271 643Q271 871 206 1098T7 1554Z" />
<glyph unicode="*" glyph-name="asterisk" horiz-adv-x="903" d="M902 1247L544 1053L902 858L845 760L509 963V586H394V963L58 760L1 858L359 1053L1 1247L58 1346L394 1143V1520H509V1143L845 1346L902 1247Z" />
<glyph unicode="+" glyph-name="plus" horiz-adv-x="1057" d="M612 1171V727H1057V557H612V113H444V557H0V727H444V1171H612Z" />
<glyph unicode="," glyph-name="comma" horiz-adv-x="364" d="M107 303H359V96L162 -287H8L107 96V303Z" />
<glyph unicode="-" glyph-name="hyphen" horiz-adv-x="584" d="M31 643H552V479H31V643Z" />
<glyph unicode="." glyph-name="period" horiz-adv-x="316" d="M31 305H283V0H31V305Z" />
<glyph unicode="/" glyph-name="slash" horiz-adv-x="977" d="M787 1493H977L191 -190H0L787 1493Z" />
<glyph unicode="0" glyph-name="zero" horiz-adv-x="1003" d="M368 750Q368 805 406 845T499 885Q555 885 595 845T635 750Q635 694 596 655T499 616Q443 616 406 654T368 750ZM501 1360Q360 1360 291 1208T221 745Q221 435 290 283T501 131Q643 131 712 283T782
745Q782 1056 713 1208T501 1360ZM501 1520Q740 1520 862 1324T985 745Q985 363 863 167T501 -29Q262 -29 140 167T18 745Q18 1128 140 1324T501 1520Z" />
<glyph unicode="1" glyph-name="one" horiz-adv-x="867" d="M41 170H355V1311L17 1235V1419L353 1493H555V170H865V0H41V170Z" />
<glyph unicode="2" glyph-name="two" horiz-adv-x="943" d="M246 170H932V0H25V170Q212 367 352 518T545 731Q645 853 680 928T715 1083Q715 1208 642 1279T440 1350Q349 1350 249 1317T37 1217V1421Q140 1470 239 1495T436 1520Q655 1520 788 1404T922 1098Q922
1002 878 906T733 694Q677 629 571 514T246 170Z" />
<glyph unicode="3" glyph-name="three" horiz-adv-x="978" d="M659 799Q806 760 884 661T962 412Q962 206 824 89T440 -29Q337 -29 230 -10T20 45V246Q122 193 221 167T418 141Q584 141 673 216T762 432Q762 562 673 638T432 715H278V881H432Q571 881 649 942T727
1112Q727 1227 655 1288T448 1350Q359 1350 264 1330T65 1270V1456Q186 1488 280 1504T448 1520Q666 1520 796 1411T927 1120Q927 997 859 915T659 799Z" />
<glyph unicode="4" glyph-name="four" horiz-adv-x="1039" d="M633 1309L162 520H633V1309ZM600 1493H834V520H1033V356H834V0H633V356H0V547L600 1493Z" />
<glyph unicode="5" glyph-name="five" horiz-adv-x="958" d="M87 1493H843V1323H271V956Q314 972 357 979T445 987Q677 987 813 850T949 479Q949 243 807 107T417 -29Q298 -29 200 -13T23 35V240Q115 190 208 166T398 141Q565 141 655 229T746 479Q746 639 653
728T392 817Q311 817 234 799T87 743V1493Z" />
<glyph unicode="6" glyph-name="six" horiz-adv-x="999" d="M875 1460V1274Q812 1311 741 1330T593 1350Q401 1350 302 1206T203 780Q251 880 336 933T531 987Q747 987 865 855T984 479Q984 237 862 104T519 -29Q259 -29 138 157T17 745Q17 1123 162 1321T584
1520Q658 1520 732 1505T875 1460ZM515 829Q386 829 312 736T238 479Q238 315 312 222T515 129Q649 129 717 217T785 479Q785 653 717 741T515 829Z" />
<glyph unicode="7" glyph-name="seven" horiz-adv-x="943" d="M2 1493H942V1407L408 0H197L717 1323H2V1493Z" />
<glyph unicode="8" glyph-name="eight" horiz-adv-x="1005" d="M502 709Q367 709 294 634T220 420Q220 282 294 206T502 129Q638 129 711 204T785 420Q785 557 711 633T502 709ZM326 793Q197 826 125 916T52 1133Q52 1311 173 1415T502 1520Q711 1520 832 1416T953
1133Q953 1006 881 916T679 793Q829 760 908 660T988 401Q988 199 859 85T502 -29Q274 -29 146 84T17 399Q17 559 96 659T326 793ZM253 1114Q253 994 317 931T502 868Q624 868 688 931T752 1114Q752 1236 689 1300T502 1364Q381 1364 317 1300T253 1114Z" />
<glyph unicode="9" glyph-name="nine" horiz-adv-x="999" d="M484 662Q613 662 686 755T760 1012Q760 1176 687 1269T484 1362Q350 1362 282 1274T214 1012Q214 838 281 750T484 662ZM124 31V217Q187 180 258 161T406 141Q598 141 696 285T795 711Q748 611 663
558T468 504Q252 504 134 637T15 1014Q15 1255 136 1387T480 1520Q740 1520 861 1333T982 745Q982 368 837 170T414 -29Q341 -29 267 -14T124 31Z" />
<glyph unicode=":" glyph-name="colon" horiz-adv-x="286" d="M31 1063H283V760H31V1063ZM31 305H283V0H31V305Z" />
<glyph unicode=";" glyph-name="semicolon" horiz-adv-x="367" d="M106 303H358V96L161 -287H7L106 96V303ZM93 1063H345V760H93V1063Z" />
<glyph unicode="&lt;" glyph-name="less" horiz-adv-x="1067" d="M1057 961L207 641L1057 324V141L0 559V725L1057 1143V961Z" />
<glyph unicode="=" glyph-name="equal" horiz-adv-x="1091" d="M31 524H1088V352H31V524ZM31 930H1088V760H31V930Z" />
<glyph unicode="&gt;" glyph-name="greater" horiz-adv-x="1088" d="M31 961V1143L1088 725V559L31 141V324L881 641L31 961Z" />
<glyph unicode="?" glyph-name="question" horiz-adv-x="804" d="M446 401H256V555Q256 653 286 721T401 872L491 961Q553 1020 576 1064T600 1157Q600 1246 535 1301T360 1356Q282 1356 193 1322T6 1219V1407Q100 1464 195 1492T395 1520Q581 1520 691 1424T802
1167Q802 1091 769 1026T641 868L553 782Q484 716 465 674T446 571V524V401ZM249 254H452V0H249V254Z" />
<glyph unicode="@" glyph-name="at" horiz-adv-x="1181" d="M1024 545Q1024 674 960 751T789 829Q682 829 618 752T553 545Q553 415 617 338T789 260Q896 260 960 337T1024 545ZM1164 135H1020V246Q983 183 918 149T770 115Q609 115 504 236T398 545Q398 733 503
854T770 975Q850 975 917 940T1020 844V907Q1020 1063 932 1158T699 1253Q453 1253 308 1062T162 543Q162 214 327 19T766 -176Q820 -176 874 -166T985 -135L1033 -270Q970 -295 909 -307T789 -319Q432 -319 223 -86T13 543Q13 933 201 1164T705 1395Q914 1395
1039 1262T1164 905V135Z" />
<glyph unicode="A" glyph-name="A" horiz-adv-x="1167" d="M583 1315L370 551H796L583 1315ZM461 1493H706L1163 0H954L844 389H321L213 0H4L461 1493Z" />
<glyph unicode="B" glyph-name="B" horiz-adv-x="1018" d="M234 713V166H473Q649 166 724 227T799 430Q799 576 720 644T473 713H234ZM234 1327V877H469Q615 877 680 933T746 1114Q746 1227 682 1277T469 1327H234ZM31 1493H473Q702 1493 826 1394T950 1114Q950
977 885 898T688 799Q835 777 918 674T1002 410Q1002 207 869 104T473 0H31V1493Z" />
<glyph unicode="C" glyph-name="C" horiz-adv-x="975" d="M948 53Q871 12 790 -8T618 -29Q331 -29 173 174T14 745Q14 1111 173 1315T618 1520Q709 1520 790 1500T948 1438V1231Q874 1292 789 1324T618 1356Q421 1356 323 1204T225 745Q225 439 323 287T618 135Q706
135 790 167T948 260V53Z" />
<glyph unicode="D" glyph-name="D" horiz-adv-x="1013" d="M329 166Q584 166 685 291T786 745Q786 1076 686 1201T329 1327H233V166H329ZM333 1493Q675 1493 837 1311T999 745Q999 363 837 182T333 0H30V1493H333Z" />
<glyph unicode="E" glyph-name="E" horiz-adv-x="941" d="M30 1493H916V1323H232V881H886V711H232V170H935V0H30V1493Z" />
<glyph unicode="F" glyph-name="F" horiz-adv-x="909" d="M30 1493H909V1323H233V883H846V713H233V0H30V1493Z" />
<glyph unicode="G" glyph-name="G" horiz-adv-x="1037" d="M1016 123Q935 48 834 10T614 -29Q330 -29 172 174T14 745Q14 1111 174 1315T619 1520Q713 1520 799 1494T965 1413V1206Q884 1283 799 1319T619 1356Q422 1356 324 1204T225 745Q225 434 320 285T614
135Q681 135 731 150T823 199V600H606V766H1016V123Z" />
<glyph unicode="H" glyph-name="H" horiz-adv-x="1017" d="M29 1493H232V881H785V1493H988V0H785V711H232V0H29V1493Z" />
<glyph unicode="I" glyph-name="I" horiz-adv-x="858" d="M14 1493H843V1323H530V170H843V0H14V170H327V1323H14V1493Z" />
<glyph unicode="J" glyph-name="J" horiz-adv-x="875" d="M2 61V297Q93 216 190 176T391 135Q534 135 590 209T647 487V1323H266V1493H849V487Q849 205 744 88T391 -29Q295 -29 200 -7T2 61Z" />
<glyph unicode="K" glyph-name="K" horiz-adv-x="1130" d="M28 1493H231V829L862 1493H1099L518 883L1116 0H872L385 748L231 584V0H28V1493Z" />
<glyph unicode="L" glyph-name="L" horiz-adv-x="952" d="M28 1493H231V170H952V0H28V1493Z" />
<glyph unicode="M" glyph-name="M" horiz-adv-x="1115" d="M28 1493H298L556 733L816 1493H1087V0H900V1319L634 532H481L214 1319V0H28V1493Z" />
<glyph unicode="N" glyph-name="N" horiz-adv-x="1011" d="M28 1493H284L788 264V1493H983V0H727L223 1229V0H28V1493Z" />
<glyph unicode="O" glyph-name="O" horiz-adv-x="1032" d="M805 745Q805 1074 738 1215T516 1356Q363 1356 296 1215T228 745Q228 417 295 276T516 135Q670 135 737 275T805 745ZM1016 745Q1016 355 893 163T516 -29Q263 -29 140 162T17 745Q17 1136 140 1328T516
1520Q769 1520 892 1328T1016 745Z" />
<glyph unicode="P" glyph-name="P" horiz-adv-x="971" d="M229 1327V766H463Q603 766 681 840T760 1047Q760 1180 682 1253T463 1327H229ZM27 1493H463Q713 1493 842 1380T971 1047Q971 826 843 713T463 600H229V0H27V1493Z" />
<glyph unicode="Q" glyph-name="Q" horiz-adv-x="1022" d="M546 -27Q539 -27 526 -28T505 -29Q255 -29 132 163T8 745Q8 1136 131 1328T507 1520Q760 1520 883 1328T1007 745Q1007 451 939 272T731 20L931 -170L780 -270L546 -27ZM796 745Q796 1074 729 1215T507
1356Q354 1356 287 1215T219 745Q219 417 286 276T507 135Q661 135 728 275T796 745Z" />
<glyph unicode="R" glyph-name="R" horiz-adv-x="1124" d="M644 705Q722 685 777 630T914 408L1117 0H900L722 377Q645 538 584 584T423 631H230V0H27V1493H443Q689 1493 820 1382T951 1061Q951 913 871 820T644 705ZM230 1327V797H451Q596 797 667 862T738 1061Q738
1190 663 1258T443 1327H230Z" />
<glyph unicode="S" glyph-name="S" horiz-adv-x="988" d="M889 1442V1237Q797 1296 705 1326T518 1356Q375 1356 292 1290T209 1110Q209 1011 263 959T467 872L573 848Q783 799 879 694T975 408Q975 195 843 83T459 -29Q354 -29 248 -7T35 61V276Q150 203 252
169T459 135Q612 135 697 203T782 395Q782 507 724 566T520 657L412 682Q204 729 110 824T16 1079Q16 1279 150 1399T508 1520Q594 1520 689 1501T889 1442Z" />
<glyph unicode="T" glyph-name="T" horiz-adv-x="1141" d="M1 1493H1140V1323H673V0H470V1323H1V1493Z" />
<glyph unicode="U" glyph-name="U" horiz-adv-x="985" d="M23 573V1493H226V481Q226 372 232 326T253 254Q285 195 345 165T492 135Q579 135 639 165T732 254Q747 279 753 325T759 479V1493H961V573Q961 344 933 248T834 88Q768 29 683 0T492 -29Q387 -29 302
0T150 88Q81 150 52 248T23 573Z" />
<glyph unicode="V" glyph-name="V" horiz-adv-x="1127" d="M563 170L914 1493H1123L686 0H441L4 1493H213L563 170Z" />
<glyph unicode="W" glyph-name="W" horiz-adv-x="1259" d="M13 1493H210L353 281L523 1083H734L906 279L1049 1493H1246L1023 0H832L629 887L427 0H236L13 1493Z" />
<glyph unicode="X" glyph-name="X" horiz-adv-x="1224" d="M81 1493H298L626 930L960 1493H1177L730 791L1209 0H992L626 643L231 0H13L513 791L81 1493Z" />
<glyph unicode="Y" glyph-name="Y" horiz-adv-x="1161" d="M1 1493H216L580 834L943 1493H1160L681 670V0H478V670L1 1493Z" />
<glyph unicode="Z" glyph-name="Z" horiz-adv-x="1036" d="M34 1493H1003V1339L223 170H1025V0H12V154L771 1323H34V1493Z" />
<glyph unicode="[" glyph-name="bracketleft" horiz-adv-x="451" d="M26 1556H450V1413H210V-127H450V-270H26V1556Z" />
<glyph unicode="\" glyph-name="backslash" horiz-adv-x="977" d="M191 1493L977 -190H787L0 1493H191Z" />
<glyph unicode="]" glyph-name="bracketright" horiz-adv-x="452" d="M425 1556V-270H1V-127H241V1413H1V1556H425Z" />
<glyph unicode="^" glyph-name="asciicircum" horiz-adv-x="1095" d="M636 1493L1092 936H914L547 1331L181 936H3L459 1493H636Z" />
<glyph unicode="_" glyph-name="underscore" horiz-adv-x="1285" d="M1259 -403V-483H26V-403H1259Z" />
<glyph unicode="`" glyph-name="grave" horiz-adv-x="479" d="M198 1638L479 1262H325L0 1638H198Z" />
<glyph unicode="a" glyph-name="a" horiz-adv-x="962" d="M583 563H522Q361 563 280 507T198 338Q198 237 259 181T428 125Q580 125 667 230T755 522V563H583ZM940 639V0H755V166Q696 66 607 19T389 -29Q218 -29 116 67T14 326Q14 513 139 610T508 707H755V736Q754
870 687 930T473 991Q379 991 283 964T96 885V1069Q198 1108 291 1127T473 1147Q612 1147 710 1106T870 983Q908 933 924 860T940 639Z" />
<glyph unicode="b" glyph-name="b" horiz-adv-x="946" d="M751 559Q751 773 683 882T482 991Q348 991 279 882T210 559Q210 347 279 237T482 127Q615 127 683 236T751 559ZM210 977Q254 1059 331 1103T511 1147Q713 1147 829 992T945 563Q945 286 829 129T509
-29Q409 -29 333 14T210 141V0H26V1556H210V977Z" />
<glyph unicode="c" glyph-name="c" horiz-adv-x="899" d="M878 57Q804 14 726 -7T565 -29Q305 -29 159 127T12 559Q12 835 158 991T565 1147Q646 1147 723 1126T878 1061V868Q805 933 732 962T565 991Q392 991 299 879T206 559Q206 352 299 240T565 127Q661 127
737 156T878 248V57Z" />
<glyph unicode="d" glyph-name="d" horiz-adv-x="946" d="M736 977V1556H920V0H736V141Q690 58 614 15T437 -29Q234 -29 118 128T1 563Q1 836 118 991T437 1147Q538 1147 615 1104T736 977ZM195 559Q195 345 263 236T464 127Q597 127 666 237T736 559Q736 772
667 881T464 991Q331 991 263 882T195 559Z" />
<glyph unicode="e" glyph-name="e" horiz-adv-x="1016" d="M1002 606V516H205V510Q205 327 300 227T570 127Q658 127 754 155T959 240V57Q854 14 757 -7T568 -29Q307 -29 160 127T13 559Q13 827 157 987T541 1147Q755 1147 878 1002T1002 606ZM818 660Q814 822
742 906T533 991Q400 991 314 903T212 659L818 660Z" />
<glyph unicode="f" glyph-name="f" horiz-adv-x="869" d="M868 1556V1403H659Q560 1403 522 1363T483 1219V1120H868V977H483V0H299V977H0V1120H299V1198Q299 1382 383 1469T647 1556H868Z" />
<glyph unicode="g" glyph-name="g" horiz-adv-x="953" d="M746 569Q746 776 679 883T482 991Q347 991 276 884T205 569Q205 362 276 254T484 145Q611 145 678 254T746 569ZM930 72Q930 -180 811 -310T461 -440Q385 -440 302 -426T136 -385V-203Q234 -249 314 -271T461
-293Q610 -293 678 -212T746 45V53V178Q702 84 626 38T441 -8Q245 -8 128 149T11 569Q11 833 128 990T441 1147Q549 1147 624 1104T746 971V1116H930V72Z" />
<glyph unicode="h" glyph-name="h" horiz-adv-x="885" d="M882 694V0H697V694Q697 845 644 916T478 987Q349 987 280 896T210 633V0H26V1556H210V952Q259 1048 343 1097T542 1147Q713 1147 797 1035T882 694Z" />
<glyph unicode="i" glyph-name="i" horiz-adv-x="914" d="M78 1120H549V143H914V0H0V143H365V977H78V1120ZM365 1556H549V1323H365V1556Z" />
<glyph unicode="j" glyph-name="j" horiz-adv-x="618" d="M414 -20V977H97V1120H598V-20Q598 -215 509 -320T254 -426H0V-270H234Q324 -270 369 -208T414 -20ZM414 1556H598V1323H414V1556Z" />
<glyph unicode="k" glyph-name="k" horiz-adv-x="992" d="M26 1556H216V655L699 1120H923L482 698L992 0H767L353 578L216 449V0H26V1556Z" />
<glyph unicode="l" glyph-name="l" horiz-adv-x="874" d="M479 406Q479 282 524 219T659 156H874V0H641Q476 0 386 106T295 406V1423H0V1567H479V406Z" />
<glyph unicode="m" glyph-name="m" horiz-adv-x="1076" d="M593 1006Q627 1078 679 1112T806 1147Q941 1147 996 1043T1052 649V0H884V641Q884 878 858 935T761 993Q681 993 652 932T622 641V0H454V641Q454 881 426 937T323 993Q250 993 222 932T193 641V0H26V1120H193V1024Q226
1084 275 1115T388 1147Q464 1147 514 1112T593 1006Z" />
<glyph unicode="n" glyph-name="n" horiz-adv-x="905" d="M882 694V0H697V694Q697 845 644 916T478 987Q349 987 280 896T210 633V0H26V1120H210V952Q259 1048 343 1097T542 1147Q713 1147 797 1035T882 694Z" />
<glyph unicode="o" glyph-name="o" horiz-adv-x="989" d="M494 991Q354 991 282 882T210 559Q210 346 282 237T494 127Q635 127 707 236T779 559Q779 773 707 882T494 991ZM494 1147Q727 1147 850 996T974 559Q974 272 851 122T494 -29Q261 -29 138 121T15 559Q15
845 138 996T494 1147Z" />
<glyph unicode="p" glyph-name="p" horiz-adv-x="945" d="M211 141V-426H26V1120H211V977Q257 1060 333 1103T510 1147Q713 1147 828 990T944 555Q944 282 828 127T510 -29Q408 -29 332 14T211 141ZM751 559Q751 773 684 882T483 991Q349 991 280 882T211 559Q211
347 280 237T483 127Q616 127 683 236T751 559Z" />
<glyph unicode="q" glyph-name="q" horiz-adv-x="945" d="M196 555Q196 341 263 232T464 123Q597 123 665 232T734 555Q734 768 666 877T464 987Q331 987 264 878T196 555ZM734 139Q689 56 613 12T435 -33Q234 -33 118 122T1 551Q1 829 117 986T435 1143Q535 1143
611 1100T734 973V1116H919V-430H734V139Z" />
<glyph unicode="r" glyph-name="r" horiz-adv-x="819" d="M819 889Q760 935 699 956T565 977Q393 977 302 869T211 557V0H26V1120H211V901Q257 1020 352 1083T579 1147Q647 1147 706 1130T819 1077V889Z" />
<glyph unicode="s" glyph-name="s" horiz-adv-x="847" d="M777 1081V901Q698 947 618 970T455 993Q330 993 269 953T207 829Q207 754 253 717T482 645L556 631Q693 605 763 527T834 324Q834 158 716 65T388 -29Q305 -29 214 -12T17 41V231Q120 178 214 152T392
125Q514 125 581 174T648 313Q648 441 403 490L395 492L326 506Q167 537 94 610T21 811Q21 972 130 1059T441 1147Q531 1147 614 1131T777 1081Z" />
<glyph unicode="t" glyph-name="t" horiz-adv-x="902" d="M483 1438V1120H901V977H483V369Q483 245 530 196T694 147H901V0H676Q469 0 384 83T299 369V977H0V1120H299V1438H483Z" />
<glyph unicode="u" glyph-name="u" horiz-adv-x="905" d="M23 424V1118H207V424Q207 273 260 202T426 131Q556 131 625 222T694 485V1118H879V0H694V168Q645 71 561 21T363 -29Q191 -29 107 83T23 424Z" />
<glyph unicode="v" glyph-name="v" horiz-adv-x="1041" d="M4 1120H195L520 180L846 1120H1037L639 0H402L4 1120Z" />
<glyph unicode="w" glyph-name="w" horiz-adv-x="1255" d="M11 1120H193L388 215L548 793H705L867 215L1062 1120H1244L982 0H806L627 614L449 0H273L11 1120Z" />
<glyph unicode="x" glyph-name="x" horiz-adv-x="1111" d="M1057 1120L656 584L1096 0H883L555 449L228 0H15L455 584L54 1120H258L555 715L850 1120H1057Z" />
<glyph unicode="y" glyph-name="y" horiz-adv-x="1061" d="M766 360Q720 243 649 52Q550 -212 516 -270Q470 -348 401 -387T240 -426H92V-272H201Q282 -272 328 -225T445 18L12 1120H207L539 244L866 1120H1061L766 360Z" />
<glyph unicode="z" glyph-name="z" horiz-adv-x="871" d="M40 1122H853V954L210 150H853V0H16V170L659 975H40V1122Z" />
<glyph unicode="{" glyph-name="braceleft" horiz-adv-x="798" d="M791 -190V-334H727Q478 -334 394 -260T309 35V274Q309 425 256 483T62 541H0V684H62Q203 684 256 741T309 948V1188Q309 1409 393 1482T727 1556H791V1413H721Q581 1413 539 1370T496 1184V936Q496
779 451 708T295 612Q406 585 451 514T496 287V39Q496 -104 538 -147T721 -190H791Z" />
<glyph unicode="|" glyph-name="bar" horiz-adv-x="226" d="M198 1565V-483H26V1565H198Z" />
<glyph unicode="}" glyph-name="braceright" horiz-adv-x="798" d="M7 -190H75Q216 -190 259 -146T302 39V287Q302 443 347 514T503 612Q393 637 348 708T302 936V1184Q302 1325 259 1369T75 1413H7V1556H69Q318 1556 402 1483T486 1188V948Q486 798 539 741T734
684H798V541H734Q593 541 540 483T486 274V35Q486 -186 402 -260T69 -334H7V-190Z" />
<glyph unicode="~" glyph-name="asciitilde" horiz-adv-x="1099" d="M1078 780V606Q1003 547 932 520T781 492Q691 492 578 543Q556 553 545 557Q468 590 417 602T314 614Q235 614 165 585T21 492V666Q99 726 172 753T328 780Q381 780 431 769T555 727Q567 722
588 712Q704 657 797 657Q867 657 935 687T1078 780Z" />
<glyph unicode="&#xa0;" glyph-name="nbspace" horiz-adv-x="1233" />
<glyph unicode="&#xa1;" glyph-name="exclamdown" horiz-adv-x="256" d="M26 1239V1493H229V1239H26ZM26 0V655L47 1012H208L229 655V0H26Z" />
<glyph unicode="&#xa2;" glyph-name="cent" horiz-adv-x="849" d="M848 1077V905Q781 945 716 967T588 993V123Q651 128 716 150T848 213V41Q775 10 710 -7T588 -27V-313H485V-27Q260 -5 130 151T0 559Q0 809 131 967T485 1145V1432H588V1145Q645 1142 710 1125T848
1077ZM485 127V991Q353 979 273 861T193 559Q193 375 273 258T485 127Z" />
<glyph unicode="&#xa3;" glyph-name="sterling" horiz-adv-x="990" d="M957 1462V1278Q895 1322 832 1344T701 1366Q567 1366 504 1277T440 995V778H811V635H440V170H977V0H4V170H240V635H41V778H240V1016Q240 1270 349 1395T682 1520Q747 1520 815 1506T957 1462Z" />
<glyph unicode="&#xa4;" glyph-name="currency" horiz-adv-x="935" d="M683 643Q683 733 621 794T468 856Q378 856 316 795T253 643Q253 551 315 489T468 426Q559 426 621 489T683 643ZM659 924L825 1090L915 997L749 831Q779 782 793 736T808 641Q808 591 793
546T747 455L915 289L821 195L655 362Q609 331 564 316T468 301Q420 301 372 315T276 358L112 195L20 285L186 451Q155 502 141 548T126 641Q126 691 141 737T188 829L20 995L114 1090L280 922Q326 953 371 968T468 983Q514 983 561 969T659 924Z" />
<glyph unicode="&#xa5;" glyph-name="yen" horiz-adv-x="1164" d="M3 1493H218L582 834L945 1493H1162L832 932H1084V821H769L683 670V635H1084V524H683V0H480V524H81V635H480V670L390 821H81V932H324L3 1493Z" />
<glyph unicode="&#xa6;" glyph-name="brokenbar" horiz-adv-x="214" d="M198 1432V674H26V1432H198ZM198 408V-350H26V408H198Z" />
<glyph unicode="&#xa7;" glyph-name="section" horiz-adv-x="854" d="M746 1462V1298Q663 1337 592 1356T463 1376Q366 1376 313 1336T259 1225Q259 1135 464 1020Q490 1005 504 997Q716 878 781 801T846 623Q846 533 801 463T662 340Q723 288 752 234T781 115Q781
-27 679 -111T404 -195Q331 -195 254 -181T89 -137V27Q176 -12 250 -31T381 -51Q483 -51 539 -9T596 109Q596 211 375 334L351 348Q137 468 73 544T9 723Q9 814 55 885T193 1006Q133 1050 104 1106T74 1231Q74 1361 174 1440T441 1520Q513 1520 589 1506T746 1462ZM295
936Q233 891 203 846T172 754Q172 678 242 611T560 410Q622 455 652 500T682 592Q682 668 611 736T295 936Z" />
<glyph unicode="&#xa8;" glyph-name="dieresis" horiz-adv-x="647" d="M26 1552H229V1350H26V1552ZM418 1552H620V1350H418V1552Z" />
<glyph unicode="&#xa9;" glyph-name="copyright" horiz-adv-x="1257" d="M876 1071V963Q818 991 763 1004T649 1018Q532 1018 465 944T397 741Q397 609 467 538T667 467Q723 467 774 479T876 518V414Q824 391 767 380T649 369Q469 369 366 469T262 741Q262 914
366 1015T649 1116Q710 1116 767 1105T876 1071ZM628 1255Q522 1255 432 1218T266 1106Q191 1031 153 939T114 741Q114 637 152 546T266 379Q342 303 432 265T628 227Q734 227 824 265T991 379Q1067 455 1104 545T1142 741Q1142 847 1104 939T991 1106Q916 1181
826 1218T628 1255ZM628 1358Q755 1358 864 1313T1063 1178Q1153 1087 1199 977T1245 741Q1245 616 1200 507T1063 307Q972 216 863 171T628 125Q503 125 394 170T194 307Q103 398 58 507T12 741Q12 867 58 977T194 1178Q284 1268 393 1313T628 1358Z" />
<glyph unicode="&#xaa;" glyph-name="ordfeminine" horiz-adv-x="719" d="M425 1104Q281 1104 219 1070T157 958Q157 894 200 856T316 817Q421 817 486 888T552 1075V1104H425ZM695 1165V717H552V829Q503 764 438 731T290 698Q161 698 86 766T11 950Q11 1079 104
1149T370 1219H552V1223Q552 1313 493 1359T316 1405Q265 1405 203 1388T73 1337V1464Q141 1492 208 1506T339 1520Q523 1520 609 1434T695 1165ZM34 592H702V469H34V592Z" />
<glyph unicode="&#xab;" glyph-name="guillemotleft" horiz-adv-x="944" d="M471 1059V868L170 600L471 332V141L2 559V641L471 1059ZM925 1059V868L624 600L925 332V141L456 559V641L925 1059Z" />
<glyph unicode="&#xac;" glyph-name="logicalnot" horiz-adv-x="1083" d="M0 862H1057V371H889V690H0V862Z" />
<glyph unicode="&#xad;" glyph-name="sfthyphen" horiz-adv-x="574" d="M26 643H547V479H26V643Z" />
<glyph unicode="&#xae;" glyph-name="registered" horiz-adv-x="1257" d="M612 1100Q759 1100 831 1051T903 901Q903 830 859 784T735 723Q754 718 783 685T850 592L964 406H821L714 580Q665 660 635 681T559 702H504V406H374V1100H612ZM606 1016H504V784H606Q696
784 733 811T770 901Q770 963 733 989T606 1016ZM628 1358Q755 1358 864 1313T1063 1178Q1153 1087 1199 977T1245 741Q1245 616 1200 507T1063 307Q972 216 863 171T628 125Q503 125 394 170T194 307Q103 398 58 507T12 741Q12 867 58 977T194 1178Q284 1268 393
1313T628 1358ZM628 1255Q522 1255 432 1218T266 1106Q191 1031 153 939T114 741Q114 637 152 546T266 379Q342 303 432 265T628 227Q734 227 824 265T991 379Q1067 455 1104 545T1142 741Q1142 847 1104 939T991 1106Q916 1181 826 1218T628 1255Z" />
<glyph unicode="&#xaf;" glyph-name="overscore" horiz-adv-x="651" d="M26 1526H624V1378H26V1526Z" />
<glyph unicode="&#xb0;" glyph-name="degree" horiz-adv-x="660" d="M330 1520Q395 1520 453 1496T556 1425Q601 1380 624 1323T648 1200Q648 1068 555 977T328 885Q193 885 103 975T13 1200Q13 1334 105 1427T330 1520ZM330 1391Q251 1391 196 1336T140 1200Q140
1120 194 1066T328 1012Q408 1012 464 1067T521 1200Q521 1279 465 1335T330 1391Z" />
<glyph unicode="&#xb1;" glyph-name="plusminus" horiz-adv-x="1063" d="M3 170H1060V0H3V170ZM615 1171V842H1060V672H615V340H447V672H3V842H447V1171H615Z" />
<glyph unicode="&#xb2;" glyph-name="twosuperior" horiz-adv-x="606" d="M183 782H593V668H22V778L253 1004Q354 1101 394 1162T435 1274Q435 1335 385 1373T253 1411Q204 1411 148 1393T28 1339V1464Q93 1492 153 1506T273 1520Q415 1520 501 1454T587 1280Q587
1223 550 1164T394 987L183 782Z" />
<glyph unicode="&#xb3;" glyph-name="threesuperior" horiz-adv-x="630" d="M424 1120Q518 1099 567 1045T617 911Q617 787 522 720T250 653Q192 653 135 663T19 694V815Q88 788 144 775T246 762Q347 762 406 802T465 911Q465 985 410 1023T246 1061H180V1169H254Q347
1169 396 1200T445 1292Q445 1348 397 1379T262 1411Q218 1411 162 1399T47 1364V1485Q116 1502 174 1511T283 1520Q428 1520 512 1461T596 1303Q596 1232 552 1186T424 1120Z" />
<glyph unicode="&#xb4;" glyph-name="acute" horiz-adv-x="479" d="M281 1638H479L154 1262H0L281 1638Z" />
<glyph unicode="&#xb5;" glyph-name="mu" horiz-adv-x="1013" d="M26 -428V1120H210V424Q210 282 270 207T441 131Q568 131 632 216T697 467V1120H882V256Q882 197 898 169T947 141Q956 141 970 146T1013 164V16Q975 -7 941 -18T873 -29Q811 -29 774 10T724 129Q678
49 612 10T456 -29Q364 -29 301 9T193 127V-428H26Z" />
<glyph unicode="&#xb6;" glyph-name="paragraph" horiz-adv-x="951" d="M477 1493H925V-197H784V1370H593V-197H452V649Q237 666 119 776T1 1071Q1 1261 131 1377T477 1493Z" />
<glyph unicode="&#xb7;" glyph-name="middot" horiz-adv-x="305" d="M26 864H278V559H26V864Z" />
<glyph unicode="&#xb8;" glyph-name="cedilla" horiz-adv-x="1233" d="M307 0Q363 -62 389 -114T416 -215Q416 -304 356 -349T178 -395Q133 -395 90 -389T2 -371V-240Q36 -257 73 -264T158 -272Q216 -272 246 -248T277 -178Q277 -148 255 -105T189 0H307Z" />
<glyph unicode="&#xb9;" glyph-name="onesuperior" horiz-adv-x="591" d="M35 778H240V1389L17 1348V1464L246 1503H384V778H588V668H35V778Z" />
<glyph unicode="&#xba;" glyph-name="ordmasculine" horiz-adv-x="769" d="M384 1403Q282 1403 225 1325T167 1108Q167 969 224 892T384 815Q485 815 543 893T602 1108Q602 1247 545 1325T384 1403ZM384 1520Q554 1520 655 1408T757 1108Q757 921 656 810T384
698Q214 698 113 809T12 1108Q12 1296 113 1408T384 1520ZM44 592H720V469H44V592Z" />
<glyph unicode="&#xbb;" glyph-name="guillemotright" horiz-adv-x="951" d="M480 1059L949 641V559L480 141V332L781 600L480 868V1059ZM26 1059L495 641V559L26 141V332L327 600L26 868V1059Z" />
<glyph unicode="&#xbc;" glyph-name="onequarter" horiz-adv-x="1233" d="M547 566H709V28H825V-83H709V-269H571V-83H184V38L547 566ZM571 441L297 28H571V441ZM-222 934H-17V1545L-240 1504V1620L-11 1659H127V934H331V824H-222V934ZM24 504L0 612L1060 874L1087
766L24 504Z" />
<glyph unicode="&#xbd;" glyph-name="onehalf" horiz-adv-x="1233" d="M-222 934H-17V1545L-240 1504V1620L-11 1659H127V934H331V824H-222V934ZM24 504L0 612L1060 874L1087 766L24 504ZM384 -155H794V-269H223V-159L454 67Q555 164 595 225T636 337Q636 398
586 436T454 474Q405 474 349 456T229 402V527Q294 555 354 569T474 583Q616 583 702 517T788 343Q788 286 751 227T595 50L384 -155Z" />
<glyph unicode="&#xbe;" glyph-name="threequarters" horiz-adv-x="1233" d="M547 566H709V28H825V-83H709V-269H571V-83H184V38L547 566ZM571 441L297 28H571V441ZM198 1276Q292 1255 341 1201T391 1067Q391 943 296 876T24 809Q-34 809 -91 819T-207 850V971Q-138
944 -82 931T20 918Q121 918 180 958T239 1067Q239 1141 184 1179T20 1217H-46V1325H28Q121 1325 170 1356T219 1448Q219 1504 171 1535T36 1567Q-8 1567 -64 1555T-179 1520V1641Q-110 1658 -52 1667T57 1676Q202 1676 286 1617T370 1459Q370 1388 326 1342T198
1276ZM24 504L0 612L1060 874L1087 766L24 504Z" />
<glyph unicode="&#xbf;" glyph-name="questiondown" horiz-adv-x="803" d="M358 1092H548V938Q548 840 518 772T403 621L313 532Q251 473 228 429T204 336Q204 247 269 192T444 137Q522 137 611 171T798 274V86Q704 29 609 1T409 -27Q223 -27 113 69T2 326Q2 402
35 467T163 625L251 711Q318 775 337 817T356 922Q356 923 356 927Q358 950 358 969V1092ZM554 1239H352V1493H554V1239Z" />
<glyph unicode="&#xc0;" glyph-name="Agrave" horiz-adv-x="1233" d="M583 1315L370 551H796L583 1315ZM461 1493H706L1163 0H954L844 389H321L213 0H4L461 1493ZM184 1899L381 1635H227L0 1899H184Z" />
<glyph unicode="&#xc1;" glyph-name="Aacute" horiz-adv-x="1233" d="M583 1315L370 551H796L583 1315ZM461 1493H706L1163 0H954L844 389H321L213 0H4L461 1493ZM198 1899H384L155 1635H1L198 1899Z" />
<glyph unicode="&#xc2;" glyph-name="Acircumflex" horiz-adv-x="1233" d="M583 1315L370 551H796L583 1315ZM461 1493H706L1163 0H954L844 389H321L213 0H4L461 1493ZM217 1901H406L617 1635H477L311 1813L146 1635H6L217 1901Z" />
<glyph unicode="&#xc3;" glyph-name="Atilde" horiz-adv-x="1233" d="M583 1315L370 551H796L583 1315ZM461 1493H706L1163 0H954L844 389H321L213 0H4L461 1493ZM343 1710L286 1743Q261 1757 246 1762T218 1768Q183 1768 163 1743T143 1673V1667H18Q18 1768 69
1827T206 1886Q242 1886 272 1878T352 1843L409 1813Q431 1800 448 1794T481 1788Q512 1788 532 1813T552 1880V1886H677Q675 1786 624 1727T489 1667Q455 1667 425 1675T343 1710Z" />
<glyph unicode="&#xc4;" glyph-name="Adieresis" horiz-adv-x="1233" d="M583 1315L370 551H796L583 1315ZM461 1493H706L1163 0H954L844 389H321L213 0H4L461 1493ZM26 1870H229V1667H26V1870ZM418 1870H620V1667H418V1870Z" />
<glyph unicode="&#xc5;" glyph-name="Aring" horiz-adv-x="1169" d="M736 1626Q736 1689 692 1733T584 1778Q520 1778 477 1735T433 1626Q433 1563 477 1519T584 1475Q647 1475 691 1519T736 1626ZM584 1311L371 551H797L584 1311ZM433 1399Q375 1432 343 1492T310
1626Q310 1740 390 1820T584 1901Q698 1901 778 1821T859 1626Q859 1553 827 1494T736 1399L1164 0H955L845 389H322L214 0H5L433 1399Z" />
<glyph unicode="&#xc6;" glyph-name="AE" horiz-adv-x="1200" d="M1166 1493V1323H828V881H1135V711H828V170H1185V0H642V383H290L189 0H5L415 1493H1166ZM535 1323L333 551H642V1323H535Z" />
<glyph unicode="&#xc7;" glyph-name="Ccedilla" horiz-adv-x="1233" d="M407 0Q463 -62 489 -114T516 -215Q516 -304 456 -349T278 -395Q233 -395 190 -389T102 -371V-240Q136 -257 173 -264T258 -272Q316 -272 346 -248T377 -178Q377 -148 355 -105T289 0H407ZM948
53Q871 12 790 -8T618 -29Q331 -29 173 174T14 745Q14 1111 173 1315T618 1520Q709 1520 790 1500T948 1438V1231Q874 1292 789 1324T618 1356Q421 1356 323 1204T225 745Q225 439 323 287T618 135Q706 135 790 167T948 260V53Z" />
<glyph unicode="&#xc8;" glyph-name="Egrave" horiz-adv-x="1233" d="M30 1493H916V1323H232V881H886V711H232V170H935V0H30V1493ZM202 1899L399 1635H245L18 1899H202Z" />
<glyph unicode="&#xc9;" glyph-name="Eacute" horiz-adv-x="1233" d="M30 1493H916V1323H232V881H886V711H232V170H935V0H30V1493ZM216 1899H402L173 1635H19L216 1899Z" />
<glyph unicode="&#xca;" glyph-name="Ecircumflex" horiz-adv-x="1233" d="M30 1493H916V1323H232V881H886V711H232V170H935V0H30V1493ZM235 1901H424L635 1635H495L329 1813L164 1635H24L235 1901Z" />
<glyph unicode="&#xcb;" glyph-name="Edieresis" horiz-adv-x="1233" d="M30 1493H916V1323H232V881H886V711H232V170H935V0H30V1493ZM44 1870H247V1667H44V1870ZM436 1870H638V1667H436V1870Z" />
<glyph unicode="&#xcc;" glyph-name="Igrave" horiz-adv-x="1233" d="M14 1493H843V1323H530V170H843V0H14V170H327V1323H14V1493ZM184 1899L381 1635H227L0 1899H184Z" />
<glyph unicode="&#xcd;" glyph-name="Iacute" horiz-adv-x="1233" d="M14 1493H843V1323H530V170H843V0H14V170H327V1323H14V1493ZM198 1899H384L155 1635H1L198 1899Z" />
<glyph unicode="&#xce;" glyph-name="Icircumflex" horiz-adv-x="1233" d="M14 1493H843V1323H530V170H843V0H14V170H327V1323H14V1493ZM217 1901H406L617 1635H477L311 1813L146 1635H6L217 1901Z" />
<glyph unicode="&#xcf;" glyph-name="Idieresis" horiz-adv-x="1233" d="M14 1493H843V1323H530V170H843V0H14V170H327V1323H14V1493ZM26 1870H229V1667H26V1870ZM418 1870H620V1667H418V1870Z" />
<glyph unicode="&#xd0;" glyph-name="Eth" horiz-adv-x="1119" d="M439 1493Q781 1493 943 1311T1105 745Q1105 363 943 182T439 0H136V709H11V858H136V1493H439ZM439 166Q694 166 795 291T896 745Q896 1076 796 1201T439 1327H343V858H607V709H343V166H439Z" />
<glyph unicode="&#xd1;" glyph-name="Ntilde" horiz-adv-x="1233" d="M28 1493H284L788 264V1493H983V0H727L223 1229V0H28V1493ZM343 1714L286 1747Q261 1761 246 1766T218 1772Q183 1772 163 1747T143 1677V1671H18Q18 1772 69 1831T206 1890Q242 1890 272 1882T352
1847L409 1817Q431 1804 448 1798T481 1792Q512 1792 532 1817T552 1884V1890H677Q675 1790 624 1731T489 1671Q455 1671 425 1679T343 1714Z" />
<glyph unicode="&#xd2;" glyph-name="Ograve" horiz-adv-x="1233" d="M805 745Q805 1074 738 1215T516 1356Q363 1356 296 1215T228 745Q228 417 295 276T516 135Q670 135 737 275T805 745ZM1016 745Q1016 355 893 163T516 -29Q263 -29 140 162T17 745Q17 1136
140 1328T516 1520Q769 1520 892 1328T1016 745ZM184 1899L381 1635H227L0 1899H184Z" />
<glyph unicode="&#xd3;" glyph-name="Oacute" horiz-adv-x="1233" d="M805 745Q805 1074 738 1215T516 1356Q363 1356 296 1215T228 745Q228 417 295 276T516 135Q670 135 737 275T805 745ZM1016 745Q1016 355 893 163T516 -29Q263 -29 140 162T17 745Q17 1136
140 1328T516 1520Q769 1520 892 1328T1016 745ZM198 1899H384L155 1635H1L198 1899Z" />
<glyph unicode="&#xd4;" glyph-name="Ocircumflex" horiz-adv-x="1233" d="M805 745Q805 1074 738 1215T516 1356Q363 1356 296 1215T228 745Q228 417 295 276T516 135Q670 135 737 275T805 745ZM1016 745Q1016 355 893 163T516 -29Q263 -29 140 162T17 745Q17
1136 140 1328T516 1520Q769 1520 892 1328T1016 745ZM217 1901H406L617 1635H477L311 1813L146 1635H6L217 1901Z" />
<glyph unicode="&#xd5;" glyph-name="Otilde" horiz-adv-x="1233" d="M805 745Q805 1074 738 1215T516 1356Q363 1356 296 1215T228 745Q228 417 295 276T516 135Q670 135 737 275T805 745ZM1016 745Q1016 355 893 163T516 -29Q263 -29 140 162T17 745Q17 1136
140 1328T516 1520Q769 1520 892 1328T1016 745ZM343 1710L286 1743Q261 1757 246 1762T218 1768Q183 1768 163 1743T143 1673V1667H18Q18 1768 69 1827T206 1886Q242 1886 272 1878T352 1843L409 1813Q431 1800 448 1794T481 1788Q512 1788 532 1813T552 1880V1886H677Q675
1786 624 1727T489 1667Q455 1667 425 1675T343 1710Z" />
<glyph unicode="&#xd6;" glyph-name="Odieresis" horiz-adv-x="1233" d="M805 745Q805 1074 738 1215T516 1356Q363 1356 296 1215T228 745Q228 417 295 276T516 135Q670 135 737 275T805 745ZM1016 745Q1016 355 893 163T516 -29Q263 -29 140 162T17 745Q17 1136
140 1328T516 1520Q769 1520 892 1328T1016 745ZM26 1870H229V1667H26V1870ZM418 1870H620V1667H418V1870Z" />
<glyph unicode="&#xd7;" glyph-name="multiply" horiz-adv-x="971" d="M19 293L369 641L19 991L135 1108L485 758L836 1108L952 991L602 641L950 293L834 174L485 524L137 174L19 293Z" />
<glyph unicode="&#xd8;" glyph-name="Oslash" horiz-adv-x="1211" d="M372 303Q402 225 467 180T617 135Q771 135 838 275T906 745Q906 855 901 923T886 1036L372 303ZM339 471L843 1190Q818 1271 761 1313T617 1356Q460 1356 395 1210T329 686Q329 606 331 556T339
471ZM1033 1247Q1074 1166 1095 1037T1117 745Q1117 355 994 163T617 -29Q496 -29 406 11T255 133L112 -70L9 0L187 252Q155 325 137 456T118 745Q118 1136 241 1328T617 1520Q732 1520 818 1479T962 1358L1101 1559L1201 1485L1033 1247Z" />
<glyph unicode="&#xd9;" glyph-name="Ugrave" horiz-adv-x="1233" d="M23 573V1493H226V481Q226 372 232 326T253 254Q285 195 345 165T492 135Q579 135 639 165T732 254Q747 279 753 325T759 479V1493H961V573Q961 344 933 248T834 88Q768 29 683 0T492 -29Q387
-29 302 0T150 88Q81 150 52 248T23 573ZM184 1899L381 1635H227L0 1899H184Z" />
<glyph unicode="&#xda;" glyph-name="Uacute" horiz-adv-x="1233" d="M23 573V1493H226V481Q226 372 232 326T253 254Q285 195 345 165T492 135Q579 135 639 165T732 254Q747 279 753 325T759 479V1493H961V573Q961 344 933 248T834 88Q768 29 683 0T492 -29Q387
-29 302 0T150 88Q81 150 52 248T23 573ZM198 1899H384L155 1635H1L198 1899Z" />
<glyph unicode="&#xdb;" glyph-name="Ucircumflex" horiz-adv-x="1233" d="M23 573V1493H226V481Q226 372 232 326T253 254Q285 195 345 165T492 135Q579 135 639 165T732 254Q747 279 753 325T759 479V1493H961V573Q961 344 933 248T834 88Q768 29 683 0T492
-29Q387 -29 302 0T150 88Q81 150 52 248T23 573ZM217 1901H406L617 1635H477L311 1813L146 1635H6L217 1901Z" />
<glyph unicode="&#xdc;" glyph-name="Udieresis" horiz-adv-x="1233" d="M23 573V1493H226V481Q226 372 232 326T253 254Q285 195 345 165T492 135Q579 135 639 165T732 254Q747 279 753 325T759 479V1493H961V573Q961 344 933 248T834 88Q768 29 683 0T492 -29Q387
-29 302 0T150 88Q81 150 52 248T23 573ZM26 1870H229V1667H26V1870ZM418 1870H620V1667H418V1870Z" />
<glyph unicode="&#xdd;" glyph-name="Yacute" horiz-adv-x="1233" d="M1 1493H216L580 834L943 1493H1160L681 670V0H478V670L1 1493ZM198 1899H384L155 1635H1L198 1899Z" />
<glyph unicode="&#xde;" glyph-name="Thorn" horiz-adv-x="990" d="M228 1057V532H462Q620 532 698 598T777 795Q777 926 699 991T462 1057H228ZM26 1493H228V1223H482Q742 1223 866 1118T990 795Q990 576 866 472T482 367H228V0H26V1493Z" />
<glyph unicode="&#xdf;" glyph-name="germandbls" horiz-adv-x="994" d="M24 1137Q24 1350 129 1453T450 1556Q654 1556 759 1446T866 1119Q711 1105 627 1043T543 881Q543 832 570 794T665 713L723 676Q874 583 929 501T985 303Q985 149 873 60T565 -29Q496 -29
429 -17T295 20V184Q371 153 437 138T563 123Q671 123 735 171T799 301Q799 372 767 419T614 541L547 580Q455 636 410 702T364 848Q364 976 445 1061T682 1182Q680 1289 620 1346T446 1403Q325 1403 268 1338T211 1133V0H24V1137Z" />
<glyph unicode="&#xe0;" glyph-name="agrave" horiz-adv-x="1233" d="M583 563H522Q361 563 280 507T198 338Q198 237 259 181T428 125Q580 125 667 230T755 522V563H583ZM940 639V0H755V166Q696 66 607 19T389 -29Q218 -29 116 67T14 326Q14 513 139 610T508
707H755V736Q754 870 687 930T473 991Q379 991 283 964T96 885V1069Q198 1108 291 1127T473 1147Q612 1147 710 1106T870 983Q908 933 924 860T940 639ZM198 1638L479 1262H325L0 1638H198Z" />
<glyph unicode="&#xe1;" glyph-name="aacute" horiz-adv-x="1233" d="M583 563H522Q361 563 280 507T198 338Q198 237 259 181T428 125Q580 125 667 230T755 522V563H583ZM940 639V0H755V166Q696 66 607 19T389 -29Q218 -29 116 67T14 326Q14 513 139 610T508
707H755V736Q754 870 687 930T473 991Q379 991 283 964T96 885V1069Q198 1108 291 1127T473 1147Q612 1147 710 1106T870 983Q908 933 924 860T940 639ZM281 1638H479L154 1262H0L281 1638Z" />
<glyph unicode="&#xe2;" glyph-name="acircumflex" horiz-adv-x="1233" d="M583 563H522Q361 563 280 507T198 338Q198 237 259 181T428 125Q580 125 667 230T755 522V563H583ZM940 639V0H755V166Q696 66 607 19T389 -29Q218 -29 116 67T14 326Q14 513 139 610T508
707H755V736Q754 870 687 930T473 991Q379 991 283 964T96 885V1069Q198 1108 291 1127T473 1147Q612 1147 710 1106T870 983Q908 933 924 860T940 639ZM250 1638H397L643 1262H504L323 1507L143 1262H4L250 1638Z" />
<glyph unicode="&#xe3;" glyph-name="atilde" horiz-adv-x="1233" d="M583 563H522Q361 563 280 507T198 338Q198 237 259 181T428 125Q580 125 667 230T755 522V563H583ZM940 639V0H755V166Q696 66 607 19T389 -29Q218 -29 116 67T14 326Q14 513 139 610T508
707H755V736Q754 870 687 930T473 991Q379 991 283 964T96 885V1069Q198 1108 291 1127T473 1147Q612 1147 710 1106T870 983Q908 933 924 860T940 639ZM343 1370L286 1425Q265 1445 249 1454T218 1464Q180 1464 162 1427T142 1309H18Q19 1443 70 1517T212 1591Q251
1591 283 1577T352 1530L409 1475Q430 1455 446 1446T476 1436Q515 1436 533 1473T552 1591H677Q676 1457 625 1383T483 1309Q444 1309 412 1323T343 1370Z" />
<glyph unicode="&#xe4;" glyph-name="adieresis" horiz-adv-x="1233" d="M583 563H522Q361 563 280 507T198 338Q198 237 259 181T428 125Q580 125 667 230T755 522V563H583ZM940 639V0H755V166Q696 66 607 19T389 -29Q218 -29 116 67T14 326Q14 513 139 610T508
707H755V736Q754 870 687 930T473 991Q379 991 283 964T96 885V1069Q198 1108 291 1127T473 1147Q612 1147 710 1106T870 983Q908 933 924 860T940 639ZM26 1552H229V1350H26V1552ZM418 1552H620V1350H418V1552Z" />
<glyph unicode="&#xe5;" glyph-name="aring" horiz-adv-x="1233" d="M583 563H522Q361 563 280 507T198 338Q198 237 259 181T428 125Q580 125 667 230T755 522V563H583ZM940 639V0H755V166Q696 66 607 19T389 -29Q218 -29 116 67T14 326Q14 513 139 610T508 707H755V736Q754
870 687 930T473 991Q379 991 283 964T96 885V1069Q198 1108 291 1127T473 1147Q612 1147 710 1106T870 983Q908 933 924 860T940 639ZM562 1524Q562 1409 483 1329T287 1249Q172 1249 93 1329T13 1524Q13 1639 92 1718T287 1798Q403 1798 482 1719T562 1524ZM439
1524Q439 1587 395 1631T287 1675Q223 1675 180 1632T136 1524Q136 1459 179 1416T287 1372Q351 1372 395 1416T439 1524Z" />
<glyph unicode="&#xe6;" glyph-name="ae" horiz-adv-x="1197" d="M520 442V514H471Q302 514 242 469T182 311Q182 222 226 174T354 125Q446 125 483 191T520 442ZM1013 657V709Q1013 860 975 926T849 993Q762 993 724 925T686 700V657H1013ZM1177 514H686Q685
499 685 482T684 430Q684 269 734 197T897 125Q976 125 1040 150T1155 227V55Q1100 14 1034 -7T897 -29Q787 -29 713 12T606 131Q567 51 501 11T337 -29Q181 -29 100 57T18 307Q18 478 118 567T409 657H526V745Q526 865 477 929T333 993Q277 993 211 972T83 911V1079Q160
1114 226 1130T352 1147Q443 1147 505 1116T604 1020Q637 1081 703 1114T858 1147Q1032 1147 1104 1029T1177 604V514Z" />
<glyph unicode="&#xe7;" glyph-name="ccedilla" horiz-adv-x="1233" d="M411 0Q467 -62 493 -114T520 -215Q520 -304 460 -349T282 -395Q237 -395 194 -389T106 -371V-240Q140 -257 177 -264T262 -272Q320 -272 350 -248T381 -178Q381 -148 359 -105T293 0H411ZM878
57Q804 14 726 -7T565 -29Q305 -29 159 127T12 559Q12 835 158 991T565 1147Q646 1147 723 1126T878 1061V868Q805 933 732 962T565 991Q392 991 299 879T206 559Q206 352 299 240T565 127Q661 127 737 156T878 248V57Z" />
<glyph unicode="&#xe8;" glyph-name="egrave" horiz-adv-x="1233" d="M1002 606V516H205V510Q205 327 300 227T570 127Q658 127 754 155T959 240V57Q854 14 757 -7T568 -29Q307 -29 160 127T13 559Q13 827 157 987T541 1147Q755 1147 878 1002T1002 606ZM818 660Q814
822 742 906T533 991Q400 991 314 903T212 659L818 660ZM212 1638L493 1262H339L14 1638H212Z" />
<glyph unicode="&#xe9;" glyph-name="eacute" horiz-adv-x="1233" d="M1002 606V516H205V510Q205 327 300 227T570 127Q658 127 754 155T959 240V57Q854 14 757 -7T568 -29Q307 -29 160 127T13 559Q13 827 157 987T541 1147Q755 1147 878 1002T1002 606ZM818 660Q814
822 742 906T533 991Q400 991 314 903T212 659L818 660ZM295 1638H493L168 1262H14L295 1638Z" />
<glyph unicode="&#xea;" glyph-name="ecircumflex" horiz-adv-x="1233" d="M1002 606V516H205V510Q205 327 300 227T570 127Q658 127 754 155T959 240V57Q854 14 757 -7T568 -29Q307 -29 160 127T13 559Q13 827 157 987T541 1147Q755 1147 878 1002T1002 606ZM818
660Q814 822 742 906T533 991Q400 991 314 903T212 659L818 660ZM264 1638H411L657 1262H518L337 1507L157 1262H18L264 1638Z" />
<glyph unicode="&#xeb;" glyph-name="edieresis" horiz-adv-x="1233" d="M1002 606V516H205V510Q205 327 300 227T570 127Q658 127 754 155T959 240V57Q854 14 757 -7T568 -29Q307 -29 160 127T13 559Q13 827 157 987T541 1147Q755 1147 878 1002T1002 606ZM818
660Q814 822 742 906T533 991Q400 991 314 903T212 659L818 660ZM40 1552H243V1350H40V1552ZM432 1552H634V1350H432V1552Z" />
<glyph unicode="&#xec;" glyph-name="igrave" horiz-adv-x="1233" d="M90 1120H561V143H926V0H12V143H377V977H90V1120ZM198 1638L479 1262H325L0 1638H198Z" />
<glyph unicode="&#xed;" glyph-name="iacute" horiz-adv-x="1233" d="M90 1120H561V143H926V0H12V143H377V977H90V1120ZM281 1638H479L154 1262H0L281 1638Z" />
<glyph unicode="&#xee;" glyph-name="icircumflex" horiz-adv-x="1233" d="M90 1120H561V143H926V0H12V143H377V977H90V1120ZM250 1638H397L643 1262H504L323 1507L143 1262H4L250 1638Z" />
<glyph unicode="&#xef;" glyph-name="idieresis" horiz-adv-x="1233" d="M90 1120H561V143H926V0H12V143H377V977H90V1120ZM50 1552H253V1350H50V1552ZM442 1552H644V1350H442V1552Z" />
<glyph unicode="&#xf0;" glyph-name="eth" horiz-adv-x="979" d="M590 1327Q787 1115 878 925T969 535Q969 267 844 119T489 -29Q261 -29 136 119T10 535Q10 800 135 948T485 1096Q519 1096 536 1095T569 1092Q536 1137 500 1181T426 1270L147 1178L117 1276L354
1356L172 1556H391L518 1411L807 1505L840 1407L590 1327ZM666 918Q631 931 590 937T504 944Q358 944 282 839T205 535Q205 339 279 233T489 127Q626 127 700 233T774 535Q774 645 745 746T666 918Z" />
<glyph unicode="&#xf1;" glyph-name="ntilde" horiz-adv-x="1233" d="M882 694V0H697V694Q697 845 644 916T478 987Q349 987 280 896T210 633V0H26V1120H210V952Q259 1048 343 1097T542 1147Q713 1147 797 1035T882 694ZM343 1370L286 1425Q265 1445 249 1454T218
1464Q180 1464 162 1427T142 1309H18Q19 1443 70 1517T212 1591Q251 1591 283 1577T352 1530L409 1475Q430 1455 446 1446T476 1436Q515 1436 533 1473T552 1591H677Q676 1457 625 1383T483 1309Q444 1309 412 1323T343 1370Z" />
<glyph unicode="&#xf2;" glyph-name="ograve" horiz-adv-x="1233" d="M494 991Q354 991 282 882T210 559Q210 346 282 237T494 127Q635 127 707 236T779 559Q779 773 707 882T494 991ZM494 1147Q727 1147 850 996T974 559Q974 272 851 122T494 -29Q261 -29 138
121T15 559Q15 845 138 996T494 1147ZM198 1638L479 1262H325L0 1638H198Z" />
<glyph unicode="&#xf3;" glyph-name="oacute" horiz-adv-x="1233" d="M494 991Q354 991 282 882T210 559Q210 346 282 237T494 127Q635 127 707 236T779 559Q779 773 707 882T494 991ZM494 1147Q727 1147 850 996T974 559Q974 272 851 122T494 -29Q261 -29 138
121T15 559Q15 845 138 996T494 1147ZM281 1638H479L154 1262H0L281 1638Z" />
<glyph unicode="&#xf4;" glyph-name="ocircumflex" horiz-adv-x="1233" d="M494 991Q354 991 282 882T210 559Q210 346 282 237T494 127Q635 127 707 236T779 559Q779 773 707 882T494 991ZM494 1147Q727 1147 850 996T974 559Q974 272 851 122T494 -29Q261 -29
138 121T15 559Q15 845 138 996T494 1147ZM250 1638H397L643 1262H504L323 1507L143 1262H4L250 1638Z" />
<glyph unicode="&#xf5;" glyph-name="otilde" horiz-adv-x="1233" d="M494 991Q354 991 282 882T210 559Q210 346 282 237T494 127Q635 127 707 236T779 559Q779 773 707 882T494 991ZM494 1147Q727 1147 850 996T974 559Q974 272 851 122T494 -29Q261 -29 138
121T15 559Q15 845 138 996T494 1147ZM343 1370L286 1425Q265 1445 249 1454T218 1464Q180 1464 162 1427T142 1309H18Q19 1443 70 1517T212 1591Q251 1591 283 1577T352 1530L409 1475Q430 1455 446 1446T476 1436Q515 1436 533 1473T552 1591H677Q676 1457 625
1383T483 1309Q444 1309 412 1323T343 1370Z" />
<glyph unicode="&#xf6;" glyph-name="odieresis" horiz-adv-x="1233" d="M494 991Q354 991 282 882T210 559Q210 346 282 237T494 127Q635 127 707 236T779 559Q779 773 707 882T494 991ZM494 1147Q727 1147 850 996T974 559Q974 272 851 122T494 -29Q261 -29
138 121T15 559Q15 845 138 996T494 1147ZM26 1552H229V1350H26V1552ZM418 1552H620V1350H418V1552Z" />
<glyph unicode="&#xf7;" glyph-name="divide" horiz-adv-x="1057" d="M406 395H651V150H406V395ZM406 1135H651V889H406V1135ZM0 727H1057V557H0V727Z" />
<glyph unicode="&#xf8;" glyph-name="oslash" horiz-adv-x="1144" d="M838 780L375 221Q411 174 461 151T577 127Q718 127 790 236T862 559Q862 611 856 666T838 780ZM778 897Q743 945 694 968T577 991Q438 991 364 884T289 575Q289 527 296 469T317 340L778 897ZM178
180Q139 251 119 348T98 559Q98 845 221 996T577 1147Q677 1147 756 1120T895 1036L1042 1212L1135 1135L971 940Q1013 874 1035 778T1057 559Q1057 272 934 122T577 -29Q474 -29 396 0T260 90L100 -96L8 -20L178 180Z" />
<glyph unicode="&#xf9;" glyph-name="ugrave" horiz-adv-x="1233" d="M23 424V1118H207V424Q207 273 260 202T426 131Q556 131 625 222T694 485V1118H879V0H694V168Q645 71 561 21T363 -29Q191 -29 107 83T23 424ZM198 1638L479 1262H325L0 1638H198Z" />
<glyph unicode="&#xfa;" glyph-name="uacute" horiz-adv-x="1233" d="M23 424V1118H207V424Q207 273 260 202T426 131Q556 131 625 222T694 485V1118H879V0H694V168Q645 71 561 21T363 -29Q191 -29 107 83T23 424ZM281 1638H479L154 1262H0L281 1638Z" />
<glyph unicode="&#xfb;" glyph-name="ucircumflex" horiz-adv-x="1233" d="M23 424V1118H207V424Q207 273 260 202T426 131Q556 131 625 222T694 485V1118H879V0H694V168Q645 71 561 21T363 -29Q191 -29 107 83T23 424ZM250 1638H397L643 1262H504L323 1507L143
1262H4L250 1638Z" />
<glyph unicode="&#xfc;" glyph-name="udieresis" horiz-adv-x="1233" d="M23 424V1118H207V424Q207 273 260 202T426 131Q556 131 625 222T694 485V1118H879V0H694V168Q645 71 561 21T363 -29Q191 -29 107 83T23 424ZM26 1552H229V1350H26V1552ZM418 1552H620V1350H418V1552Z"
/>
<glyph unicode="&#xfd;" glyph-name="yacute" horiz-adv-x="1233" d="M766 360Q720 243 649 52Q550 -212 516 -270Q470 -348 401 -387T240 -426H92V-272H201Q282 -272 328 -225T445 18L12 1120H207L539 244L866 1120H1061L766 360ZM281 1638H479L154 1262H0L281 1638Z" />
<glyph unicode="&#xfe;" glyph-name="thorn" horiz-adv-x="944" d="M211 141V-426H26V1567H211V977Q257 1060 333 1103T510 1147Q713 1147 828 990T944 555Q944 282 828 127T510 -29Q408 -29 332 14T211 141ZM751 559Q751 773 684 882T483 991Q349 991 280 882T211
559Q211 347 280 237T483 127Q616 127 683 236T751 559Z" />
<glyph unicode="&#xff;" glyph-name="ydieresis" horiz-adv-x="1233" d="M766 360Q720 243 649 52Q550 -212 516 -270Q470 -348 401 -387T240 -426H92V-272H201Q282 -272 328 -225T445 18L12 1120H207L539 244L866 1120H1061L766 360ZM26 1552H229V1350H26V1552ZM418
1552H620V1350H418V1552Z" />
<glyph unicode="&#x100;" glyph-name="Amacron" horiz-adv-x="1233" d="M26 1840H624V1692H26V1840ZM583 1315L370 551H796L583 1315ZM461 1493H706L1163 0H954L844 389H321L213 0H4L461 1493Z" />
<glyph unicode="&#x101;" glyph-name="amacron" horiz-adv-x="1233" d="M26 1526H624V1378H26V1526ZM583 563H522Q361 563 280 507T198 338Q198 237 259 181T428 125Q580 125 667 230T755 522V563H583ZM940 639V0H755V166Q696 66 607 19T389 -29Q218 -29 116 67T14
326Q14 513 139 610T508 707H755V736Q754 870 687 930T473 991Q379 991 283 964T96 885V1069Q198 1108 291 1127T473 1147Q612 1147 710 1106T870 983Q908 933 924 860T940 639Z" />
<glyph unicode="&#x102;" glyph-name="Abreve" horiz-adv-x="1233" d="M13 1901H132Q144 1847 194 1819T326 1790Q409 1790 457 1817T521 1901H640Q629 1782 550 1721T326 1659Q182 1659 103 1720T13 1901ZM583 1315L370 551H796L583 1315ZM461 1493H706L1163
0H954L844 389H321L213 0H4L461 1493Z" />
<glyph unicode="&#x103;" glyph-name="abreve" horiz-adv-x="1233" d="M13 1608H132Q143 1532 191 1495T326 1458Q411 1458 459 1495T521 1608H640Q629 1465 550 1393T326 1321Q182 1321 103 1393T13 1608ZM583 563H522Q361 563 280 507T198 338Q198 237 259 181T428
125Q580 125 667 230T755 522V563H583ZM940 639V0H755V166Q696 66 607 19T389 -29Q218 -29 116 67T14 326Q14 513 139 610T508 707H755V736Q754 870 687 930T473 991Q379 991 283 964T96 885V1069Q198 1108 291 1127T473 1147Q612 1147 710 1106T870 983Q908 933
924 860T940 639Z" />
<glyph unicode="&#x104;" glyph-name="Aogonek" horiz-adv-x="1233" d="M576 0H695Q650 -61 629 -105T607 -180Q607 -226 634 -249T716 -272Q748 -272 779 -265T841 -242V-375Q803 -385 769 -390T705 -395Q583 -395 526 -352T468 -215Q468 -167 494 -115T576 0ZM583
1315L370 551H796L583 1315ZM461 1493H706L1163 0H954L844 389H321L213 0H4L461 1493Z" />
<glyph unicode="&#x105;" glyph-name="aogonek" horiz-adv-x="1233" d="M466 0H585Q540 -61 519 -105T497 -180Q497 -226 524 -249T606 -272Q638 -272 669 -265T731 -242V-375Q693 -385 659 -390T595 -395Q473 -395 416 -352T358 -215Q358 -167 384 -115T466 0ZM583
563H522Q361 563 280 507T198 338Q198 237 259 181T428 125Q580 125 667 230T755 522V563H583ZM940 639V0H755V166Q696 66 607 19T389 -29Q218 -29 116 67T14 326Q14 513 139 610T508 707H755V736Q754 870 687 930T473 991Q379 991 283 964T96 885V1069Q198 1108
291 1127T473 1147Q612 1147 710 1106T870 983Q908 933 924 860T940 639Z" />
<glyph unicode="&#x106;" glyph-name="Cacute" horiz-adv-x="1233" d="M948 53Q871 12 790 -8T618 -29Q331 -29 173 174T14 745Q14 1111 173 1315T618 1520Q709 1520 790 1500T948 1438V1231Q874 1292 789 1324T618 1356Q421 1356 323 1204T225 745Q225 439 323
287T618 135Q706 135 790 167T948 260V53ZM288 1899H474L245 1635H91L288 1899Z" />
<glyph unicode="&#x107;" glyph-name="cacute" horiz-adv-x="1233" d="M878 57Q804 14 726 -7T565 -29Q305 -29 159 127T12 559Q12 835 158 991T565 1147Q646 1147 723 1126T878 1061V868Q805 933 732 962T565 991Q392 991 299 879T206 559Q206 352 299 240T565
127Q661 127 737 156T878 248V57ZM371 1638H569L244 1262H90L371 1638Z" />
<glyph unicode="&#x108;" glyph-name="Ccircumflex" horiz-adv-x="1233" d="M343 1908H532L743 1642H603L437 1820L272 1642H132L343 1908ZM948 53Q871 12 790 -8T618 -29Q331 -29 173 174T14 745Q14 1111 173 1315T618 1520Q709 1520 790 1500T948 1438V1231Q874
1292 789 1324T618 1356Q421 1356 323 1204T225 745Q225 439 323 287T618 135Q706 135 790 167T948 260V53Z" />
<glyph unicode="&#x109;" glyph-name="ccircumflex" horiz-adv-x="1233" d="M340 1638H487L733 1262H594L413 1507L233 1262H94L340 1638ZM878 57Q804 14 726 -7T565 -29Q305 -29 159 127T12 559Q12 835 158 991T565 1147Q646 1147 723 1126T878 1061V868Q805
933 732 962T565 991Q392 991 299 879T206 559Q206 352 299 240T565 127Q661 127 737 156T878 248V57Z" />
<glyph unicode="&#x10a;" glyph-name="Cdotaccent" horiz-adv-x="1233" d="M101 1872H306V1667H101V1872ZM948 53Q871 12 790 -8T618 -29Q331 -29 173 174T14 745Q14 1111 173 1315T618 1520Q709 1520 790 1500T948 1438V1231Q874 1292 789 1324T618 1356Q421
1356 323 1204T225 745Q225 439 323 287T618 135Q706 135 790 167T948 260V53Z" />
<glyph unicode="&#x10b;" glyph-name="cdotaccent" horiz-adv-x="1233" d="M101 1552H306V1348H101V1552ZM878 57Q804 14 726 -7T565 -29Q305 -29 159 127T12 559Q12 835 158 991T565 1147Q646 1147 723 1126T878 1061V868Q805 933 732 962T565 991Q392 991 299
879T206 559Q206 352 299 240T565 127Q661 127 737 156T878 248V57Z" />
<glyph unicode="&#x10c;" glyph-name="Ccaron" horiz-adv-x="1233" d="M948 53Q871 12 790 -8T618 -29Q331 -29 173 174T14 745Q14 1111 173 1315T618 1520Q709 1520 790 1500T948 1438V1231Q874 1292 789 1324T618 1356Q421 1356 323 1204T225 745Q225 439 323
287T618 135Q706 135 790 167T948 260V53ZM306 1635L95 1901H235L400 1723L566 1901H706L495 1635H306Z" />
<glyph unicode="&#x10d;" glyph-name="ccaron" horiz-adv-x="1233" d="M878 57Q804 14 726 -7T565 -29Q305 -29 159 127T12 559Q12 835 158 991T565 1147Q646 1147 723 1126T878 1061V868Q805 933 732 962T565 991Q392 991 299 879T206 559Q206 352 299 240T565
127Q661 127 737 156T878 248V57ZM340 1262L94 1638H233L413 1393L594 1638H733L487 1262H340Z" />
<glyph unicode="&#x10e;" glyph-name="Dcaron" horiz-adv-x="1233" d="M329 166Q584 166 685 291T786 745Q786 1076 686 1201T329 1327H233V166H329ZM333 1493Q675 1493 837 1311T999 745Q999 363 837 182T333 0H30V1493H333ZM139 1629L-72 1895H68L233 1717L399
1895H539L328 1629H139Z" />
<glyph unicode="&#x10f;" glyph-name="dcaron" horiz-adv-x="1233" d="M648 1558H846L733 1182H579L648 1558ZM736 977V1556H920V0H736V141Q690 58 614 15T437 -29Q234 -29 118 128T1 563Q1 836 118 991T437 1147Q538 1147 615 1104T736 977ZM195 559Q195 345
263 236T464 127Q597 127 666 237T736 559Q736 772 667 881T464 991Q331 991 263 882T195 559Z" />
<glyph unicode="&#x110;" glyph-name="Dcroat" horiz-adv-x="1233" d="M439 1493Q781 1493 943 1311T1105 745Q1105 363 943 182T439 0H136V709H11V858H136V1493H439ZM439 166Q694 166 795 291T896 745Q896 1076 796 1201T439 1327H343V858H607V709H343V166H439Z" />
<glyph unicode="&#x111;" glyph-name="" horiz-adv-x="1123" d="M740 977V1286H435V1407H740V1556H924V1407H1115V1286H924V0H740V141Q694 58 618 15T441 -29Q238 -29 122 128T5 563Q5 836 122 991T441 1147Q542 1147 619 1104T740 977ZM199 559Q199 345 267 236T468
127Q601 127 670 237T740 559Q740 772 671 881T468 991Q335 991 267 882T199 559Z" />
<glyph unicode="&#x112;" glyph-name="Emacron" horiz-adv-x="1233" d="M44 1840H642V1692H44V1840ZM30 1493H916V1323H232V881H886V711H232V170H935V0H30V1493Z" />
<glyph unicode="&#x113;" glyph-name="emacron" horiz-adv-x="1233" d="M61 1526H659V1378H61V1526ZM1002 606V516H205V510Q205 327 300 227T570 127Q658 127 754 155T959 240V57Q854 14 757 -7T568 -29Q307 -29 160 127T13 559Q13 827 157 987T541 1147Q755 1147
878 1002T1002 606ZM818 660Q814 822 742 906T533 991Q400 991 314 903T212 659L818 660Z" />
<glyph unicode="&#x114;" glyph-name="Ebreve" horiz-adv-x="1233" d="M31 1901H150Q162 1847 212 1819T344 1790Q427 1790 475 1817T539 1901H658Q647 1782 568 1721T344 1659Q200 1659 121 1720T31 1901ZM30 1493H916V1323H232V881H886V711H232V170H935V0H30V1493Z" />
<glyph unicode="&#x115;" glyph-name="ebreve" horiz-adv-x="1233" d="M27 1608H146Q157 1532 205 1495T340 1458Q425 1458 473 1495T535 1608H654Q643 1465 564 1393T340 1321Q196 1321 117 1393T27 1608ZM1002 606V516H205V510Q205 327 300 227T570 127Q658
127 754 155T959 240V57Q854 14 757 -7T568 -29Q307 -29 160 127T13 559Q13 827 157 987T541 1147Q755 1147 878 1002T1002 606ZM818 660Q814 822 742 906T533 991Q400 991 314 903T212 659L818 660Z" />
<glyph unicode="&#x116;" glyph-name="Edotaccent" horiz-adv-x="1233" d="M44 1872H249V1667H44V1872ZM30 1493H916V1323H232V881H886V711H232V170H935V0H30V1493Z" />
<glyph unicode="&#x117;" glyph-name="edotaccent" horiz-adv-x="1233" d="M40 1552H245V1348H40V1552ZM1002 606V516H205V510Q205 327 300 227T570 127Q658 127 754 155T959 240V57Q854 14 757 -7T568 -29Q307 -29 160 127T13 559Q13 827 157 987T541 1147Q755
1147 878 1002T1002 606ZM818 660Q814 822 742 906T533 991Q400 991 314 903T212 659L818 660Z" />
<glyph unicode="&#x118;" glyph-name="Eogonek" horiz-adv-x="1233" d="M426 0H545Q500 -61 479 -105T457 -180Q457 -226 484 -249T566 -272Q598 -272 629 -265T691 -242V-375Q653 -385 619 -390T555 -395Q433 -395 376 -352T318 -215Q318 -167 344 -115T426 0ZM30
1493H916V1323H232V881H886V711H232V170H935V0H30V1493Z" />
<glyph unicode="&#x119;" glyph-name="eogonek" horiz-adv-x="1233" d="M367 0H486Q441 -61 420 -105T398 -180Q398 -226 425 -249T507 -272Q539 -272 570 -265T632 -242V-375Q594 -385 560 -390T496 -395Q374 -395 317 -352T259 -215Q259 -167 285 -115T367 0ZM1002
606V516H205V510Q205 327 300 227T570 127Q658 127 754 155T959 240V57Q854 14 757 -7T568 -29Q307 -29 160 127T13 559Q13 827 157 987T541 1147Q755 1147 878 1002T1002 606ZM818 660Q814 822 742 906T533 991Q400 991 314 903T212 659L818 660Z" />
<glyph unicode="&#x11a;" glyph-name="Ecaron" horiz-adv-x="1233" d="M30 1493H916V1323H232V881H886V711H232V170H935V0H30V1493ZM252 1629L41 1895H181L346 1717L512 1895H652L441 1629H252Z" />
<glyph unicode="&#x11b;" glyph-name="ecaron" horiz-adv-x="1233" d="M1002 606V516H205V510Q205 327 300 227T570 127Q658 127 754 155T959 240V57Q854 14 757 -7T568 -29Q307 -29 160 127T13 559Q13 827 157 987T541 1147Q755 1147 878 1002T1002 606ZM818
660Q814 822 742 906T533 991Q400 991 314 903T212 659L818 660ZM285 1514L39 1890H178L358 1645L539 1890H678L432 1514H285Z" />
<glyph unicode="&#x11c;" glyph-name="Gcircumflex" horiz-adv-x="1233" d="M217 1901H406L617 1635H477L311 1813L146 1635H6L217 1901ZM1016 123Q935 48 834 10T614 -29Q330 -29 172 174T14 745Q14 1111 174 1315T619 1520Q713 1520 799 1494T965 1413V1206Q884
1283 799 1319T619 1356Q422 1356 324 1204T225 745Q225 434 320 285T614 135Q681 135 731 150T823 199V600H606V766H1016V123Z" />
<glyph unicode="&#x11d;" glyph-name="gcircumflex" horiz-adv-x="1233" d="M250 1638H397L643 1262H504L323 1507L143 1262H4L250 1638ZM746 569Q746 776 679 883T482 991Q347 991 276 884T205 569Q205 362 276 254T484 145Q611 145 678 254T746 569ZM930 72Q930
-180 811 -310T461 -440Q385 -440 302 -426T136 -385V-203Q234 -249 314 -271T461 -293Q610 -293 678 -212T746 45V53V178Q702 84 626 38T441 -8Q245 -8 128 149T11 569Q11 833 128 990T441 1147Q549 1147 624 1104T746 971V1116H930V72Z" />
<glyph unicode="&#x11e;" glyph-name="Gbreve" horiz-adv-x="1233" d="M63 1901H182Q194 1847 244 1819T376 1790Q459 1790 507 1817T571 1901H690Q679 1782 600 1721T376 1659Q232 1659 153 1720T63 1901ZM1016 123Q935 48 834 10T614 -29Q330 -29 172 174T14
745Q14 1111 174 1315T619 1520Q713 1520 799 1494T965 1413V1206Q884 1283 799 1319T619 1356Q422 1356 324 1204T225 745Q225 434 320 285T614 135Q681 135 731 150T823 199V600H606V766H1016V123Z" />
<glyph unicode="&#x11f;" glyph-name="gbreve" horiz-adv-x="1233" d="M13 1608H132Q143 1532 191 1495T326 1458Q411 1458 459 1495T521 1608H640Q629 1465 550 1393T326 1321Q182 1321 103 1393T13 1608ZM746 569Q746 776 679 883T482 991Q347 991 276 884T205
569Q205 362 276 254T484 145Q611 145 678 254T746 569ZM930 72Q930 -180 811 -310T461 -440Q385 -440 302 -426T136 -385V-203Q234 -249 314 -271T461 -293Q610 -293 678 -212T746 45V53V178Q702 84 626 38T441 -8Q245 -8 128 149T11 569Q11 833 128 990T441 1147Q549
1147 624 1104T746 971V1116H930V72Z" />
<glyph unicode="&#x120;" glyph-name="Gdotaccent" horiz-adv-x="1233" d="M76 1872H281V1667H76V1872ZM1016 123Q935 48 834 10T614 -29Q330 -29 172 174T14 745Q14 1111 174 1315T619 1520Q713 1520 799 1494T965 1413V1206Q884 1283 799 1319T619 1356Q422
1356 324 1204T225 745Q225 434 320 285T614 135Q681 135 731 150T823 199V600H606V766H1016V123Z" />
<glyph unicode="&#x121;" glyph-name="gdotaccent" horiz-adv-x="1233" d="M26 1552H231V1348H26V1552ZM746 569Q746 776 679 883T482 991Q347 991 276 884T205 569Q205 362 276 254T484 145Q611 145 678 254T746 569ZM930 72Q930 -180 811 -310T461 -440Q385
-440 302 -426T136 -385V-203Q234 -249 314 -271T461 -293Q610 -293 678 -212T746 45V53V178Q702 84 626 38T441 -8Q245 -8 128 149T11 569Q11 833 128 990T441 1147Q549 1147 624 1104T746 971V1116H930V72Z" />
<glyph unicode="&#x122;" glyph-name="Gcommaaccent" horiz-adv-x="1233" d="M230 -227H469L282 -572H136L230 -227ZM1016 123Q935 48 834 10T614 -29Q330 -29 172 174T14 745Q14 1111 174 1315T619 1520Q713 1520 799 1494T965 1413V1206Q884 1283 799 1319T619
1356Q422 1356 324 1204T225 745Q225 434 320 285T614 135Q681 135 731 150T823 199V600H606V766H1016V123Z" />
<glyph unicode="&#x123;" glyph-name="gcommaaccent" horiz-adv-x="1233" d="M256 1269H17L204 1614H350L256 1269ZM746 569Q746 776 679 883T482 991Q347 991 276 884T205 569Q205 362 276 254T484 145Q611 145 678 254T746 569ZM930 72Q930 -180 811 -310T461
-440Q385 -440 302 -426T136 -385V-203Q234 -249 314 -271T461 -293Q610 -293 678 -212T746 45V53V178Q702 84 626 38T441 -8Q245 -8 128 149T11 569Q11 833 128 990T441 1147Q549 1147 624 1104T746 971V1116H930V72Z" />
<glyph unicode="&#x124;" glyph-name="Hcircumflex" horiz-adv-x="1233" d="M217 1901H406L617 1635H477L311 1813L146 1635H6L217 1901ZM29 1493H232V881H785V1493H988V0H785V711H232V0H29V1493Z" />
<glyph unicode="&#x125;" glyph-name="hcircumflex" horiz-adv-x="1233" d="M217 1901H406L617 1635H477L311 1813L146 1635H6L217 1901ZM882 694V0H697V694Q697 845 644 916T478 987Q349 987 280 896T210 633V0H26V1556H210V952Q259 1048 343 1097T542 1147Q713
1147 797 1035T882 694Z" />
<glyph unicode="&#x126;" glyph-name="Hbar" horiz-adv-x="1252" d="M147 1493H349V1269H903V1493H1105V1269H1240V1105H1105V0H903V711H349V0H147V1105H13V1269H147V1493ZM349 1105V881H903V1105H349Z" />
<glyph unicode="&#x127;" glyph-name="hbar" horiz-adv-x="1004" d="M994 694V0H809V694Q809 845 756 916T590 987Q461 987 392 896T322 633V0H138V1270H13V1434H138V1556H322V1434H675V1270H322V952Q371 1048 455 1097T654 1147Q825 1147 909 1035T994 694Z" />
<glyph unicode="&#x128;" glyph-name="Itilde" horiz-adv-x="1233" d="M343 1710L286 1743Q261 1757 246 1762T218 1768Q183 1768 163 1743T143 1673V1667H18Q18 1768 69 1827T206 1886Q242 1886 272 1878T352 1843L409 1813Q431 1800 448 1794T481 1788Q512 1788
532 1813T552 1880V1886H677Q675 1786 624 1727T489 1667Q455 1667 425 1675T343 1710ZM14 1493H843V1323H530V170H843V0H14V170H327V1323H14V1493Z" />
<glyph unicode="&#x129;" glyph-name="itilde" horiz-adv-x="1233" d="M343 1370L286 1425Q265 1445 249 1454T218 1464Q180 1464 162 1427T142 1309H18Q19 1443 70 1517T212 1591Q251 1591 283 1577T352 1530L409 1475Q430 1455 446 1446T476 1436Q515 1436 533
1473T552 1591H677Q676 1457 625 1383T483 1309Q444 1309 412 1323T343 1370ZM90 1120H561V143H926V0H12V143H377V977H90V1120Z" />
<glyph unicode="&#x12a;" glyph-name="Imacron" horiz-adv-x="1233" d="M26 1840H624V1692H26V1840ZM14 1493H843V1323H530V170H843V0H14V170H327V1323H14V1493Z" />
<glyph unicode="&#x12b;" glyph-name="imacron" horiz-adv-x="1233" d="M26 1526H624V1378H26V1526ZM90 1120H561V143H926V0H12V143H377V977H90V1120Z" />
<glyph unicode="&#x12c;" glyph-name="Ibreve" horiz-adv-x="1233" d="M13 1901H132Q144 1847 194 1819T326 1790Q409 1790 457 1817T521 1901H640Q629 1782 550 1721T326 1659Q182 1659 103 1720T13 1901ZM14 1493H843V1323H530V170H843V0H14V170H327V1323H14V1493Z" />
<glyph unicode="&#x12d;" glyph-name="ibreve" horiz-adv-x="1233" d="M13 1608H132Q143 1532 191 1495T326 1458Q411 1458 459 1495T521 1608H640Q629 1465 550 1393T326 1321Q182 1321 103 1393T13 1608ZM90 1120H561V143H926V0H12V143H377V977H90V1120Z" />
<glyph unicode="&#x12e;" glyph-name="Iogonek" horiz-adv-x="1233" d="M14 1493H843V1323H530V170H843V0H14V170H327V1323H14V1493ZM191 0H310Q265 -61 244 -105T222 -180Q222 -226 249 -249T331 -272Q363 -272 394 -265T456 -242V-375Q418 -385 384 -390T320
-395Q198 -395 141 -352T83 -215Q83 -167 109 -115T191 0Z" />
<glyph unicode="&#x12f;" glyph-name="iogonek" horiz-adv-x="1233" d="M78 1120H549V143H914V0H0V143H365V977H78V1120ZM365 1556H549V1323H365V1556ZM201 0H320Q275 -61 254 -105T232 -180Q232 -226 259 -249T341 -272Q373 -272 404 -265T466 -242V-375Q428
-385 394 -390T330 -395Q208 -395 151 -352T93 -215Q93 -167 119 -115T201 0Z" />
<glyph unicode="&#x130;" glyph-name="Idot" horiz-adv-x="1233" d="M26 1872H231V1667H26V1872ZM14 1493H843V1323H530V170H843V0H14V170H327V1323H14V1493Z" />
<glyph unicode="&#x131;" glyph-name="dotlessi" horiz-adv-x="928" d="M90 1120H561V143H926V0H12V143H377V977H90V1120Z" />
<glyph unicode="&#x132;" glyph-name="IJ" horiz-adv-x="1270" d="M669 64V300Q730 219 796 179T933 138Q1030 138 1069 212Q1107 287 1107 490V1326H848V1496H1245V490Q1245 208 1173 91Q1101 -26 933 -26Q868 -26 803 -4Q739 18 669 64ZM16 1493H621V1323H393V170H621V0H16V170H244V1323H16V1493Z"
/>
<glyph unicode="&#x133;" glyph-name="ij" horiz-adv-x="1188" d="M983 -31V966H666V1109H1167V-31Q1167 -226 1078 -331T823 -437H569V-281H803Q893 -281 938 -219T983 -31ZM983 1545H1167V1312H983V1545ZM64 1120H450V143H750V0H0V143H299V977H64V1120ZM299
1556H450V1323H299V1556Z" />
<glyph unicode="&#x134;" glyph-name="Jcircumflex" horiz-adv-x="1233" d="M265 1901H454L665 1635H525L359 1813L194 1635H54L265 1901ZM2 61V297Q93 216 190 176T391 135Q534 135 590 209T647 487V1323H266V1493H849V487Q849 205 744 88T391 -29Q295 -29 200 -7T2 61Z" />
<glyph unicode="&#x135;" glyph-name="jcircumflex" horiz-adv-x="1233" d="M250 1638H397L643 1262H504L323 1507L143 1262H4L250 1638ZM414 -20V977H97V1120H598V-20Q598 -215 509 -320T254 -426H0V-270H234Q324 -270 369 -208T414 -20Z" />
<glyph unicode="&#x136;" glyph-name="Kcommaaccent" horiz-adv-x="1233" d="M208 58H447L260 -287H114L208 58ZM28 1493H231V829L862 1493H1099L518 883L1116 0H872L385 748L231 584V0H28V1493Z" />
<glyph unicode="&#x137;" glyph-name="kcommaaccent" horiz-adv-x="1233" d="M246 -198H485L298 -543H152L246 -198ZM26 1556H216V655L699 1120H923L482 698L992 0H767L353 578L216 449V0H26V1556Z" />
<glyph unicode="&#x138;" glyph-name="kgreenlandic" horiz-adv-x="1002" d="M26 1120H216V655L699 1120H923L482 698L992 0H767L353 578L216 449V0H26V1120Z" />
<glyph unicode="&#x139;" glyph-name="Lacute" horiz-adv-x="1233" d="M-76 1900H110L-119 1636H-273L-76 1900ZM28 1493H231V170H952V0H28V1493Z" />
<glyph unicode="&#x13a;" glyph-name="lacute" horiz-adv-x="1233" d="M104 1900H290L61 1636H-93L104 1900ZM479 406Q479 282 524 219T659 156H874V0H641Q476 0 386 106T295 406V1423H0V1567H479V406Z" />
<glyph unicode="&#x13b;" glyph-name="Lcommaaccent" horiz-adv-x="1233" d="M204 58H443L256 -287H110L204 58ZM28 1493H231V170H952V0H28V1493Z" />
<glyph unicode="&#x13c;" glyph-name="lcommaaccent" horiz-adv-x="1233" d="M354 58H593L406 -287H260L354 58ZM479 406Q479 282 524 219T659 156H874V0H641Q476 0 386 106T295 406V1423H0V1567H479V406Z" />
<glyph unicode="&#x13d;" glyph-name="Lcaron" horiz-adv-x="1233" d="M252 1492H450L337 1116H183L252 1492ZM28 1493H231V170H952V0H28V1493Z" />
<glyph unicode="&#x13e;" glyph-name="lcaron" horiz-adv-x="1233" d="M494 1568H692L579 1192H425L494 1568ZM479 406Q479 282 524 219T659 156H874V0H641Q476 0 386 106T295 406V1423H0V1567H479V406Z" />
<glyph unicode="&#x13f;" glyph-name="Ldot" horiz-adv-x="1233" d="M378 998H630V693H378V998ZM28 1493H231V170H952V0H28V1493Z" />
<glyph unicode="&#x140;" glyph-name="ldot" horiz-adv-x="1233" d="M497 1008H749V703H497V1008ZM479 406Q479 282 524 219T659 156H874V0H641Q476 0 386 106T295 406V1423H0V1567H479V406Z" />
<glyph unicode="&#x141;" glyph-name="Lslash" horiz-adv-x="1154" d="M230 1493H433V877L748 1096L826 985L433 711V170H1154V0H230V571L85 465L5 575L230 733V1493Z" />
<glyph unicode="&#x142;" glyph-name="lslash" horiz-adv-x="960" d="M563 406Q563 282 608 219T743 156H958V0H725Q560 0 470 106T379 406V698L80 489L0 600L379 864V1423H84V1567H563V989L878 1208L958 1098L563 823V406Z" />
<glyph unicode="&#x143;" glyph-name="Nacute" horiz-adv-x="1233" d="M231 1899H417L188 1635H34L231 1899ZM28 1493H284L788 264V1493H983V0H727L223 1229V0H28V1493Z" />
<glyph unicode="&#x144;" glyph-name="nacute" horiz-adv-x="1233" d="M301 1645H499L174 1269H20L301 1645ZM882 694V0H697V694Q697 845 644 916T478 987Q349 987 280 896T210 633V0H26V1120H210V952Q259 1048 343 1097T542 1147Q713 1147 797 1035T882 694Z" />
<glyph unicode="&#x145;" glyph-name="Ncommaaccent" horiz-adv-x="1233" d="M144 58H383L196 -287H50L144 58ZM28 1493H284L788 264V1493H983V0H727L223 1229V0H28V1493Z" />
<glyph unicode="&#x146;" glyph-name="ncommaaccent" horiz-adv-x="1233" d="M150 58H389L202 -287H56L150 58ZM882 694V0H697V694Q697 845 644 916T478 987Q349 987 280 896T210 633V0H26V1120H210V952Q259 1048 343 1097T542 1147Q713 1147 797 1035T882 694Z" />
<glyph unicode="&#x147;" glyph-name="Ncaron" horiz-adv-x="1233" d="M28 1493H284L788 264V1493H983V0H727L223 1229V0H28V1493ZM258 1635L47 1901H187L352 1723L518 1901H658L447 1635H258Z" />
<glyph unicode="&#x148;" glyph-name="ncaron" horiz-adv-x="1233" d="M882 694V0H697V694Q697 845 644 916T478 987Q349 987 280 896T210 633V0H26V1120H210V952Q259 1048 343 1097T542 1147Q713 1147 797 1035T882 694ZM495 1262L249 1638H388L568 1393L749
1638H888L642 1262H495Z" />
<glyph unicode="&#x149;" glyph-name="napostrophe" horiz-adv-x="1162" d="M1157 694V0H972V694Q972 845 919 916T753 987Q624 987 555 896T485 633V0H301V1120H485V952Q534 1048 618 1097T817 1147Q988 1147 1072 1035T1157 694ZM105 1556H357V1350L160 967H7L105
1350V1556Z" />
<glyph unicode="&#x14a;" glyph-name="Eng" horiz-adv-x="972" d="M949 999V-20Q949 -215 860 -320Q770 -426 605 -426H400V-270H567Q657 -270 702 -208Q746 -146 746 0V1009Q746 1189 688 1273T506 1358Q365 1358 289 1249T213 937V0H11V1493H213V1295Q267 1406
359 1464T577 1522Q764 1522 856 1392T949 999Z" />
<glyph unicode="&#x14b;" glyph-name="eng" horiz-adv-x="889" d="M867 694V-20Q867 -215 778 -320Q688 -426 523 -426H318V-270H503Q593 -270 638 -208Q682 -146 682 -20V694Q682 845 629 916T463 987Q334 987 264 896Q195 804 195 633V0H11V1120H195V952Q244
1048 328 1098Q412 1147 527 1147Q698 1147 782 1034Q867 922 867 694Z" />
<glyph unicode="&#x14c;" glyph-name="Omacron" horiz-adv-x="1233" d="M26 1840H624V1692H26V1840ZM805 745Q805 1074 738 1215T516 1356Q363 1356 296 1215T228 745Q228 417 295 276T516 135Q670 135 737 275T805 745ZM1016 745Q1016 355 893 163T516 -29Q263
-29 140 162T17 745Q17 1136 140 1328T516 1520Q769 1520 892 1328T1016 745Z" />
<glyph unicode="&#x14d;" glyph-name="omacron" horiz-adv-x="1233" d="M26 1526H624V1378H26V1526ZM494 991Q354 991 282 882T210 559Q210 346 282 237T494 127Q635 127 707 236T779 559Q779 773 707 882T494 991ZM494 1147Q727 1147 850 996T974 559Q974 272
851 122T494 -29Q261 -29 138 121T15 559Q15 845 138 996T494 1147Z" />
<glyph unicode="&#x14e;" glyph-name="Obreve" horiz-adv-x="1233" d="M13 1901H132Q144 1847 194 1819T326 1790Q409 1790 457 1817T521 1901H640Q629 1782 550 1721T326 1659Q182 1659 103 1720T13 1901ZM805 745Q805 1074 738 1215T516 1356Q363 1356 296 1215T228
745Q228 417 295 276T516 135Q670 135 737 275T805 745ZM1016 745Q1016 355 893 163T516 -29Q263 -29 140 162T17 745Q17 1136 140 1328T516 1520Q769 1520 892 1328T1016 745Z" />
<glyph unicode="&#x14f;" glyph-name="obreve" horiz-adv-x="1233" d="M13 1608H132Q143 1532 191 1495T326 1458Q411 1458 459 1495T521 1608H640Q629 1465 550 1393T326 1321Q182 1321 103 1393T13 1608ZM494 991Q354 991 282 882T210 559Q210 346 282 237T494
127Q635 127 707 236T779 559Q779 773 707 882T494 991ZM494 1147Q727 1147 850 996T974 559Q974 272 851 122T494 -29Q261 -29 138 121T15 559Q15 845 138 996T494 1147Z" />
<glyph unicode="&#x150;" glyph-name="Ohungarumlaut" horiz-adv-x="1233" d="M525 1899H711L482 1635H328L525 1899ZM206 1899H392L163 1635H9L206 1899ZM805 745Q805 1074 738 1215T516 1356Q363 1356 296 1215T228 745Q228 417 295 276T516 135Q670 135 737
275T805 745ZM1016 745Q1016 355 893 163T516 -29Q263 -29 140 162T17 745Q17 1136 140 1328T516 1520Q769 1520 892 1328T1016 745Z" />
<glyph unicode="&#x151;" glyph-name="ohungarumlaut" horiz-adv-x="1233" d="M200 1638H370L146 1262H9L200 1638ZM533 1638H712L464 1262H329L533 1638ZM494 991Q354 991 282 882T210 559Q210 346 282 237T494 127Q635 127 707 236T779 559Q779 773 707 882T494
991ZM494 1147Q727 1147 850 996T974 559Q974 272 851 122T494 -29Q261 -29 138 121T15 559Q15 845 138 996T494 1147Z" />
<glyph unicode="&#x152;" glyph-name="OE" horiz-adv-x="1177" d="M1162 170V0H557Q262 0 140 166T17 745Q17 1162 139 1327T557 1493H1151V1323H793V881H1121V711H793V170H1162ZM535 1323Q358 1323 289 1208T219 745Q219 399 288 285T535 170H596V1323H535Z" />
<glyph unicode="&#x153;" glyph-name="oe" horiz-adv-x="1237" d="M1053 657Q1053 668 1054 687T1055 715Q1055 860 1015 927T889 995Q802 995 764 927T725 700V657H1053ZM379 123Q481 123 522 207T563 530Q563 821 523 908T379 995Q276 995 236 912T196 559Q196
290 236 207T379 123ZM1216 514H725V430Q725 267 774 195T936 123Q1016 123 1081 149T1194 227V55Q1135 12 1073 -8T936 -29Q838 -29 765 4T643 104Q591 36 527 4T379 -29Q190 -29 105 109T20 559Q20 871 105 1009T379 1147Q468 1147 532 1116T643 1020Q680 1082
745 1114T897 1147Q1072 1147 1144 1029T1216 604V514Z" />
<glyph unicode="&#x154;" glyph-name="Racute" horiz-adv-x="1233" d="M124 1899H310L81 1635H-73L124 1899ZM644 705Q722 685 777 630T914 408L1117 0H900L722 377Q645 538 584 584T423 631H230V0H27V1493H443Q689 1493 820 1382T951 1061Q951 913 871 820T644
705ZM230 1327V797H451Q596 797 667 862T738 1061Q738 1190 663 1258T443 1327H230Z" />
<glyph unicode="&#x155;" glyph-name="racute" horiz-adv-x="1233" d="M487 1645H685L360 1269H206L487 1645ZM819 889Q760 935 699 956T565 977Q393 977 302 869T211 557V0H26V1120H211V901Q257 1020 352 1083T579 1147Q647 1147 706 1130T819 1077V889Z" />
<glyph unicode="&#x156;" glyph-name="Rcommaaccent" horiz-adv-x="1233" d="M216 58H455L268 -287H122L216 58ZM644 705Q722 685 777 630T914 408L1117 0H900L722 377Q645 538 584 584T423 631H230V0H27V1493H443Q689 1493 820 1382T951 1061Q951 913 871 820T644
705ZM230 1327V797H451Q596 797 667 862T738 1061Q738 1190 663 1258T443 1327H230Z" />
<glyph unicode="&#x157;" glyph-name="rcommaaccent" horiz-adv-x="1233" d="M239 58H478L291 -287H145L239 58ZM819 889Q760 935 699 956T565 977Q393 977 302 869T211 557V0H26V1120H211V901Q257 1020 352 1083T579 1147Q647 1147 706 1130T819 1077V889Z" />
<glyph unicode="&#x158;" glyph-name="Rcaron" horiz-adv-x="1233" d="M644 705Q722 685 777 630T914 408L1117 0H900L722 377Q645 538 584 584T423 631H230V0H27V1493H443Q689 1493 820 1382T951 1061Q951 913 871 820T644 705ZM230 1327V797H451Q596 797 667
862T738 1061Q738 1190 663 1258T443 1327H230ZM157 1629L-54 1895H86L251 1717L417 1895H557L346 1629H157Z" />
<glyph unicode="&#x159;" glyph-name="rcaron" horiz-adv-x="1233" d="M819 889Q760 935 699 956T565 977Q393 977 302 869T211 557V0H26V1120H211V901Q257 1020 352 1083T579 1147Q647 1147 706 1130T819 1077V889ZM340 1262L94 1638H233L413 1393L594 1638H733L487
1262H340Z" />
<glyph unicode="&#x15a;" glyph-name="Sacute" horiz-adv-x="1233" d="M223 1899H409L180 1635H26L223 1899ZM889 1442V1237Q797 1296 705 1326T518 1356Q375 1356 292 1290T209 1110Q209 1011 263 959T467 872L573 848Q783 799 879 694T975 408Q975 195 843 83T459
-29Q354 -29 248 -7T35 61V276Q150 203 252 169T459 135Q612 135 697 203T782 395Q782 507 724 566T520 657L412 682Q204 729 110 824T16 1079Q16 1279 150 1399T508 1520Q594 1520 689 1501T889 1442Z" />
<glyph unicode="&#x15b;" glyph-name="sacute" horiz-adv-x="1233" d="M307 1645H505L180 1269H26L307 1645ZM777 1081V901Q698 947 618 970T455 993Q330 993 269 953T207 829Q207 754 253 717T482 645L556 631Q693 605 763 527T834 324Q834 158 716 65T388 -29Q305
-29 214 -12T17 41V231Q120 178 214 152T392 125Q514 125 581 174T648 313Q648 441 403 490L395 492L326 506Q167 537 94 610T21 811Q21 972 130 1059T441 1147Q531 1147 614 1131T777 1081Z" />
<glyph unicode="&#x15c;" glyph-name="Scircumflex" horiz-adv-x="1233" d="M217 1901H406L617 1635H477L311 1813L146 1635H6L217 1901ZM889 1442V1237Q797 1296 705 1326T518 1356Q375 1356 292 1290T209 1110Q209 1011 263 959T467 872L573 848Q783 799 879
694T975 408Q975 195 843 83T459 -29Q354 -29 248 -7T35 61V276Q150 203 252 169T459 135Q612 135 697 203T782 395Q782 507 724 566T520 657L412 682Q204 729 110 824T16 1079Q16 1279 150 1399T508 1520Q594 1520 689 1501T889 1442Z" />
<glyph unicode="&#x15d;" glyph-name="scircumflex" horiz-adv-x="1233" d="M250 1638H397L643 1262H504L323 1507L143 1262H4L250 1638ZM777 1081V901Q698 947 618 970T455 993Q330 993 269 953T207 829Q207 754 253 717T482 645L556 631Q693 605 763 527T834
324Q834 158 716 65T388 -29Q305 -29 214 -12T17 41V231Q120 178 214 152T392 125Q514 125 581 174T648 313Q648 441 403 490L395 492L326 506Q167 537 94 610T21 811Q21 972 130 1059T441 1147Q531 1147 614 1131T777 1081Z" />
<glyph unicode="&#x15e;" glyph-name="Scedilla" horiz-adv-x="1233" d="M307 0Q363 -62 389 -114T416 -215Q416 -304 356 -349T178 -395Q133 -395 90 -389T2 -371V-240Q36 -257 73 -264T158 -272Q216 -272 246 -248T277 -178Q277 -148 255 -105T189 0H307ZM889
1442V1237Q797 1296 705 1326T518 1356Q375 1356 292 1290T209 1110Q209 1011 263 959T467 872L573 848Q783 799 879 694T975 408Q975 195 843 83T459 -29Q354 -29 248 -7T35 61V276Q150 203 252 169T459 135Q612 135 697 203T782 395Q782 507 724 566T520 657L412
682Q204 729 110 824T16 1079Q16 1279 150 1399T508 1520Q594 1520 689 1501T889 1442Z" />
<glyph unicode="&#x15f;" glyph-name="scedilla" horiz-adv-x="1233" d="M307 0Q363 -62 389 -114T416 -215Q416 -304 356 -349T178 -395Q133 -395 90 -389T2 -371V-240Q36 -257 73 -264T158 -272Q216 -272 246 -248T277 -178Q277 -148 255 -105T189 0H307ZM777
1081V901Q698 947 618 970T455 993Q330 993 269 953T207 829Q207 754 253 717T482 645L556 631Q693 605 763 527T834 324Q834 158 716 65T388 -29Q305 -29 214 -12T17 41V231Q120 178 214 152T392 125Q514 125 581 174T648 313Q648 441 403 490L395 492L326 506Q167
537 94 610T21 811Q21 972 130 1059T441 1147Q531 1147 614 1131T777 1081Z" />
<glyph unicode="&#x160;" glyph-name="Scaron" horiz-adv-x="1233" d="M889 1442V1237Q797 1296 705 1326T518 1356Q375 1356 292 1290T209 1110Q209 1011 263 959T467 872L573 848Q783 799 879 694T975 408Q975 195 843 83T459 -29Q354 -29 248 -7T35 61V276Q150
203 252 169T459 135Q612 135 697 203T782 395Q782 507 724 566T520 657L412 682Q204 729 110 824T16 1079Q16 1279 150 1399T508 1520Q594 1520 689 1501T889 1442ZM216 1635L5 1901H145L310 1723L476 1901H616L405 1635H216Z" />
<glyph unicode="&#x161;" glyph-name="scaron" horiz-adv-x="1233" d="M777 1081V901Q698 947 618 970T455 993Q330 993 269 953T207 829Q207 754 253 717T482 645L556 631Q693 605 763 527T834 324Q834 158 716 65T388 -29Q305 -29 214 -12T17 41V231Q120 178
214 152T392 125Q514 125 581 174T648 313Q648 441 403 490L395 492L326 506Q167 537 94 610T21 811Q21 972 130 1059T441 1147Q531 1147 614 1131T777 1081ZM250 1262L4 1638H143L323 1393L504 1638H643L397 1262H250Z" />
<glyph unicode="&#x162;" glyph-name="Tcommaaccent" horiz-adv-x="1233" d="M307 0Q363 -62 389 -114T416 -215Q416 -304 356 -349T178 -395Q133 -395 90 -389T2 -371V-240Q36 -257 73 -264T158 -272Q216 -272 246 -248T277 -178Q277 -148 255 -105T189 0H307ZM1
1493H1140V1323H673V0H470V1323H1V1493Z" />
<glyph unicode="&#x163;" glyph-name="tcommaaccent" horiz-adv-x="1233" d="M428 0Q484 -62 510 -114T537 -215Q537 -304 477 -349T299 -395Q254 -395 211 -389T123 -371V-240Q157 -257 194 -264T279 -272Q337 -272 367 -248T398 -178Q398 -148 376 -105T310
0H428ZM483 1438V1120H901V977H483V369Q483 245 530 196T694 147H901V0H676Q469 0 384 83T299 369V977H0V1120H299V1438H483Z" />
<glyph unicode="&#x164;" glyph-name="Tcaron" horiz-adv-x="1233" d="M1 1493H1140V1323H673V0H470V1323H1V1493ZM222 1635L11 1901H151L316 1723L482 1901H622L411 1635H222Z" />
<glyph unicode="&#x165;" glyph-name="tcaron" horiz-adv-x="1233" d="M483 1438V1120H901V977H483V369Q483 245 530 196T694 147H901V0H676Q469 0 384 83T299 369V977H0V1120H299V1438H483ZM354 1662H552L439 1286H285L354 1662Z" />
<glyph unicode="&#x166;" glyph-name="Tbar" horiz-adv-x="1141" d="M1 1493H1140V1323H673V747H938V577H673V0H470V577H205V747H470V1323H1V1493Z" />
<glyph unicode="&#x167;" glyph-name="tbar" horiz-adv-x="902" d="M483 1438V1120H901V977H483V744H712V602H483V369Q483 245 530 196T694 147H901V0H676Q469 0 384 83T299 369V602H70V744H299V977H0V1120H299V1438H483Z" />
<glyph unicode="&#x168;" glyph-name="Utilde" horiz-adv-x="1233" d="M343 1710L286 1743Q261 1757 246 1762T218 1768Q183 1768 163 1743T143 1673V1667H18Q18 1768 69 1827T206 1886Q242 1886 272 1878T352 1843L409 1813Q431 1800 448 1794T481 1788Q512 1788
532 1813T552 1880V1886H677Q675 1786 624 1727T489 1667Q455 1667 425 1675T343 1710ZM23 573V1493H226V481Q226 372 232 326T253 254Q285 195 345 165T492 135Q579 135 639 165T732 254Q747 279 753 325T759 479V1493H961V573Q961 344 933 248T834 88Q768 29
683 0T492 -29Q387 -29 302 0T150 88Q81 150 52 248T23 573Z" />
<glyph unicode="&#x169;" glyph-name="utilde" horiz-adv-x="1233" d="M343 1370L286 1425Q265 1445 249 1454T218 1464Q180 1464 162 1427T142 1309H18Q19 1443 70 1517T212 1591Q251 1591 283 1577T352 1530L409 1475Q430 1455 446 1446T476 1436Q515 1436 533
1473T552 1591H677Q676 1457 625 1383T483 1309Q444 1309 412 1323T343 1370ZM23 424V1118H207V424Q207 273 260 202T426 131Q556 131 625 222T694 485V1118H879V0H694V168Q645 71 561 21T363 -29Q191 -29 107 83T23 424Z" />
<glyph unicode="&#x16a;" glyph-name="Umacron" horiz-adv-x="1233" d="M26 1840H624V1692H26V1840ZM23 573V1493H226V481Q226 372 232 326T253 254Q285 195 345 165T492 135Q579 135 639 165T732 254Q747 279 753 325T759 479V1493H961V573Q961 344 933 248T834
88Q768 29 683 0T492 -29Q387 -29 302 0T150 88Q81 150 52 248T23 573Z" />
<glyph unicode="&#x16b;" glyph-name="umacron" horiz-adv-x="1233" d="M26 1526H624V1378H26V1526ZM23 424V1118H207V424Q207 273 260 202T426 131Q556 131 625 222T694 485V1118H879V0H694V168Q645 71 561 21T363 -29Q191 -29 107 83T23 424Z" />
<glyph unicode="&#x16c;" glyph-name="Ubreve" horiz-adv-x="1233" d="M13 1901H132Q144 1847 194 1819T326 1790Q409 1790 457 1817T521 1901H640Q629 1782 550 1721T326 1659Q182 1659 103 1720T13 1901ZM23 573V1493H226V481Q226 372 232 326T253 254Q285 195
345 165T492 135Q579 135 639 165T732 254Q747 279 753 325T759 479V1493H961V573Q961 344 933 248T834 88Q768 29 683 0T492 -29Q387 -29 302 0T150 88Q81 150 52 248T23 573Z" />
<glyph unicode="&#x16d;" glyph-name="ubreve" horiz-adv-x="1233" d="M13 1608H132Q143 1532 191 1495T326 1458Q411 1458 459 1495T521 1608H640Q629 1465 550 1393T326 1321Q182 1321 103 1393T13 1608ZM23 424V1118H207V424Q207 273 260 202T426 131Q556 131
625 222T694 485V1118H879V0H694V168Q645 71 561 21T363 -29Q191 -29 107 83T23 424Z" />
<glyph unicode="&#x16e;" glyph-name="Uring" horiz-adv-x="1233" d="M23 573V1493H226V481Q226 372 232 326T253 254Q285 195 345 165T492 135Q579 135 639 165T732 254Q747 279 753 325T759 479V1493H961V573Q961 344 933 248T834 88Q768 29 683 0T492 -29Q387
-29 302 0T150 88Q81 150 52 248T23 573ZM572 1859Q572 1744 493 1664T297 1584Q182 1584 103 1664T23 1859Q23 1974 102 2053T297 2133Q413 2133 492 2054T572 1859ZM449 1859Q449 1922 405 1966T297 2010Q233 2010 190 1967T146 1859Q146 1794 189 1751T297 1707Q361
1707 405 1751T449 1859Z" />
<glyph unicode="&#x16f;" glyph-name="uring" horiz-adv-x="1233" d="M23 424V1118H207V424Q207 273 260 202T426 131Q556 131 625 222T694 485V1118H879V0H694V168Q645 71 561 21T363 -29Q191 -29 107 83T23 424ZM577 1736Q577 1621 498 1541T302 1461Q187 1461
108 1541T28 1736Q28 1851 107 1930T302 2010Q418 2010 497 1931T577 1736ZM454 1736Q454 1799 410 1843T302 1887Q238 1887 195 1844T151 1736Q151 1671 194 1628T302 1584Q366 1584 410 1628T454 1736Z" />
<glyph unicode="&#x170;" glyph-name="Uhungarumlaut" horiz-adv-x="1233" d="M525 1899H711L482 1635H328L525 1899ZM206 1899H392L163 1635H9L206 1899ZM23 573V1493H226V481Q226 372 232 326T253 254Q285 195 345 165T492 135Q579 135 639 165T732 254Q747
279 753 325T759 479V1493H961V573Q961 344 933 248T834 88Q768 29 683 0T492 -29Q387 -29 302 0T150 88Q81 150 52 248T23 573Z" />
<glyph unicode="&#x171;" glyph-name="uhungarumlaut" horiz-adv-x="1233" d="M200 1638H370L146 1262H9L200 1638ZM533 1638H712L464 1262H329L533 1638ZM23 424V1118H207V424Q207 273 260 202T426 131Q556 131 625 222T694 485V1118H879V0H694V168Q645 71 561
21T363 -29Q191 -29 107 83T23 424Z" />
<glyph unicode="&#x172;" glyph-name="Uogonek" horiz-adv-x="1233" d="M23 573V1493H226V481Q226 372 232 326T253 254Q285 195 345 165T492 135Q579 135 639 165T732 254Q747 279 753 325T759 479V1493H961V573Q961 344 933 248T834 88Q768 29 683 0T492 -29Q387
-29 302 0T150 88Q81 150 52 248T23 573ZM149 241H268Q223 180 202 136T180 61Q180 15 207 -8T289 -31Q321 -31 352 -24T414 -1V-134Q376 -144 342 -149T278 -154Q156 -154 99 -111T41 26Q41 74 67 126T149 241Z" />
<glyph unicode="&#x173;" glyph-name="uogonek" horiz-adv-x="1233" d="M23 424V1118H207V424Q207 273 260 202T426 131Q556 131 625 222T694 485V1118H879V0H694V168Q645 71 561 21T363 -29Q191 -29 107 83T23 424ZM528 0H647Q602 -61 581 -105T559 -180Q559
-226 586 -249T668 -272Q700 -272 731 -265T793 -242V-375Q755 -385 721 -390T657 -395Q535 -395 478 -352T420 -215Q420 -167 446 -115T528 0Z" />
<glyph unicode="&#x174;" glyph-name="Wcircumflex" horiz-adv-x="1233" d="M217 1908H406L617 1642H477L311 1820L146 1642H6L217 1908ZM13 1493H210L353 281L523 1083H734L906 279L1049 1493H1246L1023 0H832L629 887L427 0H236L13 1493Z" />
<glyph unicode="&#x175;" glyph-name="wcircumflex" horiz-adv-x="1233" d="M250 1645H397L643 1269H504L323 1514L143 1269H4L250 1645ZM11 1120H193L388 215L548 793H705L867 215L1062 1120H1244L982 0H806L627 614L449 0H273L11 1120Z" />
<glyph unicode="&#x176;" glyph-name="Ycircumflex" horiz-adv-x="1233" d="M217 1908H406L617 1642H477L311 1820L146 1642H6L217 1908ZM1 1493H216L580 834L943 1493H1160L681 670V0H478V670L1 1493Z" />
<glyph unicode="&#x177;" glyph-name="ycircumflex" horiz-adv-x="1233" d="M262 1645H409L655 1269H516L335 1514L155 1269H16L262 1645ZM766 360Q720 243 649 52Q550 -212 516 -270Q470 -348 401 -387T240 -426H92V-272H201Q282 -272 328 -225T445 18L12 1120H207L539
244L866 1120H1061L766 360Z" />
<glyph unicode="&#x178;" glyph-name="Ydieresis" horiz-adv-x="1233" d="M1 1493H216L580 834L943 1493H1160L681 670V0H478V670L1 1493ZM26 1870H229V1667H26V1870ZM418 1870H620V1667H418V1870Z" />
<glyph unicode="&#x179;" glyph-name="Zacute" horiz-adv-x="1233" d="M225 1899H411L182 1635H28L225 1899ZM34 1493H1003V1339L223 170H1025V0H12V154L771 1323H34V1493Z" />
<glyph unicode="&#x17a;" glyph-name="zacute" horiz-adv-x="1233" d="M367 1645H565L240 1269H86L367 1645ZM40 1122H853V954L210 150H853V0H16V170L659 975H40V1122Z" />
<glyph unicode="&#x17b;" glyph-name="Zdotaccent" horiz-adv-x="1233" d="M76 1872H281V1667H76V1872ZM34 1493H1003V1339L223 170H1025V0H12V154L771 1323H34V1493Z" />
<glyph unicode="&#x17c;" glyph-name="zdotaccent" horiz-adv-x="1233" d="M26 1552H231V1348H26V1552ZM40 1122H853V954L210 150H853V0H16V170L659 975H40V1122Z" />
<glyph unicode="&#x17d;" glyph-name="Zcaron" horiz-adv-x="1233" d="M34 1493H1003V1339L223 170H1025V0H12V154L771 1323H34V1493ZM216 1635L5 1901H145L310 1723L476 1901H616L405 1635H216Z" />
<glyph unicode="&#x17e;" glyph-name="zcaron" horiz-adv-x="1233" d="M40 1122H853V954L210 150H853V0H16V170L659 975H40V1122ZM250 1262L4 1638H143L323 1393L504 1638H643L397 1262H250Z" />
<glyph unicode="&#x17f;" glyph-name="longs" horiz-adv-x="868" d="M483 1219V0H299V977H0V1120H299V1198Q299 1382 383 1469T647 1556H868V1403H659Q560 1403 522 1363T483 1219Z" />
<glyph unicode="&#x180;" glyph-name="uni0180" horiz-adv-x="1060" d="M320 977Q364 1059 441 1103T621 1147Q823 1147 939 992T1055 563Q1055 286 939 129T619 -29Q519 -29 443 14T320 141V0H136V1270H13V1434H136V1556H320V1434H322H675V1270H322H320V977ZM592
991Q458 991 389 882T320 559Q320 347 389 237T592 127Q725 127 793 236T861 559T793 882T592 991Z" />
<glyph unicode="&#x181;" glyph-name="uni0181" horiz-adv-x="1190" d="M526 713V166H646Q822 166 897 227T972 430Q972 576 893 644T646 713H526ZM526 1327V877H642Q788 877 853 933T919 1114Q919 1227 855 1277T642 1327H526ZM324 1493H646Q875 1493 999 1394T1123
1114Q1123 977 1058 898T861 799Q1008 777 1091 674T1175 410Q1175 207 1042 104T646 0H324V1327Q262 1327 212 1284T162 1128V1079H6V1149Q6 1308 90 1400T324 1493Z" />
<glyph unicode="&#x182;" glyph-name="uni0182" horiz-adv-x="1233" d="M229 713V166H468Q644 166 719 227T794 430Q794 576 715 644T468 713H229ZM928 1327H229V877H464Q843 862 944 671Q997 571 997 410Q997 207 864 104Q731 0 468 0H26V1493H928V1327Z" />
<glyph unicode="&#x183;" glyph-name="uni0183" horiz-adv-x="954" d="M210 977Q254 1059 331 1103T511 1147Q713 1147 829 992T945 563Q945 286 829 129T509 -29Q409 -29 333 14T210 141V0H26V1556H778V1372H210V977ZM482 991Q348 991 279 882T210 559Q210 347
279 237T482 127Q615 127 683 236T751 559T683 882T482 991Z" />
<glyph unicode="&#x184;" glyph-name="uni0184" horiz-adv-x="1145" d="M377 713V166H616Q792 166 867 228Q942 289 942 430Q942 576 863 644Q784 713 616 713H377ZM377 877H612Q991 862 1092 671Q1145 571 1145 410Q1145 207 1012 104Q879 0 616 0H174V948L8
1176L377 1493V877Z" />
<glyph unicode="&#x185;" glyph-name="uni0185" horiz-adv-x="1121" d="M656 991Q522 991 452 882Q384 772 384 559Q384 347 452 237Q522 127 656 127Q788 127 856 236T924 559T856 882T656 991ZM384 977Q428 1059 505 1103T684 1147Q886 1147 1002 992Q1118 836
1118 563Q1118 286 1002 128Q886 -29 682 -29Q582 -29 506 14Q430 58 384 141V0H200V948L6 1176L384 1556V977Z" />
<glyph unicode="&#x186;" glyph-name="uni0186" horiz-adv-x="968" d="M22 1438Q99 1479 180 1499T352 1520Q637 1520 796 1316T956 745Q956 377 798 174T352 -29Q261 -29 180 -9T22 53V260Q95 199 179 167T352 135Q549 135 647 287T745 745Q745 1052 647 1204T352
1356Q266 1356 181 1324T22 1231V1438Z" />
<glyph unicode="&#x187;" glyph-name="uni0187" horiz-adv-x="1129" d="M940 53Q863 12 782 -8T610 -29Q323 -29 165 174T6 745Q6 1043 165 1247T610 1452Q700 1452 779 1432Q802 1483 844 1533Q934 1639 1099 1639H1119V1483Q1035 1483 984 1421Q940 1368 940
1233V1163Q866 1224 781 1256T610 1288Q413 1288 315 1136T217 745Q217 439 315 287T610 135Q698 135 782 167T940 260V53Z" />
<glyph unicode="&#x188;" glyph-name="uni0188" horiz-adv-x="1058" d="M869 57Q795 14 717 -7T556 -29Q296 -29 150 127T3 559T149 991T556 1147Q626 1147 693 1131Q712 1245 773 1316Q863 1422 1028 1422H1048V1266Q958 1266 913 1204Q869 1142 869 1016V868Q796
933 723 962T556 991Q383 991 290 879T197 559Q197 352 290 240T556 127Q652 127 728 156T869 248V57Z" />
<glyph unicode="&#x189;" glyph-name="uni0189" horiz-adv-x="1233" d="M439 1493Q781 1493 943 1311T1105 745Q1105 363 943 182T439 0H136V709H11V858H136V1493H439ZM439 166Q694 166 795 291T896 745Q896 1076 796 1201T439 1327H343V858H607V709H343V166H439Z" />
<glyph unicode="&#x18a;" glyph-name="uni018A" horiz-adv-x="1239" d="M325 1493H558Q900 1493 1062 1311T1224 745Q1224 363 1062 182T558 0H325V1327Q271 1327 211 1280Q163 1242 163 1128V1079H7V1149Q7 1330 103 1411T325 1493ZM554 166Q809 166 910 291T1011
745Q1011 1076 911 1201T554 1327H528V166H554Z" />
<glyph unicode="&#x18b;" glyph-name="uni018B" horiz-adv-x="1006" d="M777 713H538Q370 713 291 645T212 430Q212 289 287 228T538 166H777V713ZM78 1327V1493H980V0H538Q275 0 142 103T9 410Q9 571 62 671Q163 862 542 877H777V1327H78Z" />
<glyph unicode="&#x18c;" glyph-name="uni018C" horiz-adv-x="954" d="M472 127Q606 127 675 237T744 559Q744 772 675 881T472 991Q339 991 271 882T203 559T271 236T472 127ZM176 1372V1556H928V0H744V141Q698 58 622 15T445 -29Q242 -29 126 128T9 563Q9 836
125 991T443 1147Q545 1147 622 1103T744 977V1372H176Z" />
<glyph unicode="&#x18d;" glyph-name="uni018D" horiz-adv-x="984" d="M491 127Q631 127 703 236T775 559Q775 772 703 881T491 991Q350 991 278 882T206 559Q206 345 278 236T491 127ZM773 51Q792 42 832 2Q894 -59 894 -151Q894 -287 776 -369Q657 -451 460
-451Q358 -451 308 -439L157 -403V-230Q223 -254 293 -269Q368 -284 441 -284Q450 -284 460 -284L492 -283Q565 -281 625 -238L664 -210Q691 -186 691 -140Q691 -107 678 -88Q661 -64 620 -43Q596 -30 491 -29Q256 -26 135 122Q11 273 11 559Q11 846 134 996T491
1147Q724 1147 847 997T970 559Q970 273 847 122Q816 84 773 51Z" />
<glyph unicode="&#x18e;" glyph-name="uni018E" horiz-adv-x="936" d="M910 1493V0H5V170H708V711H54V881H708V1323H24V1493H910Z" />
<glyph unicode="&#x18f;" glyph-name="uni018F" horiz-adv-x="1024" d="M10 745V828H797V836Q797 1077 728 1216T509 1356Q423 1356 338 1324T179 1231V1438Q256 1479 337 1499T509 1520Q762 1520 885 1328T1009 745Q1009 355 886 163T509 -29Q256 -29 133 162T10
745ZM225 644Q225 396 295 266T513 135Q661 135 724 262T796 644H225Z" />
<glyph unicode="&#x190;" glyph-name="uni0190" horiz-adv-x="972" d="M316 799Q185 833 117 914T48 1118Q48 1299 178 1409T527 1520Q600 1520 694 1504T910 1456V1270Q806 1310 711 1330T527 1350Q393 1350 321 1289T248 1112Q248 1003 326 942T543 881H697V715H543Q391
715 302 639T213 432Q213 291 302 216T557 141Q655 141 754 167T955 246V45Q852 9 745 -10T535 -29Q290 -29 152 88T13 412Q13 561 91 660T316 799Z" />
<glyph unicode="&#x191;" glyph-name="uni0191" horiz-adv-x="1110" d="M320 1493H1110V1323H523V883H1047V713H523V-20Q523 -215 434 -320Q344 -426 179 -426H3V-270H141Q231 -270 276 -208Q320 -146 320 -20V1493Z" />
<glyph unicode="&#x192;" glyph-name="florin" horiz-adv-x="868" d="M868 1556V1403H659H657Q560 1403 521 1362Q483 1322 483 1219V1120H868V977H483V-20Q483 -234 402 -330Q320 -426 139 -426H69V-270H118Q223 -270 261 -222Q299 -173 299 -20L297 977H0V1120H296V1198Q296
1378 383 1470Q420 1509 480 1530Q550 1556 647 1556H656H659H868Z" />
<glyph unicode="&#x193;" glyph-name="uni0193" horiz-adv-x="1151" d="M1012 123Q930 48 829 10T610 -29Q326 -29 168 174T10 745Q10 1111 170 1315T614 1520Q708 1520 794 1494Q811 1488 828 1482Q843 1508 864 1533Q954 1639 1120 1639H1139V1483Q1055 1483
1004 1421Q961 1367 960 1233V1206Q880 1283 795 1319T614 1356Q418 1356 319 1204T220 745Q220 434 316 285T610 135Q676 135 727 150T818 199V600H602V766H1012V123Z" />
<glyph unicode="&#x194;" glyph-name="uni0194" horiz-adv-x="1195" d="M710 650Q1034 201 1034 -194Q1034 -430 618 -430Q178 -430 178 -194Q178 173 472 657L8 1353H224L596 798L968 1353H1186L710 650ZM580 495Q382 194 382 -130Q382 -268 598 -268Q802 -268
802 -130Q802 195 580 495Z" />
<glyph unicode="&#x195;" glyph-name="uni0195" horiz-adv-x="1129" d="M716 694V406H715Q715 253 749 204Q787 152 842 156Q861 158 915 231Q962 297 962 453V864H1129V453Q1129 225 1053 113T823 0Q696 0 622 96Q549 192 549 406V694Q549 845 502 916T388 987Q317
987 255 896T192 633V0H26V1556H192V952Q269 1086 286 1098Q361 1147 446 1147Q564 1147 640 1035T716 694Z" />
<glyph unicode="&#x196;" glyph-name="uni0196" horiz-adv-x="891" d="M313 1323H0V1493H829V1323H516V421Q516 294 560 233Q605 171 695 171H880L881 0H664Q494 0 402 106Q313 208 313 406V1323Z" />
<glyph unicode="&#x197;" glyph-name="uni0197" horiz-adv-x="857" d="M14 1493H843V1323H530V747H532H797V577H532H530V170H843V0H14V170H327V577H64V747H327V1323H14V1493Z" />
<glyph unicode="&#x198;" glyph-name="uni0198" horiz-adv-x="1137" d="M563 1180Q724 1350 829 1362Q850 1365 870 1365Q996 1365 1088 1266L1135 1215L1029 1101L996 1138Q951 1189 891 1189Q874 1189 855 1185Q789 1170 680 1055L516 883L1114 0H870L383 748L229
584V0H26V1493H229V829L563 1180Z" />
<glyph unicode="&#x199;" glyph-name="uni0199" horiz-adv-x="990" d="M24 1002V1150Q24 1345 113 1450Q203 1556 368 1556H573V1400H388Q298 1400 253 1338Q209 1276 209 1150H214V655L697 1120H921L480 698L990 0H765L351 578L214 449V0H24V1002Z" />
<glyph unicode="&#x19a;" glyph-name="uni019A" horiz-adv-x="875" d="M480 406Q480 282 525 219T660 156H875V0H642Q477 0 387 106T296 406V602H68V744H296V1423H1V1567H480V744H489H710V602H489H480V406Z" />
<glyph unicode="&#x19b;" glyph-name="uni019B" horiz-adv-x="1099" d="M537 1213L885 1455L965 1345L594 1087L1091 0H900L579 704L249 0H58L483 913L449 987L87 736L7 847L392 1113L218 1493H409L537 1213Z" />
<glyph unicode="&#x19c;" glyph-name="uni019C" horiz-adv-x="1077" d="M484 114Q450 42 398 8T271 -27Q136 -27 81 77T25 471V1493H193V479Q193 242 219 185T316 127Q396 127 425 188T455 479V1493H623V479Q623 239 651 183T754 127Q827 127 855 188T884 479V1493H1051V0H884V96Q851
36 802 5T689 -27Q613 -27 563 8T484 114Z" />
<glyph unicode="&#x19d;" glyph-name="uni019D" horiz-adv-x="1038" d="M172 1493H402L856 264V1493H1031V0H801L348 1229V-20Q348 -215 267 -320Q186 -426 38 -426H11V-270Q92 -270 132 -208Q172 -147 172 -20V1493Z" />
<glyph unicode="&#x19e;" glyph-name="uni019E" horiz-adv-x="884" d="M860 694V-430H675V694Q675 845 622 916T456 987Q327 987 258 896T188 633V0H4V1120H188V952Q237 1048 321 1097T520 1147Q691 1147 775 1035T860 694Z" />
<glyph unicode="&#x19f;" glyph-name="uni019F" horiz-adv-x="1029" d="M1014 745Q1014 355 891 163T514 -29T138 162T15 745Q15 1136 138 1328T514 1520Q767 1520 890 1328T1014 745ZM802 828Q794 1092 736 1215Q668 1356 514 1356Q361 1356 294 1215Q235 1092
227 828H802ZM228 644Q237 394 294 276Q361 135 514 135Q668 135 736 276Q792 393 801 644H228Z" />
<glyph unicode="&#x1a0;" glyph-name="Ohorn" horiz-adv-x="1233" d="M377 1292V1411Q438 1366 482 1345T557 1323Q603 1323 626 1350T649 1432Q649 1464 642 1495T619 1557H752Q762 1519 767 1485T772 1421Q772 1299 729 1242T592 1184Q544 1184 492 1210T377
1292ZM951 745Q951 1074 884 1215T662 1356Q509 1356 442 1215T374 745Q374 417 441 276T662 135Q816 135 883 275T951 745ZM1162 745Q1162 355 1039 163T662 -29Q409 -29 286 162T163 745Q163 1136 286 1328T662 1520Q915 1520 1038 1328T1162 745Z" />
<glyph unicode="&#x1a1;" glyph-name="ohorn" horiz-adv-x="1233" d="M388 872V991Q449 946 493 925T568 903Q614 903 637 930T660 1012Q660 1044 653 1075T630 1137H763Q773 1099 778 1065T783 1001Q783 879 740 822T603 764Q555 764 503 790T388 872ZM646 991Q506
991 434 882T362 559Q362 346 434 237T646 127Q787 127 859 236T931 559Q931 773 859 882T646 991ZM646 1147Q879 1147 1002 996T1126 559Q1126 272 1003 122T646 -29Q413 -29 290 121T167 559Q167 845 290 996T646 1147Z" />
<glyph unicode="&#x1a2;" glyph-name="uni01A2" horiz-adv-x="1186" d="M17 745Q17 1417 351 1506Q404 1520 466 1520Q672 1520 783 1362L930 1493H1160V0H985V1229L805 1069V163Q694 -29 466 -29T128 162T17 745ZM665 1215Q604 1356 466 1356Q328 1356 268 1215T207
745Q207 417 267 276T466 135Q604 135 665 276V1215Z" />
<glyph unicode="&#x1a3;" glyph-name="uni01A3" horiz-adv-x="1135" d="M1 559Q1 995 251 1110Q331 1147 432 1147Q642 1147 753 996V953L879 1063H1110V-430H934V799L753 642V122Q643 -29 432 -29Q198 -29 87 159Q1 305 1 559ZM177 559Q177 164 392 130Q411 127
432 127Q559 127 624 236V882Q559 991 432 991Q226 991 186 705Q177 639 177 559Z" />
<glyph unicode="&#x1a4;" glyph-name="uni01A4" horiz-adv-x="1129" d="M1127 1047Q1127 699 815 622Q729 600 619 600H526V0H324V1327Q270 1327 210 1280Q162 1242 162 1128V1079H6V1149Q6 1330 102 1412Q198 1493 324 1493H619Q1026 1493 1108 1201Q1127 1132
1127 1047ZM619 766Q830 766 894 923Q916 979 916 1047Q916 1180 838 1253T619 1327H526V766H619Z" />
<glyph unicode="&#x1a5;" glyph-name="uni01A5" horiz-adv-x="943" d="M210 559Q210 184 419 134Q448 127 482 127Q615 127 682 236T750 559Q750 977 499 991Q490 991 482 991Q268 991 222 718Q210 648 210 559ZM210 977Q301 1141 495 1147Q502 1147 509 1147Q712
1147 827 990T943 555Q943 282 827 127T509 -29Q407 -29 331 14T210 141V-426H25V1026Q25 1328 228 1407Q291 1432 369 1432H574V1276H389Q220 1276 211 1055Q210 1041 210 1026V977Z" />
<glyph unicode="&#x1a6;" glyph-name="uni01A6" horiz-adv-x="1102" d="M629 441Q707 421 762 366Q816 311 899 144L1102 -264H885L707 113Q630 274 569 320T408 367H215V0H12V1493H215V1229H428Q674 1229 805 1118T936 797Q936 649 856 556T629 441ZM215 1063V533H436Q581
533 652 598T723 797Q723 926 648 994T428 1063H215Z" />
<glyph unicode="&#x1a7;" glyph-name="uni01A7" horiz-adv-x="988" d="M99 1442Q204 1481 299 1500T480 1520Q703 1520 837 1400T972 1079Q972 919 878 824T576 682L468 657Q323 625 265 566T206 395Q206 272 291 204T529 135Q633 135 735 169T953 276V61Q846
16 740 -6T529 -29Q277 -29 145 83T13 408Q13 589 109 694T415 848L521 872Q670 907 724 959T779 1110Q779 1223 696 1289T470 1356Q376 1356 284 1326T99 1237V1442Z" />
<glyph unicode="&#x1a8;" glyph-name="uni01A8" horiz-adv-x="848" d="M71 1081Q151 1114 234 1130T407 1147Q609 1147 718 1060T827 811Q827 684 754 611T522 506L453 492L445 490Q200 441 200 313Q200 224 267 175T456 125Q540 125 634 151T831 231V41Q725 6
634 -11T460 -29Q250 -29 132 64T14 324Q14 449 84 527T292 631L366 645Q549 680 595 717T641 829Q641 912 580 952T393 993Q310 993 230 970T71 901V1081Z" />
<glyph unicode="&#x1a9;" glyph-name="uni01A9" horiz-adv-x="1233" d="M691 747L236 170H1038V0H25V170L479 747L25 1323V1493H1038V1323H236L691 747Z" />
<glyph unicode="&#x1aa;" glyph-name="uni01AA" horiz-adv-x="998" d="M450 1284Q443 1329 425 1352Q392 1400 282 1400Q158 1400 155 1335Q152 1284 271 1284H450ZM647 1130L645 -89Q645 -192 684 -233Q721 -273 821 -273H997V-426H823Q628 -426 547 -340Q460
-248 460 -68V1130H270Q0 1130 0 1340Q0 1556 303 1556Q484 1556 566 1460Q619 1396 637 1285H828V1130H647Z" />
<glyph unicode="&#x1ab;" glyph-name="uni01AB" horiz-adv-x="903" d="M483 1438V1120H901V977H483V369Q483 245 530 196T694 147H901V0V-20Q901 -215 812 -320Q722 -426 557 -426H352V-270H537Q627 -270 672 -208Q716 -146 716 -20V0H676Q469 0 384 83T299 369V977H0V1120H299V1438H483Z"
/>
<glyph unicode="&#x1ac;" glyph-name="uni01AC" horiz-adv-x="1142" d="M408 1327Q277 1335 207 1280Q158 1242 158 1128V1079H2V1149Q2 1330 98 1411T408 1493H1141V1323H674V0H471V1323L408 1327Z" />
<glyph unicode="&#x1ad;" glyph-name="uni01AD" horiz-adv-x="909" d="M483 1120H901V977H483V369Q483 245 530 196T694 147H901V0H676Q469 0 384 83T299 369V977H0V1120H298V1150Q298 1345 387 1450Q477 1556 642 1556H847V1400H662Q572 1400 527 1338Q483 1276
483 1150V1120Z" />
<glyph unicode="&#x1ae;" glyph-name="uni01AE" horiz-adv-x="1143" d="M0 1493H1139V1323H672V-20Q672 -146 716 -208Q761 -270 851 -270H1036V-426H813Q648 -426 558 -320Q469 -215 469 -20V1323H0V1493Z" />
<glyph unicode="&#x1af;" glyph-name="Uhorn" horiz-adv-x="1233" d="M410 1296V1415Q471 1370 515 1349T590 1327Q636 1327 659 1354T682 1436Q682 1468 675 1499T652 1561H785Q795 1523 800 1489T805 1425Q805 1303 762 1246T625 1188Q577 1188 525 1214T410
1296ZM-114 573V1493H89V481Q89 372 95 326T116 254Q148 195 208 165T355 135Q442 135 502 165T595 254Q610 279 616 325T622 479V1493H824V573Q824 344 796 248T697 88Q631 29 546 0T355 -29Q250 -29 165 0T13 88Q-56 150 -85 248T-114 573Z" />
<glyph unicode="&#x1b0;" glyph-name="uhorn" horiz-adv-x="1233" d="M380 872V991Q441 946 485 925T560 903Q606 903 629 930T652 1012Q652 1044 645 1075T622 1137H755Q765 1099 770 1065T775 1001Q775 879 732 822T595 764Q547 764 495 790T380 872ZM-132 424V1118H52V424Q52
273 105 202T271 131Q401 131 470 222T539 485V1118H724V0H539V168Q490 71 406 21T208 -29Q36 -29 -48 83T-132 424Z" />
<glyph unicode="&#x1b1;" glyph-name="uni01B1" horiz-adv-x="1117" d="M1101 1460V1288H856Q979 1154 1034 1010T1089 678Q1089 367 945 184T561 0Q319 0 175 183T30 678Q30 866 85 1010T264 1288H16V1460H479V1288Q359 1212 292 1048T225 661Q225 431 315 299T559
166T802 298T892 661Q892 883 825 1047T638 1288V1460H1101Z" />
<glyph unicode="&#x1b2;" glyph-name="uni01B2" horiz-adv-x="942" d="M376 0Q206 0 114 106Q24 208 24 406V1493H228V421Q228 295 272 233Q316 171 406 171Q560 171 650 303T740 666Q740 888 673 1052T486 1293H704Q826 1159 881 1015T936 683Q936 372 792 188Q645
0 376 0Z" />
<glyph unicode="&#x1b3;" glyph-name="uni01B3" horiz-adv-x="1202" d="M861 1140L615 670V0H432V670L3 1493H196L524 834L723 1235Q822 1435 931 1477Q977 1495 1022 1495Q1102 1495 1177 1438L1202 1419L1131 1285L1121 1294Q1087 1325 1047 1325Q1019 1325
988 1309Q937 1285 861 1140Z" />
<glyph unicode="&#x1b4;" glyph-name="uni01B4" horiz-adv-x="1212" d="M609 -104Q528 -307 457 -365Q383 -426 259 -426H112V-272H220Q296 -272 338 -236T431 -66L464 18L11 1120H206L556 244L835 943Q885 1069 966 1110Q1009 1132 1060 1132Q1109 1132 1164
1112L1212 1095L1159 948L1131 958Q1103 969 1081 969Q1038 969 1022 928L609 -104Z" />
<glyph unicode="&#x1b5;" glyph-name="uni01B5" horiz-adv-x="1036" d="M34 1493H1003V1339L608 747H840V577H575H495L223 170H1025V0H12V154L287 577H107V747H397L771 1323H34V1493Z" />
<glyph unicode="&#x1b6;" glyph-name="uni01B6" horiz-adv-x="949" d="M79 1122H892V954L622 616H934V452H580H491L249 150H892V0H55V170L280 452H13V616H411L698 975H79V1122Z" />
<glyph unicode="&#x1b7;" glyph-name="uni01B7" horiz-adv-x="1199" d="M208 435Q208 292 308 217Q407 142 596 142T886 217Q986 292 986 435Q986 569 894 642Q800 716 636 716H462V882L832 1323H94V1493H1064V1325L688 884Q792 884 922 828Q1020 785 1106 677Q1186
573 1186 435Q1186 214 1034 93T602 -28Q310 -28 158 93T6 435H208Z" />
<glyph unicode="&#x1b8;" glyph-name="uni01B8" horiz-adv-x="1199" d="M993 435H1193Q1193 214 1041 93T597 -28Q317 -28 165 93T13 435Q13 573 95 677Q180 785 279 828Q408 884 513 884L137 1325V1493H1105V1323H369L739 882V716H565Q399 716 307 642Q215 569
215 435Q215 292 315 217Q414 142 603 142T893 217Q993 292 993 435Z" />
<glyph unicode="&#x1b9;" glyph-name="uni01B9" horiz-adv-x="1005" d="M512 476L101 952V1120H975V973H308L738 474V308H564Q399 308 306 234Q214 159 214 27Q214 -116 314 -191Q413 -266 603 -266Q712 -266 812 -241T996 -167V-362Q890 -399 790 -418Q691 -436
597 -436Q317 -436 165 -315T13 27Q13 165 94 269Q180 378 278 420Q406 476 512 476Z" />
<glyph unicode="&#x1ba;" glyph-name="uni01BA" horiz-adv-x="911" d="M532 -274Q616 -274 693 -253Q772 -232 853 -188V-367Q766 -399 686 -412Q600 -426 503 -426Q23 -426 23 -145Q23 93 429 146Q713 183 713 281Q713 405 478 405Q478 405 188 405L673 973H6V1120H880V952L526
540Q893 540 893 311Q893 35 429 -14Q203 -38 203 -135Q203 -274 532 -274Z" />
<glyph unicode="&#x1bb;" glyph-name="uni01BB" horiz-adv-x="939" d="M33 1421Q241 1520 432 1520Q651 1520 784 1404T918 1098Q918 1002 873 906Q839 832 773 747H853V577H623L567 514L242 170H928V0H21V170L403 577H120V747H554Q659 877 689 961Q711 1021 711
1083Q711 1268 561 1328Q504 1350 436 1350Q255 1350 33 1217V1421Z" />
<glyph unicode="&#x1bc;" glyph-name="uni01BC" horiz-adv-x="1199" d="M599 142Q915 142 976 341Q989 384 989 435Q989 569 897 642Q803 716 639 716H198V1493H1122V1323H401V884H691Q796 884 925 828Q1024 785 1109 677Q1189 576 1189 435Q1189 214 1037 93T605
-28Q175 -28 53 228Q9 319 9 435H211Q211 254 369 183Q460 142 599 142Z" />
<glyph unicode="&#x1bd;" glyph-name="uni01BD" horiz-adv-x="1005" d="M407 -266Q718 -266 781 -71Q796 -26 796 27Q796 161 704 234Q611 308 446 308H146V1120H898V936H330V475L498 476Q601 477 732 420Q831 377 916 269Q997 165 997 27Q997 -194 845 -315T413
-436Q226 -436 14 -362V-167Q184 -266 407 -266Z" />
<glyph unicode="&#x1be;" glyph-name="uni01BE" horiz-adv-x="856" d="M659 439Q659 553 585 632Q496 727 323 727H261V998H32V1162H261V1438H463V1162H694V998H463V873Q628 844 736 734Q853 615 853 439Q853 254 743 128Q605 -29 331 -29Q160 -29 8 41V213Q164
127 323 127Q502 127 601 241Q658 306 659 439Z" />
<glyph unicode="&#x1bf;" glyph-name="uni01BF" horiz-adv-x="1028" d="M211 -122V-426H26V1120H211V950Q263 1016 398 1098Q479 1147 689 1147Q873 1147 950 1035Q1028 922 1028 769Q1028 344 211 -122ZM211 60Q837 460 837 709Q837 842 780 908Q724 973 604
973Q384 973 211 734V60Z" />
<glyph unicode="&#x1c0;" glyph-name="uni01C0" horiz-adv-x="256" d="M26 1493H228V0H26V1493Z" />
<glyph unicode="&#x1c1;" glyph-name="uni01C1" horiz-adv-x="1233" d="M-175 1493H27V0H-175V1493ZM228 1493H430V0H228V1493Z" />
<glyph unicode="&#x1c2;" glyph-name="uni01C2" horiz-adv-x="904" d="M352 1493H554V1089H904V921H554V681H904V511H554V0H352V511H0V681H352V921H0V1089H352V1493Z" />
<glyph unicode="&#x1c3;" glyph-name="uni01C3" horiz-adv-x="1233" d="M31 1493H234V838L213 481H52L31 838V1493ZM31 254H234V0H31V254Z" />
<glyph unicode="&#x1cd;" glyph-name="uni01CD" horiz-adv-x="1233" d="M583 1315L370 551H796L583 1315ZM461 1493H706L1163 0H954L844 389H321L213 0H4L461 1493ZM216 1635L5 1901H145L310 1723L476 1901H616L405 1635H216Z" />
<glyph unicode="&#x1ce;" glyph-name="uni01CE" horiz-adv-x="1233" d="M583 563H522Q361 563 280 507T198 338Q198 237 259 181T428 125Q580 125 667 230T755 522V563H583ZM940 639V0H755V166Q696 66 607 19T389 -29Q218 -29 116 67T14 326Q14 513 139 610T508
707H755V736Q754 870 687 930T473 991Q379 991 283 964T96 885V1069Q198 1108 291 1127T473 1147Q612 1147 710 1106T870 983Q908 933 924 860T940 639ZM250 1262L4 1638H143L323 1393L504 1638H643L397 1262H250Z" />
<glyph unicode="&#x1cf;" glyph-name="uni01CF" horiz-adv-x="1233" d="M14 1493H843V1323H530V170H843V0H14V170H327V1323H14V1493ZM216 1635L5 1901H145L310 1723L476 1901H616L405 1635H216Z" />
<glyph unicode="&#x1d0;" glyph-name="uni01D0" horiz-adv-x="1233" d="M90 1120H561V143H926V0H12V143H377V977H90V1120ZM250 1262L4 1638H143L323 1393L504 1638H643L397 1262H250Z" />
<glyph unicode="&#x1d1;" glyph-name="uni01D1" horiz-adv-x="1233" d="M805 745Q805 1074 738 1215T516 1356Q363 1356 296 1215T228 745Q228 417 295 276T516 135Q670 135 737 275T805 745ZM1016 745Q1016 355 893 163T516 -29Q263 -29 140 162T17 745Q17 1136
140 1328T516 1520Q769 1520 892 1328T1016 745ZM216 1635L5 1901H145L310 1723L476 1901H616L405 1635H216Z" />
<glyph unicode="&#x1d2;" glyph-name="uni01D2" horiz-adv-x="1233" d="M494 991Q354 991 282 882T210 559Q210 346 282 237T494 127Q635 127 707 236T779 559Q779 773 707 882T494 991ZM494 1147Q727 1147 850 996T974 559Q974 272 851 122T494 -29Q261 -29 138
121T15 559Q15 845 138 996T494 1147ZM250 1262L4 1638H143L323 1393L504 1638H643L397 1262H250Z" />
<glyph unicode="&#x1d3;" glyph-name="uni01D3" horiz-adv-x="1233" d="M23 573V1493H226V481Q226 372 232 326T253 254Q285 195 345 165T492 135Q579 135 639 165T732 254Q747 279 753 325T759 479V1493H961V573Q961 344 933 248T834 88Q768 29 683 0T492 -29Q387
-29 302 0T150 88Q81 150 52 248T23 573ZM216 1635L5 1901H145L310 1723L476 1901H616L405 1635H216Z" />
<glyph unicode="&#x1d4;" glyph-name="uni01D4" horiz-adv-x="1233" d="M23 424V1118H207V424Q207 273 260 202T426 131Q556 131 625 222T694 485V1118H879V0H694V168Q645 71 561 21T363 -29Q191 -29 107 83T23 424ZM250 1262L4 1638H143L323 1393L504 1638H643L397
1262H250Z" />
<glyph unicode="&#x1d5;" glyph-name="uni01D5" horiz-adv-x="970" d="M188 1746H391V1543H188V1746ZM580 1746H782V1543H580V1746ZM16 573V1493H219V481Q219 372 225 326T246 254Q278 195 338 165T485 135Q572 135 632 165T725 254Q740 279 746 325T752 479V1493H954V573Q954
344 926 248T827 88Q761 29 676 0T485 -29Q380 -29 295 0T143 88Q74 150 45 248T16 573ZM186 1952H784V1804H186V1952Z" />
<glyph unicode="&#x1d6;" glyph-name="uni01D6" horiz-adv-x="875" d="M133 1552H336V1350H133V1552ZM525 1552H727V1350H525V1552ZM9 424V1118H193V424Q193 273 246 202T412 131Q542 131 611 222T680 485V1118H865V0H680V168Q631 71 547 21T349 -29Q177 -29 93
83T9 424ZM131 1842H729V1694H131V1842Z" />
<glyph unicode="&#x1d7;" glyph-name="uni01D7" horiz-adv-x="1233" d="M26 1746H229V1543H26V1746ZM418 1746H620V1543H418V1746ZM23 573V1493H226V481Q226 372 232 326T253 254Q285 195 345 165T492 135Q579 135 639 165T732 254Q747 279 753 325T759 479V1493H961V573Q961
344 933 248T834 88Q768 29 683 0T492 -29Q387 -29 302 0T150 88Q81 150 52 248T23 573ZM198 2041H384L155 1777H1L198 2041Z" />
<glyph unicode="&#x1d8;" glyph-name="uni01D8" horiz-adv-x="876" d="M130 1552H333V1350H130V1552ZM522 1552H724V1350H522V1552ZM6 424V1118H190V424Q190 273 243 202T409 131Q539 131 608 222T677 485V1118H862V0H677V168Q628 71 544 21T346 -29Q174 -29 90
83T6 424ZM567 1954H765L440 1578H286L567 1954Z" />
<glyph unicode="&#x1d9;" glyph-name="uni01D9" horiz-adv-x="1233" d="M26 1746H229V1543H26V1746ZM418 1746H620V1543H418V1746ZM23 573V1493H226V481Q226 372 232 326T253 254Q285 195 345 165T492 135Q579 135 639 165T732 254Q747 279 753 325T759 479V1493H961V573Q961
344 933 248T834 88Q768 29 683 0T492 -29Q387 -29 302 0T150 88Q81 150 52 248T23 573ZM216 1777L5 2043H145L310 1865L476 2043H616L405 1777H216Z" />
<glyph unicode="&#x1da;" glyph-name="uni01DA" horiz-adv-x="883" d="M137 1552H340V1350H137V1552ZM529 1552H731V1350H529V1552ZM13 424V1118H197V424Q197 273 250 202T416 131Q546 131 615 222T684 485V1118H869V0H684V168Q635 71 551 21T353 -29Q181 -29
97 83T13 424ZM361 1578L115 1954H254L434 1709L615 1954H754L508 1578H361Z" />
<glyph unicode="&#x1db;" glyph-name="uni01DB" horiz-adv-x="1233" d="M26 1746H229V1543H26V1746ZM418 1746H620V1543H418V1746ZM23 573V1493H226V481Q226 372 232 326T253 254Q285 195 345 165T492 135Q579 135 639 165T732 254Q747 279 753 325T759 479V1493H961V573Q961
344 933 248T834 88Q768 29 683 0T492 -29Q387 -29 302 0T150 88Q81 150 52 248T23 573ZM184 2041L381 1777H227L0 2041H184Z" />
<glyph unicode="&#x1dc;" glyph-name="uni01DC" horiz-adv-x="876" d="M295 1954L576 1578H422L97 1954H295ZM13 424V1118H197V424Q197 273 250 202T416 131Q546 131 615 222T684 485V1118H869V0H684V168Q635 71 551 21T353 -29Q181 -29 97 83T13 424ZM137 1552H340V1350H137V1552ZM529
1552H731V1350H529V1552Z" />
<glyph unicode="&#x1dd;" glyph-name="uni01DD" horiz-adv-x="1233" d="M14 512V602H811V608Q811 791 716 891T446 991Q358 991 262 963T57 878V1061Q162 1104 259 1125T448 1147Q709 1147 856 991T1003 559Q1003 291 859 131T475 -29Q261 -29 138 116T14 512ZM198
459Q198 297 272 212T483 127Q616 127 702 215T804 459H198Z" />
<glyph unicode="&#x1de;" glyph-name="uni01DE" horiz-adv-x="1167" d="M286 1746H489V1543H286V1746ZM678 1746H880V1543H678V1746ZM284 1952H882V1804H284V1952ZM583 1315L370 551H796L583 1315ZM461 1493H706L1163 0H954L844 389H321L213 0H4L461 1493Z" />
<glyph unicode="&#x1df;" glyph-name="uni01DF" horiz-adv-x="938" d="M187 1842H785V1694H187V1842ZM572 563H511Q350 563 269 507T187 338Q187 237 248 181T417 125Q569 125 656 230T744 522V563H572ZM929 639V0H744V166Q685 66 596 19T378 -29Q207 -29 105
67T3 326Q3 513 128 610T497 707H744V736Q743 870 676 930T462 991Q368 991 272 964T85 885V1069Q187 1108 280 1127T462 1147Q601 1147 699 1106T859 983Q897 933 913 860T929 639ZM189 1552H392V1350H189V1552ZM581 1552H783V1350H581V1552Z" />
<glyph unicode="&#x1e0;" glyph-name="uni01E0" horiz-adv-x="1163" d="M282 1952H880V1804H282V1952ZM478 1748H683V1543H478V1748ZM581 1315L368 551H794L581 1315ZM459 1493H704L1161 0H952L842 389H319L211 0H2L459 1493Z" />
<glyph unicode="&#x1e1;" glyph-name="uni01E1" horiz-adv-x="934" d="M186 1842H784V1694H186V1842ZM382 1552H587V1348H382V1552ZM571 563H510Q349 563 268 507T186 338Q186 237 247 181T416 125Q568 125 655 230T743 522V563H571ZM928 639V0H743V166Q684 66
595 19T377 -29Q206 -29 104 67T2 326Q2 513 127 610T496 707H743V736Q742 870 675 930T461 991Q367 991 271 964T84 885V1069Q186 1108 279 1127T461 1147Q600 1147 698 1106T858 983Q896 933 912 860T928 639Z" />
<glyph unicode="&#x1e2;" glyph-name="uni01E2" horiz-adv-x="1233" d="M196 1840H794V1692H196V1840ZM1166 1493V1323H828V881H1135V711H828V170H1185V0H642V383H290L189 0H5L415 1493H1166ZM535 1323L333 551H642V1323H535Z" />
<glyph unicode="&#x1e3;" glyph-name="uni01E3" horiz-adv-x="1233" d="M26 1526H624V1378H26V1526ZM520 442V514H471Q302 514 242 469T182 311Q182 222 226 174T354 125Q446 125 483 191T520 442ZM1013 657V709Q1013 860 975 926T849 993Q762 993 724 925T686
700V657H1013ZM1177 514H686Q685 499 685 482T684 430Q684 269 734 197T897 125Q976 125 1040 150T1155 227V55Q1100 14 1034 -7T897 -29Q787 -29 713 12T606 131Q567 51 501 11T337 -29Q181 -29 100 57T18 307Q18 478 118 567T409 657H526V745Q526 865 477 929T333
993Q277 993 211 972T83 911V1079Q160 1114 226 1130T352 1147Q443 1147 505 1116T604 1020Q637 1081 703 1114T858 1147Q1032 1147 1104 1029T1177 604V514Z" />
<glyph unicode="&#x1e6;" glyph-name="Gcaron" horiz-adv-x="1233" d="M216 1635L5 1901H145L310 1723L476 1901H616L405 1635H216ZM1016 123Q935 48 834 10T614 -29Q330 -29 172 174T14 745Q14 1111 174 1315T619 1520Q713 1520 799 1494T965 1413V1206Q884 1283
799 1319T619 1356Q422 1356 324 1204T225 745Q225 434 320 285T614 135Q681 135 731 150T823 199V600H606V766H1016V123Z" />
<glyph unicode="&#x1e7;" glyph-name="gcaron" horiz-adv-x="1233" d="M250 1262L4 1638H143L323 1393L504 1638H643L397 1262H250ZM746 569Q746 776 679 883T482 991Q347 991 276 884T205 569Q205 362 276 254T484 145Q611 145 678 254T746 569ZM930 72Q930 -180
811 -310T461 -440Q385 -440 302 -426T136 -385V-203Q234 -249 314 -271T461 -293Q610 -293 678 -212T746 45V53V178Q702 84 626 38T441 -8Q245 -8 128 149T11 569Q11 833 128 990T441 1147Q549 1147 624 1104T746 971V1116H930V72Z" />
<glyph unicode="&#x1e8;" glyph-name="uni01E8" horiz-adv-x="1233" d="M216 1635L5 1901H145L310 1723L476 1901H616L405 1635H216ZM28 1493H231V829L862 1493H1099L518 883L1116 0H872L385 748L231 584V0H28V1493Z" />
<glyph unicode="&#x1e9;" glyph-name="uni01E9" horiz-adv-x="1233" d="M216 1635L5 1901H145L310 1723L476 1901H616L405 1635H216ZM26 1556H216V655L699 1120H923L482 698L992 0H767L353 578L216 449V0H26V1556Z" />
<glyph unicode="&#x1ea;" glyph-name="uni01EA" horiz-adv-x="1233" d="M149 241H268Q223 180 202 136T180 61Q180 15 207 -8T289 -31Q321 -31 352 -24T414 -1V-134Q376 -144 342 -149T278 -154Q156 -154 99 -111T41 26Q41 74 67 126T149 241ZM805 745Q805 1074
738 1215T516 1356Q363 1356 296 1215T228 745Q228 417 295 276T516 135Q670 135 737 275T805 745ZM1016 745Q1016 355 893 163T516 -29Q263 -29 140 162T17 745Q17 1136 140 1328T516 1520Q769 1520 892 1328T1016 745Z" />
<glyph unicode="&#x1eb;" glyph-name="uni01EB" horiz-adv-x="1233" d="M149 241H268Q223 180 202 136T180 61Q180 15 207 -8T289 -31Q321 -31 352 -24T414 -1V-134Q376 -144 342 -149T278 -154Q156 -154 99 -111T41 26Q41 74 67 126T149 241ZM494 991Q354 991
282 882T210 559Q210 346 282 237T494 127Q635 127 707 236T779 559Q779 773 707 882T494 991ZM494 1147Q727 1147 850 996T974 559Q974 272 851 122T494 -29Q261 -29 138 121T15 559Q15 845 138 996T494 1147Z" />
<glyph unicode="&#x1ec;" glyph-name="uni01EC" horiz-adv-x="1008" d="M205 1840H803V1692H205V1840ZM444 -16H563Q518 -77 497 -121T475 -196Q475 -242 502 -265T584 -288Q616 -288 647 -281T709 -258V-391Q671 -401 637 -406T573 -411Q451 -411 394 -368T336
-231Q336 -183 362 -131T444 -16ZM793 745Q793 1074 726 1215T504 1356Q351 1356 284 1215T216 745Q216 417 283 276T504 135Q658 135 725 275T793 745ZM1004 745Q1004 355 881 163T504 -29Q251 -29 128 162T5 745Q5 1136 128 1328T504 1520Q757 1520 880 1328T1004
745Z" />
<glyph unicode="&#x1ed;" glyph-name="uni01ED" horiz-adv-x="964" d="M183 1526H781V1378H183V1526ZM422 -16H541Q496 -77 475 -121T453 -196Q453 -242 480 -265T562 -288Q594 -288 625 -281T687 -258V-391Q649 -401 615 -406T551 -411Q429 -411 372 -368T314
-231Q314 -183 340 -131T422 -16ZM482 991Q342 991 270 882T198 559Q198 346 270 237T482 127Q623 127 695 236T767 559Q767 773 695 882T482 991ZM482 1147Q715 1147 838 996T962 559Q962 272 839 122T482 -29Q249 -29 126 121T3 559Q3 845 126 996T482 1147Z"
/>
<glyph unicode="&#x1ee;" glyph-name="uni01EE" horiz-adv-x="1233" d="M216 1635L5 1901H145L310 1723L476 1901H616L405 1635H216ZM208 435Q208 292 308 217Q407 142 596 142T886 217Q986 292 986 435Q986 569 894 642Q800 716 636 716H462V882L832 1323H94V1493H1064V1325L688
884Q792 884 922 828Q1020 785 1106 677Q1186 573 1186 435Q1186 214 1034 93T602 -28Q310 -28 158 93T6 435H208Z" />
<glyph unicode="&#x1ef;" glyph-name="uni01EF" horiz-adv-x="1233" d="M250 1262L4 1638H143L323 1393L504 1638H643L397 1262H250ZM492 476Q598 476 726 420Q824 378 910 269Q991 165 991 27Q991 -194 839 -315T407 -436Q313 -436 214 -418Q114 -399 8 -362V-167Q92
-216 192 -241T401 -266Q591 -266 690 -191Q790 -116 790 27Q790 159 698 234Q605 308 440 308H266V474L696 973H29V1120H903V952L492 476Z" />
<glyph unicode="&#x1f0;" glyph-name="uni01F0" horiz-adv-x="1233" d="M285 1514L39 1890H178L358 1645L539 1890H678L432 1514H285ZM414 -20V977H97V1120H598V-20Q598 -215 509 -320T254 -426H0V-270H234Q324 -270 369 -208T414 -20Z" />
<glyph unicode="&#x1f4;" glyph-name="uni01F4" horiz-adv-x="1233" d="M288 1899H474L245 1635H91L288 1899ZM1016 123Q935 48 834 10T614 -29Q330 -29 172 174T14 745Q14 1111 174 1315T619 1520Q713 1520 799 1494T965 1413V1206Q884 1283 799 1319T619 1356Q422
1356 324 1204T225 745Q225 434 320 285T614 135Q681 135 731 150T823 199V600H606V766H1016V123Z" />
<glyph unicode="&#x1f5;" glyph-name="uni01F5" horiz-adv-x="1233" d="M281 1638H479L154 1262H0L281 1638ZM746 569Q746 776 679 883T482 991Q347 991 276 884T205 569Q205 362 276 254T484 145Q611 145 678 254T746 569ZM930 72Q930 -180 811 -310T461 -440Q385
-440 302 -426T136 -385V-203Q234 -249 314 -271T461 -293Q610 -293 678 -212T746 45V53V178Q702 84 626 38T441 -8Q245 -8 128 149T11 569Q11 833 128 990T441 1147Q549 1147 624 1104T746 971V1116H930V72Z" />
<glyph unicode="&#x1f6;" glyph-name="uni01F6" horiz-adv-x="1142" d="M841 135Q895 135 920 214Q953 316 953 586V881H1135V561Q1135 188 1031 48Q974 -29 841 -29Q713 -29 641 54Q507 207 507 561V711H208V0H26V1493H208V881H507V1493H690V586Q690 313 772
174Q795 135 841 135Z" />
<glyph unicode="&#x1f8;" glyph-name="uni01F8" horiz-adv-x="1233" d="M184 1899L381 1635H227L0 1899H184ZM28 1493H284L788 264V1493H983V0H727L223 1229V0H28V1493Z" />
<glyph unicode="&#x1f9;" glyph-name="uni01F9" horiz-adv-x="1233" d="M198 1638L479 1262H325L0 1638H198ZM882 694V0H697V694Q697 845 644 916T478 987Q349 987 280 896T210 633V0H26V1120H210V952Q259 1048 343 1097T542 1147Q713 1147 797 1035T882 694Z" />
<glyph unicode="&#x1fc;" glyph-name="AEacute" horiz-adv-x="1233" d="M438 1899H624L395 1635H241L438 1899ZM1166 1493V1323H828V881H1135V711H828V170H1185V0H642V383H290L189 0H5L415 1493H1166ZM535 1323L333 551H642V1323H535Z" />
<glyph unicode="&#x1fd;" glyph-name="aeacute" horiz-adv-x="1233" d="M281 1638H479L154 1262H0L281 1638ZM520 442V514H471Q302 514 242 469T182 311Q182 222 226 174T354 125Q446 125 483 191T520 442ZM1013 657V709Q1013 860 975 926T849 993Q762 993 724
925T686 700V657H1013ZM1177 514H686Q685 499 685 482T684 430Q684 269 734 197T897 125Q976 125 1040 150T1155 227V55Q1100 14 1034 -7T897 -29Q787 -29 713 12T606 131Q567 51 501 11T337 -29Q181 -29 100 57T18 307Q18 478 118 567T409 657H526V745Q526 865
477 929T333 993Q277 993 211 972T83 911V1079Q160 1114 226 1130T352 1147Q443 1147 505 1116T604 1020Q637 1081 703 1114T858 1147Q1032 1147 1104 1029T1177 604V514Z" />
<glyph unicode="&#x1fe;" glyph-name="Oslashacute" horiz-adv-x="1233" d="M198 1899H384L155 1635H1L198 1899ZM372 303Q402 225 467 180T617 135Q771 135 838 275T906 745Q906 855 901 923T886 1036L372 303ZM339 471L843 1190Q818 1271 761 1313T617 1356Q460
1356 395 1210T329 686Q329 606 331 556T339 471ZM1033 1247Q1074 1166 1095 1037T1117 745Q1117 355 994 163T617 -29Q496 -29 406 11T255 133L112 -70L9 0L187 252Q155 325 137 456T118 745Q118 1136 241 1328T617 1520Q732 1520 818 1479T962 1358L1101 1559L1201
1485L1033 1247Z" />
<glyph unicode="&#x1ff;" glyph-name="oslashacute" horiz-adv-x="1233" d="M281 1638H479L154 1262H0L281 1638ZM838 780L375 221Q411 174 461 151T577 127Q718 127 790 236T862 559Q862 611 856 666T838 780ZM778 897Q743 945 694 968T577 991Q438 991 364 884T289
575Q289 527 296 469T317 340L778 897ZM178 180Q139 251 119 348T98 559Q98 845 221 996T577 1147Q677 1147 756 1120T895 1036L1042 1212L1135 1135L971 940Q1013 874 1035 778T1057 559Q1057 272 934 122T577 -29Q474 -29 396 0T260 90L100 -96L8 -20L178 180Z"
/>
<glyph unicode="&#x200;" glyph-name="uni0200" horiz-adv-x="1233" d="M192 1899L389 1635H235L6 1899H192ZM511 1899L708 1635H554L325 1899H511ZM583 1315L370 551H796L583 1315ZM461 1493H706L1163 0H954L844 389H321L213 0H4L461 1493Z" />
<glyph unicode="&#x201;" glyph-name="uni0201" horiz-adv-x="1233" d="M183 1638L388 1262H253L5 1638H183ZM517 1638L707 1262H570L347 1638H517ZM583 563H522Q361 563 280 507T198 338Q198 237 259 181T428 125Q580 125 667 230T755 522V563H583ZM940 639V0H755V166Q696
66 607 19T389 -29Q218 -29 116 67T14 326Q14 513 139 610T508 707H755V736Q754 870 687 930T473 991Q379 991 283 964T96 885V1069Q198 1108 291 1127T473 1147Q612 1147 710 1106T870 983Q908 933 924 860T940 639Z" />
<glyph unicode="&#x202;" glyph-name="uni0202" horiz-adv-x="1233" d="M13 1659Q24 1779 103 1840T326 1901T549 1840T640 1659H521Q506 1715 458 1742T326 1770Q244 1770 194 1742T132 1659H13ZM583 1315L370 551H796L583 1315ZM461 1493H706L1163 0H954L844
389H321L213 0H4L461 1493Z" />
<glyph unicode="&#x203;" glyph-name="uni0203" horiz-adv-x="1233" d="M13 1321Q24 1464 103 1536T326 1608Q471 1608 550 1536T640 1321H521Q507 1397 459 1434T326 1471Q239 1471 191 1434T132 1321H13ZM583 563H522Q361 563 280 507T198 338Q198 237 259 181T428
125Q580 125 667 230T755 522V563H583ZM940 639V0H755V166Q696 66 607 19T389 -29Q218 -29 116 67T14 326Q14 513 139 610T508 707H755V736Q754 870 687 930T473 991Q379 991 283 964T96 885V1069Q198 1108 291 1127T473 1147Q612 1147 710 1106T870 983Q908 933
924 860T940 639Z" />
<glyph unicode="&#x204;" glyph-name="uni0204" horiz-adv-x="1233" d="M192 1899L389 1635H235L6 1899H192ZM511 1899L708 1635H554L325 1899H511ZM30 1493H916V1323H232V881H886V711H232V170H935V0H30V1493Z" />
<glyph unicode="&#x205;" glyph-name="uni0205" horiz-adv-x="1233" d="M197 1638L402 1262H267L19 1638H197ZM531 1638L721 1262H584L361 1638H531ZM1002 606V516H205V510Q205 327 300 227T570 127Q658 127 754 155T959 240V57Q854 14 757 -7T568 -29Q307 -29
160 127T13 559Q13 827 157 987T541 1147Q755 1147 878 1002T1002 606ZM818 660Q814 822 742 906T533 991Q400 991 314 903T212 659L818 660Z" />
<glyph unicode="&#x206;" glyph-name="uni0206" horiz-adv-x="1233" d="M13 1659Q24 1779 103 1840T326 1901T549 1840T640 1659H521Q506 1715 458 1742T326 1770Q244 1770 194 1742T132 1659H13ZM30 1493H916V1323H232V881H886V711H232V170H935V0H30V1493Z" />
<glyph unicode="&#x207;" glyph-name="uni0207" horiz-adv-x="1233" d="M27 1321Q38 1464 117 1536T340 1608Q485 1608 564 1536T654 1321H535Q521 1397 473 1434T340 1471Q253 1471 205 1434T146 1321H27ZM1002 606V516H205V510Q205 327 300 227T570 127Q658
127 754 155T959 240V57Q854 14 757 -7T568 -29Q307 -29 160 127T13 559Q13 827 157 987T541 1147Q755 1147 878 1002T1002 606ZM818 660Q814 822 742 906T533 991Q400 991 314 903T212 659L818 660Z" />
<glyph unicode="&#x208;" glyph-name="uni0208" horiz-adv-x="1233" d="M192 1899L389 1635H235L6 1899H192ZM511 1899L708 1635H554L325 1899H511ZM14 1493H843V1323H530V170H843V0H14V170H327V1323H14V1493Z" />
<glyph unicode="&#x209;" glyph-name="uni0209" horiz-adv-x="1233" d="M183 1638L388 1262H253L5 1638H183ZM517 1638L707 1262H570L347 1638H517ZM90 1120H561V143H926V0H12V143H377V977H90V1120Z" />
<glyph unicode="&#x20a;" glyph-name="uni020A" horiz-adv-x="1233" d="M13 1659Q24 1779 103 1840T326 1901T549 1840T640 1659H521Q506 1715 458 1742T326 1770Q244 1770 194 1742T132 1659H13ZM14 1493H843V1323H530V170H843V0H14V170H327V1323H14V1493Z" />
<glyph unicode="&#x20b;" glyph-name="uni020B" horiz-adv-x="1233" d="M13 1321Q24 1464 103 1536T326 1608Q471 1608 550 1536T640 1321H521Q507 1397 459 1434T326 1471Q239 1471 191 1434T132 1321H13ZM90 1120H561V143H926V0H12V143H377V977H90V1120Z" />
<glyph unicode="&#x20c;" glyph-name="uni020C" horiz-adv-x="1233" d="M192 1899L389 1635H235L6 1899H192ZM511 1899L708 1635H554L325 1899H511ZM805 745Q805 1074 738 1215T516 1356Q363 1356 296 1215T228 745Q228 417 295 276T516 135Q670 135 737 275T805
745ZM1016 745Q1016 355 893 163T516 -29Q263 -29 140 162T17 745Q17 1136 140 1328T516 1520Q769 1520 892 1328T1016 745Z" />
<glyph unicode="&#x20d;" glyph-name="uni020D" horiz-adv-x="1233" d="M183 1638L388 1262H253L5 1638H183ZM517 1638L707 1262H570L347 1638H517ZM494 991Q354 991 282 882T210 559Q210 346 282 237T494 127Q635 127 707 236T779 559Q779 773 707 882T494 991ZM494
1147Q727 1147 850 996T974 559Q974 272 851 122T494 -29Q261 -29 138 121T15 559Q15 845 138 996T494 1147Z" />
<glyph unicode="&#x20e;" glyph-name="uni020E" horiz-adv-x="1233" d="M13 1659Q24 1779 103 1840T326 1901T549 1840T640 1659H521Q506 1715 458 1742T326 1770Q244 1770 194 1742T132 1659H13ZM805 745Q805 1074 738 1215T516 1356Q363 1356 296 1215T228 745Q228
417 295 276T516 135Q670 135 737 275T805 745ZM1016 745Q1016 355 893 163T516 -29Q263 -29 140 162T17 745Q17 1136 140 1328T516 1520Q769 1520 892 1328T1016 745Z" />
<glyph unicode="&#x20f;" glyph-name="uni020F" horiz-adv-x="1233" d="M13 1321Q24 1464 103 1536T326 1608Q471 1608 550 1536T640 1321H521Q507 1397 459 1434T326 1471Q239 1471 191 1434T132 1321H13ZM494 991Q354 991 282 882T210 559Q210 346 282 237T494
127Q635 127 707 236T779 559Q779 773 707 882T494 991ZM494 1147Q727 1147 850 996T974 559Q974 272 851 122T494 -29Q261 -29 138 121T15 559Q15 845 138 996T494 1147Z" />
<glyph unicode="&#x210;" glyph-name="uni0210" horiz-adv-x="1233" d="M399 1899L596 1635H442L213 1899H399ZM718 1899L915 1635H761L532 1899H718ZM644 705Q722 685 777 630T914 408L1117 0H900L722 377Q645 538 584 584T423 631H230V0H27V1493H443Q689 1493
820 1382T951 1061Q951 913 871 820T644 705ZM230 1327V797H451Q596 797 667 862T738 1061Q738 1190 663 1258T443 1327H230Z" />
<glyph unicode="&#x211;" glyph-name="uni0211" horiz-adv-x="1233" d="M333 1638L538 1262H403L155 1638H333ZM667 1638L857 1262H720L497 1638H667ZM819 889Q760 935 699 956T565 977Q393 977 302 869T211 557V0H26V1120H211V901Q257 1020 352 1083T579 1147Q647
1147 706 1130T819 1077V889Z" />
<glyph unicode="&#x212;" glyph-name="uni0212" horiz-adv-x="1233" d="M220 1659Q231 1779 310 1840T533 1901T756 1840T847 1659H728Q713 1715 665 1742T533 1770Q451 1770 401 1742T339 1659H220ZM644 705Q722 685 777 630T914 408L1117 0H900L722 377Q645
538 584 584T423 631H230V0H27V1493H443Q689 1493 820 1382T951 1061Q951 913 871 820T644 705ZM230 1327V797H451Q596 797 667 862T738 1061Q738 1190 663 1258T443 1327H230Z" />
<glyph unicode="&#x213;" glyph-name="uni0213" horiz-adv-x="1233" d="M163 1321Q174 1464 253 1536T476 1608Q621 1608 700 1536T790 1321H671Q657 1397 609 1434T476 1471Q389 1471 341 1434T282 1321H163ZM819 889Q760 935 699 956T565 977Q393 977 302 869T211
557V0H26V1120H211V901Q257 1020 352 1083T579 1147Q647 1147 706 1130T819 1077V889Z" />
<glyph unicode="&#x214;" glyph-name="uni0214" horiz-adv-x="1233" d="M192 1899L389 1635H235L6 1899H192ZM511 1899L708 1635H554L325 1899H511ZM23 573V1493H226V481Q226 372 232 326T253 254Q285 195 345 165T492 135Q579 135 639 165T732 254Q747 279 753
325T759 479V1493H961V573Q961 344 933 248T834 88Q768 29 683 0T492 -29Q387 -29 302 0T150 88Q81 150 52 248T23 573Z" />
<glyph unicode="&#x215;" glyph-name="uni0215" horiz-adv-x="1233" d="M183 1638L388 1262H253L5 1638H183ZM517 1638L707 1262H570L347 1638H517ZM23 424V1118H207V424Q207 273 260 202T426 131Q556 131 625 222T694 485V1118H879V0H694V168Q645 71 561 21T363
-29Q191 -29 107 83T23 424Z" />
<glyph unicode="&#x216;" glyph-name="uni0216" horiz-adv-x="1233" d="M13 1659Q24 1779 103 1840T326 1901T549 1840T640 1659H521Q506 1715 458 1742T326 1770Q244 1770 194 1742T132 1659H13ZM23 573V1493H226V481Q226 372 232 326T253 254Q285 195 345 165T492
135Q579 135 639 165T732 254Q747 279 753 325T759 479V1493H961V573Q961 344 933 248T834 88Q768 29 683 0T492 -29Q387 -29 302 0T150 88Q81 150 52 248T23 573Z" />
<glyph unicode="&#x217;" glyph-name="uni0217" horiz-adv-x="1233" d="M13 1321Q24 1464 103 1536T326 1608Q471 1608 550 1536T640 1321H521Q507 1397 459 1434T326 1471Q239 1471 191 1434T132 1321H13ZM23 424V1118H207V424Q207 273 260 202T426 131Q556 131
625 222T694 485V1118H879V0H694V168Q645 71 561 21T363 -29Q191 -29 107 83T23 424Z" />
<glyph unicode="&#x218;" glyph-name="Scommaaccent" horiz-adv-x="1233" d="M102 -197H341L154 -542H8L102 -197ZM889 1442V1237Q797 1296 705 1326T518 1356Q375 1356 292 1290T209 1110Q209 1011 263 959T467 872L573 848Q783 799 879 694T975 408Q975 195
843 83T459 -29Q354 -29 248 -7T35 61V276Q150 203 252 169T459 135Q612 135 697 203T782 395Q782 507 724 566T520 657L412 682Q204 729 110 824T16 1079Q16 1279 150 1399T508 1520Q594 1520 689 1501T889 1442Z" />
<glyph unicode="&#x219;" glyph-name="scommaaccent" horiz-adv-x="1233" d="M102 -197H341L154 -542H8L102 -197ZM777 1081V901Q698 947 618 970T455 993Q330 993 269 953T207 829Q207 754 253 717T482 645L556 631Q693 605 763 527T834 324Q834 158 716 65T388
-29Q305 -29 214 -12T17 41V231Q120 178 214 152T392 125Q514 125 581 174T648 313Q648 441 403 490L395 492L326 506Q167 537 94 610T21 811Q21 972 130 1059T441 1147Q531 1147 614 1131T777 1081Z" />
<glyph unicode="&#x21a;" glyph-name="uni021A" horiz-adv-x="1233" d="M102 -197H341L154 -542H8L102 -197ZM1 1493H1140V1323H673V0H470V1323H1V1493Z" />
<glyph unicode="&#x21b;" glyph-name="uni021B" horiz-adv-x="1233" d="M191 -197H430L243 -542H97L191 -197ZM483 1438V1120H901V977H483V369Q483 245 530 196T694 147H901V0H676Q469 0 384 83T299 369V977H0V1120H299V1438H483Z" />
<glyph unicode="&#x21c;" glyph-name="uni021C" horiz-adv-x="1001" d="M686 674Q994 607 994 314Q994 202 939 99T791 -84T570 -232T303 -348T11 -430V-270Q211 -215 363 -145T608 1T747 156T793 314Q793 415 731 481T556 547Q461 547 346 496L183 424V595L431
701Q491 727 542 759T645 841T727 960T758 1112Q758 1167 741 1210T696 1278T631 1321T557 1344T483 1350Q299 1350 56 1166V1356Q295 1520 501 1520Q632 1520 733 1477T897 1343T959 1124Q959 1064 948 1013T907 906T823 791T686 674Z" />
<glyph unicode="&#x21d;" glyph-name="uni021D" horiz-adv-x="902" d="M619 461Q689 453 745 419T832 340T879 251T896 170Q896 95 863 26T776 -97T646 -199T492 -283T324 -348T160 -398T11 -433V-303Q173 -257 295 -209T497 -116T625 -21T695 73T715 170Q715
258 656 314T504 370Q445 370 382 345L166 259V398L389 483Q423 496 455 512T531 558T606 622T660 708T683 816Q683 860 668 895T628 951T570 985T504 1004T436 1009Q367 1009 283 980T52 860V1014Q318 1147 452 1147Q564 1147 656 1112T806 1003T864 833Q864 723
813 647T619 461Z" />
<glyph unicode="&#x21e;" glyph-name="uni021E" horiz-adv-x="1233" d="M216 1635L5 1901H145L310 1723L476 1901H616L405 1635H216ZM29 1493H232V881H785V1493H988V0H785V711H232V0H29V1493Z" />
<glyph unicode="&#x21f;" glyph-name="uni021F" horiz-adv-x="1233" d="M216 1635L5 1901H145L310 1723L476 1901H616L405 1635H216ZM882 694V0H697V694Q697 845 644 916T478 987Q349 987 280 896T210 633V0H26V1556H210V952Q259 1048 343 1097T542 1147Q713 1147
797 1035T882 694Z" />
<glyph unicode="&#x220;" glyph-name="uni0220" horiz-adv-x="968" d="M944 999V-430H741V1009Q741 1189 683 1273T501 1358Q360 1358 284 1249T208 937V0H6V1493H208V1295Q262 1406 354 1464T572 1522Q759 1522 851 1392T944 999Z" />
<glyph unicode="&#x221;" glyph-name="uni0221" horiz-adv-x="1173" d="M864 144Q876 126 942 127Q1065 127 1068 282Q1072 344 1008 344T864 144ZM775 406Q775 290 788 255Q902 499 1006 500Q1170 502 1170 284Q1170 -29 920 -29Q849 -29 801 -12Q771 -91 751
-148H632L700 46Q668 59 630 148L614 185Q586 95 530 42Q453 -30 353 -29Q190 -27 98 128Q5 286 5 563Q5 836 98 991T353 1147Q433 1147 494 1104T591 977V1556H775V406ZM591 559Q591 772 536 881T374 991T214 882T160 559T214 236T374 127T535 237T591 559Z" />
<glyph unicode="&#x224;" glyph-name="uni0224" horiz-adv-x="1033" d="M22 1493H991V1339L211 170H1013V128H1014V-20Q1014 -215 925 -320Q835 -426 670 -426H465V-270H650Q740 -270 785 -208Q829 -146 829 -20V0H0V154L759 1323H22V1493Z" />
<glyph unicode="&#x225;" glyph-name="uni0225" horiz-adv-x="857" d="M25 1122H838V954L195 150H838V0H830V-20Q830 -215 741 -320Q651 -426 486 -426H281V-270H466Q556 -270 601 -208Q645 -146 645 -20V0H1V170L644 975H25V1122Z" />
<glyph unicode="&#x226;" glyph-name="uni0226" horiz-adv-x="1233" d="M26 1872H231V1667H26V1872ZM583 1315L370 551H796L583 1315ZM461 1493H706L1163 0H954L844 389H321L213 0H4L461 1493Z" />
<glyph unicode="&#x227;" glyph-name="uni0227" horiz-adv-x="1233" d="M26 1552H231V1348H26V1552ZM583 563H522Q361 563 280 507T198 338Q198 237 259 181T428 125Q580 125 667 230T755 522V563H583ZM940 639V0H755V166Q696 66 607 19T389 -29Q218 -29 116 67T14
326Q14 513 139 610T508 707H755V736Q754 870 687 930T473 991Q379 991 283 964T96 885V1069Q198 1108 291 1127T473 1147Q612 1147 710 1106T870 983Q908 933 924 860T940 639Z" />
<glyph unicode="&#x228;" glyph-name="uni0228" horiz-adv-x="1233" d="M357 0Q413 -62 439 -114T466 -215Q466 -304 406 -349T228 -395Q183 -395 140 -389T52 -371V-240Q86 -257 123 -264T208 -272Q266 -272 296 -248T327 -178Q327 -148 305 -105T239 0H357ZM30
1493H916V1323H232V881H886V711H232V170H935V0H30V1493Z" />
<glyph unicode="&#x229;" glyph-name="uni0229" horiz-adv-x="1233" d="M357 0Q413 -62 439 -114T466 -215Q466 -304 406 -349T228 -395Q183 -395 140 -389T52 -371V-240Q86 -257 123 -264T208 -272Q266 -272 296 -248T327 -178Q327 -148 305 -105T239 0H357ZM1002
606V516H205V510Q205 327 300 227T570 127Q658 127 754 155T959 240V57Q854 14 757 -7T568 -29Q307 -29 160 127T13 559Q13 827 157 987T541 1147Q755 1147 878 1002T1002 606ZM818 660Q814 822 742 906T533 991Q400 991 314 903T212 659L818 660Z" />
<glyph unicode="&#x22a;" glyph-name="uni022A" horiz-adv-x="1021" d="M213 1746H416V1543H213V1746ZM605 1746H807V1543H605V1746ZM211 1952H809V1804H211V1952ZM799 745Q799 1074 732 1215T510 1356Q357 1356 290 1215T222 745Q222 417 289 276T510 135Q664
135 731 275T799 745ZM1010 745Q1010 355 887 163T510 -29Q257 -29 134 162T11 745Q11 1136 134 1328T510 1520Q763 1520 886 1328T1010 745Z" />
<glyph unicode="&#x22b;" glyph-name="uni022B" horiz-adv-x="969" d="M185 1842H783V1694H185V1842ZM484 991Q344 991 272 882T200 559Q200 346 272 237T484 127Q625 127 697 236T769 559Q769 773 697 882T484 991ZM484 1147Q717 1147 840 996T964 559Q964 272
841 122T484 -29Q251 -29 128 121T5 559Q5 845 128 996T484 1147ZM187 1552H390V1350H187V1552ZM579 1552H781V1350H579V1552Z" />
<glyph unicode="&#x22c;" glyph-name="uni022C" horiz-adv-x="1021" d="M799 745Q799 1074 732 1215T510 1356Q357 1356 290 1215T222 745Q222 417 289 276T510 135Q664 135 731 275T799 745ZM1010 745Q1010 355 887 163T510 -29Q257 -29 134 162T11 745Q11 1136
134 1328T510 1520Q763 1520 886 1328T1010 745ZM506 1582L449 1615Q424 1629 409 1634T381 1640Q346 1640 326 1615T306 1545V1539H181Q181 1640 232 1699T369 1758Q405 1758 435 1750T515 1715L572 1685Q594 1672 611 1666T644 1660Q675 1660 695 1685T715 1752V1758H840Q838
1658 787 1599T652 1539Q618 1539 588 1547T506 1582ZM211 1952H809V1804H211V1952Z" />
<glyph unicode="&#x22d;" glyph-name="uni022D" horiz-adv-x="973" d="M191 1842H789V1694H191V1842ZM486 991Q346 991 274 882T202 559Q202 346 274 237T486 127Q627 127 699 236T771 559Q771 773 699 882T486 991ZM486 1147Q719 1147 842 996T966 559Q966 272
843 122T486 -29Q253 -29 130 121T7 559Q7 845 130 996T486 1147ZM482 1370L425 1425Q404 1445 388 1454T357 1464Q319 1464 301 1427T281 1309H157Q158 1443 209 1517T351 1591Q390 1591 422 1577T491 1530L548 1475Q569 1455 585 1446T615 1436Q654 1436 672
1473T691 1591H816Q815 1457 764 1383T622 1309Q583 1309 551 1323T482 1370Z" />
<glyph unicode="&#x22e;" glyph-name="uni022E" horiz-adv-x="1233" d="M26 1872H231V1667H26V1872ZM805 745Q805 1074 738 1215T516 1356Q363 1356 296 1215T228 745Q228 417 295 276T516 135Q670 135 737 275T805 745ZM1016 745Q1016 355 893 163T516 -29Q263
-29 140 162T17 745Q17 1136 140 1328T516 1520Q769 1520 892 1328T1016 745Z" />
<glyph unicode="&#x22f;" glyph-name="uni022F" horiz-adv-x="1233" d="M26 1552H231V1348H26V1552ZM494 991Q354 991 282 882T210 559Q210 346 282 237T494 127Q635 127 707 236T779 559Q779 773 707 882T494 991ZM494 1147Q727 1147 850 996T974 559Q974 272
851 122T494 -29Q261 -29 138 121T15 559Q15 845 138 996T494 1147Z" />
<glyph unicode="&#x230;" glyph-name="uni0230" horiz-adv-x="1017" d="M209 1952H807V1804H209V1952ZM405 1748H610V1543H405V1748ZM797 745Q797 1074 730 1215T508 1356Q355 1356 288 1215T220 745Q220 417 287 276T508 135Q662 135 729 275T797 745ZM1008 745Q1008
355 885 163T508 -29Q255 -29 132 162T9 745Q9 1136 132 1328T508 1520Q761 1520 884 1328T1008 745Z" />
<glyph unicode="&#x231;" glyph-name="uni0231" horiz-adv-x="965" d="M183 1842H781V1694H183V1842ZM379 1552H584V1348H379V1552ZM482 991Q342 991 270 882T198 559Q198 346 270 237T482 127Q623 127 695 236T767 559Q767 773 695 882T482 991ZM482 1147Q715
1147 838 996T962 559Q962 272 839 122T482 -29Q249 -29 126 121T3 559Q3 845 126 996T482 1147Z" />
<glyph unicode="&#x232;" glyph-name="uni0232" horiz-adv-x="1233" d="M26 1840H624V1692H26V1840ZM1 1493H216L580 834L943 1493H1160L681 670V0H478V670L1 1493Z" />
<glyph unicode="&#x233;" glyph-name="uni0233" horiz-adv-x="1233" d="M26 1526H624V1378H26V1526ZM766 360Q720 243 649 52Q550 -212 516 -270Q470 -348 401 -387T240 -426H92V-272H201Q282 -272 328 -225T445 18L12 1120H207L539 244L866 1120H1061L766 360Z" />
<glyph unicode="&#x234;" glyph-name="uni0234" horiz-adv-x="874" d="M568 144Q580 126 646 127Q769 127 772 282Q776 344 712 344T568 144ZM504 -12Q475 -91 455 -148H336L404 46Q385 51 334 148Q295 222 295 406V1423H0V1567H479V406Q479 290 492 255Q606 499
710 500Q874 502 874 284Q874 -29 624 -29Q554 -29 504 -12Z" />
<glyph unicode="&#x235;" glyph-name="uni0235" horiz-adv-x="1040" d="M733 144Q745 126 811 127Q934 127 937 282Q941 344 877 344T733 144ZM628 406Q628 292 650 246Q772 498 875 500Q1034 502 1039 296Q1039 290 1039 284Q1039 -28 789 -29Q718 -29 669 -12Q640
-91 620 -148H501L569 46Q550 51 499 148Q460 222 460 406V641Q460 878 434 935T317 993Q244 993 216 932T187 641V0H20V1120H187V1024Q220 1084 269 1115T382 1147Q515 1147 572 1042Q628 941 628 649V406Z" />
<glyph unicode="&#x236;" glyph-name="uni0236" horiz-adv-x="902" d="M572 144Q584 126 650 127Q773 127 776 282Q780 344 716 344T572 144ZM483 406Q483 290 496 255Q610 499 714 500Q878 502 878 284Q878 -29 628 -29Q557 -29 509 -12Q479 -91 459 -148H340L408
46Q389 51 338 148Q299 222 299 406V977H0V1120H299V1438H483V1120H901V977H483V406Z" />
<glyph unicode="&#x237;" glyph-name="dotlessj" horiz-adv-x="621" d="M414 -20V977H97V1120H598V-20Q598 -215 509 -320T254 -426H0V-270H234Q324 -270 369 -208T414 -20Z" />
<glyph unicode="&#x238;" glyph-name="uni0238" horiz-adv-x="1009" d="M449 559Q449 772 408 881T286 991T166 882T125 559T165 236T286 127T407 237T449 559ZM723 991Q642 991 601 882T560 559Q560 347 601 237T723 127Q803 127 843 236T884 559T844 882T723
991ZM560 977Q586 1059 632 1103T740 1147Q862 1147 931 992T1001 563Q1001 286 931 129T739 -29Q679 -29 633 14T560 141V0H449V141Q422 58 376 15T270 -29Q148 -29 78 128T8 563Q8 836 78 991T270 1147Q330 1147 376 1104T449 977V1556H560V977Z" />
<glyph unicode="&#x239;" glyph-name="uni0239" horiz-adv-x="1009" d="M560 559Q560 346 601 237T723 127T843 236T884 559T844 882T723 991T602 881T560 559ZM286 127Q366 127 407 236T449 559Q449 771 408 881T286 991Q206 991 166 882T125 559T165 236T286
127ZM449 141Q423 59 377 15T269 -29Q148 -29 78 126T8 555Q8 832 78 989T270 1147Q330 1147 376 1104T449 977V1118H560V977Q587 1060 633 1103T739 1147Q861 1147 931 990T1001 555Q1001 282 931 127T739 -29Q678 -29 632 14T560 141V-438H449V141Z" />
<glyph unicode="&#x23a;" glyph-name="uni023A" horiz-adv-x="1205" d="M488 1493H733L829 1180L1094 1559L1194 1485L875 1029L1190 0H981L871 389H426L296 203L240 0H154L105 -70L2 0L54 74L488 1493ZM540 551H823L742 840L540 551ZM699 995L610 1315L403 572L699 995Z" />
<glyph unicode="&#x23b;" glyph-name="uni023B" horiz-adv-x="1206" d="M366 514L930 1318L912 1324Q827 1356 741 1356Q544 1356 446 1204T348 745Q348 619 366 514ZM1071 53Q994 12 913 -8T741 -29Q454 -29 296 174L287 185L109 -70L6 0L218 303Q137 482 137
745Q137 1111 296 1315T741 1520Q832 1520 913 1500Q972 1485 1028 1459L1098 1559L1198 1485L1071 1304V1231Q1055 1244 1038 1256L409 358Q425 319 446 287Q544 135 741 135Q829 135 913 167T1071 260V53Z" />
<glyph unicode="&#x23c;" glyph-name="uni023C" horiz-adv-x="1136" d="M362 406L838 973Q776 991 705 991Q532 991 439 879T346 559Q346 476 362 406ZM1018 57Q944 14 866 -7T705 -29Q445 -29 299 127L291 136L96 -96L4 -20L220 238Q152 370 152 559Q152 835
298 991T705 1147Q786 1147 863 1126Q903 1115 943 1098L1038 1212L1131 1135L1018 1001V868Q984 898 951 920L411 279Q424 258 439 240Q533 127 705 127Q801 127 877 156T1018 248V57Z" />
<glyph unicode="&#x23d;" glyph-name="uni023D" horiz-adv-x="1194" d="M270 1493H473V747H736V577H473V170H1194V0H270V577H3V747H270V1493Z" />
<glyph unicode="&#x23e;" glyph-name="uni023E" horiz-adv-x="1200" d="M692 976L935 1323H692V976ZM489 687V1323H22V1493H1054L1100 1559L1200 1485L1161 1429V1323H1087L692 760V0H489V470L111 -70L8 0L489 687Z" />
<glyph unicode="&#x23f;" glyph-name="uni023F" horiz-adv-x="851" d="M762 1081V901Q683 947 603 970T440 993Q315 993 254 953T192 829Q192 754 238 717T467 645L541 631Q678 605 748 527T819 324Q819 158 701 64Q597 -18 421 -28L573 -180L720 -306Q762 -342
838 -342V-496H799Q715 -496 601 -435Q530 -397 441 -306L204 -63Q153 -10 52 25L2 41V231Q125 236 247 140Q315 125 377 125Q499 125 566 174T633 313Q633 441 388 490L380 492L311 506Q150 539 79 610Q6 684 6 811Q6 972 115 1059T426 1147Q516 1147 599 1131T762
1081Z" />
<glyph unicode="&#x240;" glyph-name="uni0240" horiz-adv-x="856" d="M24 1122H837V954L175 133Q224 116 256 84L520 -180L667 -306Q709 -342 785 -342H837V-496H746Q662 -496 548 -435Q477 -397 388 -306L151 -63Q90 0 0 0V156V170L643 975H24V1122Z" />
<glyph unicode="&#x241;" glyph-name="uni0241" horiz-adv-x="1127" d="M321 1327Q267 1327 207 1280Q159 1242 159 1128V1079H3V1149Q3 1330 99 1411T321 1493H616Q866 1493 995 1380T1124 1047Q1124 826 996 713T616 600V0H414V766H616Q756 766 834 840T913
1047T835 1253T616 1327H321Z" />
<glyph unicode="&#x243;" glyph-name="uni0243" horiz-adv-x="1153" d="M167 1493H609Q838 1493 962 1394T1086 1114Q1086 977 1021 898T824 799Q971 777 1054 674T1138 410Q1138 207 1005 104T609 0H167V366H9V515H167V1493ZM370 1327V877H605Q751 877 816 933T882
1114Q882 1227 818 1277T605 1327H370ZM370 366V166H609Q785 166 860 227T935 430Q935 576 856 644T609 713H370V515H605V366H370Z" />
<glyph unicode="&#x244;" glyph-name="uni0244" horiz-adv-x="1211" d="M10 577V747H136V1493H339V747H872V1493H1074V747H1201V577H1074V573Q1074 344 1046 248T947 88Q881 29 796 0T605 -29Q500 -29 415 0T263 88Q194 150 165 248T136 573V577H10ZM872 577H339V481Q339
372 345 326T366 254Q398 195 458 165T605 135Q692 135 752 165T845 254Q860 279 866 325T872 479V577Z" />
<glyph unicode="&#x245;" glyph-name="uni0245" horiz-adv-x="1127" d="M564 1323L213 0H4L441 1493H686L1123 0H914L564 1323Z" />
<glyph unicode="&#x24c;" glyph-name="uni024C" horiz-adv-x="1226" d="M212 1493H544Q790 1493 921 1382T1052 1061Q1052 913 972 820T745 705Q823 685 878 630Q932 575 1015 408L1218 0H1001L823 377Q746 538 685 584T524 631H415V0H212V631H6V797H212V1493ZM415
1327V797H552Q697 797 768 862T839 1061Q839 1190 764 1258T544 1327H415Z" />
<glyph unicode="&#x24d;" glyph-name="uni024D" horiz-adv-x="1017" d="M1017 889Q958 935 897 956T763 977Q591 977 500 869Q423 777 411 616H924V452H409V0H224V452H4V616H224V1120H409V901Q455 1020 550 1083T777 1147Q845 1147 904 1130T1017 1077V889Z" />
<glyph unicode="&#x250;" glyph-name="uni0250" horiz-adv-x="962" d="M378 555H440Q600 555 682 611T764 780Q764 881 703 937T534 993Q382 993 294 888T206 596V555H378ZM22 479V1118H206V952Q266 1052 355 1099T572 1147Q744 1147 846 1051T948 792Q948 605
822 508T454 411H206V382Q206 248 274 188T488 127Q582 127 678 154T866 233V49Q764 10 670 -9T488 -29Q350 -29 251 12T92 135Q54 185 38 258T22 479Z" />
<glyph unicode="&#x251;" glyph-name="uni0251" horiz-adv-x="960" d="M750 977V1118H934V0H750V141Q704 58 628 15T451 -29Q248 -29 132 128T15 563Q15 836 132 991T451 1147Q552 1147 629 1104T750 977ZM209 559Q209 345 277 236T478 127Q611 127 680 237T750
559Q750 772 681 881T478 991Q345 991 277 882T209 559Z" />
<glyph unicode="&#x252;" glyph-name="uni0252" horiz-adv-x="960" d="M751 557Q751 771 683 880T482 989Q349 989 280 879T210 557Q210 344 279 235T482 125Q615 125 683 234T751 557ZM210 975Q256 1058 332 1101T509 1145Q712 1145 828 988T945 553Q945 280
828 125T509 -31Q408 -31 331 12T210 139V0H26V1118H210V975Z" />
<glyph unicode="&#x253;" glyph-name="uni0253" horiz-adv-x="948" d="M749 559Q749 773 681 882T480 991Q346 991 277 882T208 559Q208 347 277 237T480 127Q613 127 681 236T749 559ZM208 977Q252 1059 329 1103T509 1147Q711 1147 827 992T943 563Q943 286
827 129T507 -29Q407 -29 331 14T208 141V0H24V1150Q24 1345 113 1450T368 1556H572V1400H388Q298 1400 253 1338T208 1150V977Z" />
<glyph unicode="&#x254;" glyph-name="uni0254" horiz-adv-x="898" d="M21 1061Q95 1104 173 1125T333 1147Q593 1147 740 991T887 559Q887 283 740 127T333 -29Q253 -29 176 -8T21 57V250Q93 185 167 156T333 127Q507 127 600 239T693 559Q693 766 599 878T333
991Q237 991 161 962T21 870V1061Z" />
<glyph unicode="&#x255;" glyph-name="uni0255" horiz-adv-x="907" d="M251 -141Q251 -37 264 44Q207 79 159 130Q10 291 10 559Q10 835 156 991T563 1147Q644 1147 721 1126T876 1061V868Q803 933 730 962T563 991Q390 991 297 879T204 559Q204 339 303 240Q310
233 316 226Q401 402 596 402Q897 402 897 156Q897 -33 563 -33Q481 -33 410 -16Q404 -73 404 -141H251ZM447 146Q507 127 581 127Q727 127 727 184Q727 259 595 259Q494 259 447 146Z" />
<glyph unicode="&#x256;" glyph-name="uni0256" horiz-adv-x="968" d="M627 559Q627 772 571 881T409 991T248 882T193 559T247 236T408 127T571 237T627 559ZM627 977V1556H808V-20Q808 -146 843 -208Q879 -270 951 -270H957V-426H901Q769 -426 697 -320Q626
-215 626 -20V141Q589 58 528 14Q467 -29 387 -29Q207 -29 104 128T0 563Q0 836 104 991T387 1147Q468 1147 529 1104T627 977Z" />
<glyph unicode="&#x257;" glyph-name="uni0257" horiz-adv-x="969" d="M409 127Q516 127 571 237T627 559Q627 772 572 881T409 991Q303 991 249 882T194 559T248 236T409 127ZM627 1002V1150Q627 1345 698 1450Q770 1556 902 1556H958V1400H953Q881 1400 845
1338Q810 1276 810 1150V0H627V141Q591 58 530 15T388 -29Q208 -29 105 128T2 563Q2 836 105 991T388 1147Q469 1147 530 1104T627 977V1002Z" />
<glyph unicode="&#x258;" glyph-name="uni0258" horiz-adv-x="1016" d="M14 606Q14 857 137 1002T475 1147Q715 1147 859 987T1003 559Q1003 284 856 128T448 -29Q357 -29 260 -8T57 57V240Q166 183 262 155T446 127Q620 127 715 227T811 510V516H14V606ZM198
659H804Q788 815 702 903T483 991Q347 991 273 906T198 659Z" />
<glyph unicode="&#x259;" glyph-name="uni0259" horiz-adv-x="1016" d="M14 512V602H811V608Q811 791 716 891T446 991Q358 991 262 963T57 878V1061Q162 1104 259 1125T448 1147Q709 1147 856 991T1003 559Q1003 291 859 131T475 -29Q261 -29 138 116T14 512ZM198
459Q198 297 272 212T483 127Q616 127 702 215T804 459H198Z" />
<glyph unicode="&#x25a;" glyph-name="uni025A" horiz-adv-x="1191" d="M565 214Q641 352 641 559Q641 621 634 677L165 321Q188 252 213 217Q275 127 390 127T565 214ZM355 1147Q607 1147 726 915L880 1032H1020V884Q1020 731 1048 683T1157 634H1190V478H1141Q1009
478 945 571T880 864L774 783Q797 687 797 569Q797 294 684 133T389 -29T108 116Q37 219 17 375L599 818Q584 858 564 892Q506 991 347 991T41 887V1061Q195 1147 355 1147Z" />
<glyph unicode="&#x25b;" glyph-name="uni025B" horiz-adv-x="928" d="M294 607Q175 632 110 697Q46 761 46 855Q46 989 168 1068T499 1147Q580 1147 671 1135Q763 1123 868 1099V932Q764 959 677 972Q591 984 515 984Q377 984 303 941T229 824Q229 763 301 720Q373
676 508 676H674V532H515Q365 532 281 477T197 341Q197 243 287 190Q378 138 551 138Q650 138 741 156Q832 173 909 207V34Q812 6 722 -8Q631 -22 545 -22Q291 -22 152 69Q14 161 14 327Q14 436 88 510T294 607Z" />
<glyph unicode="&#x25c;" glyph-name="uni025C" horiz-adv-x="927" d="M633 607Q765 584 839 510T914 327Q914 161 776 70T382 -22Q297 -22 206 -8T19 34V207Q95 173 186 156T377 138Q550 138 640 190T731 341Q731 422 647 477T412 532H254V676H419Q555 676 627
719T699 824Q699 898 625 941T412 984Q337 984 251 972T60 932V1099Q165 1123 256 1135T428 1147Q638 1147 760 1068T882 855Q882 761 817 697T633 607Z" />
<glyph unicode="&#x25d;" glyph-name="uni025D" horiz-adv-x="1140" d="M481 607Q580 584 636 510Q692 436 692 327Q692 161 588 69Q484 -22 293 -22Q229 -22 161 -8T21 34V207Q78 173 146 156Q214 138 289 138Q419 138 486 190Q555 243 555 341Q555 422 491 477Q428
532 315 532H197V676H321Q423 676 477 720Q531 763 531 824Q531 898 475 941Q419 984 315 984Q259 984 194 972Q129 959 51 932V1099Q130 1123 198 1135Q267 1147 327 1147Q485 1147 576 1068Q651 1003 665 901L834 1032H972V884Q972 731 1001 682Q1029 634 1108
634H1140V478H1092Q961 478 896 574Q835 664 835 864L624 702V703L619 697Q570 632 481 607Z" />
<glyph unicode="&#x25e;" glyph-name="uni025E" horiz-adv-x="912" d="M506 984Q167 984 167 566Q167 119 506 119Q624 119 684 178Q743 237 743 313Q743 389 684 443Q651 473 512 473H376V630H512Q651 630 684 660Q743 715 743 792T683 926T506 984ZM287 1099Q372
1145 533 1145Q693 1145 793 1059T894 824Q894 721 841 650T689 552Q787 524 840 453T894 279Q894 131 793 44T531 -43Q372 -43 287 18Q12 212 12 556Q12 950 287 1099Z" />
<glyph unicode="&#x25f;" glyph-name="uni025F" horiz-adv-x="958" d="M958 616V452H605V-20Q605 -215 516 -320T261 -426H7V-270H241Q331 -270 376 -208T421 -20V452H38V616H421V975H104V1118H605V616H958Z" />
<glyph unicode="&#x260;" glyph-name="uni0260" horiz-adv-x="962" d="M627 1118V1150Q627 1345 699 1450Q771 1556 905 1556H954V1400H928Q870 1400 841 1338Q813 1276 813 1150V72Q813 -179 709 -310Q605 -440 399 -440Q337 -440 270 -426T136 -385V-203Q215
-249 280 -271T399 -293Q519 -293 574 -212T629 45V53V178Q594 84 533 38T383 -8Q209 -8 105 149T1 569Q1 802 105 960T383 1118H627ZM630 569V992H416Q307 992 250 884T192 569T249 254T417 145Q520 145 575 254T630 569Z" />
<glyph unicode="&#x261;" glyph-name="uni0261" horiz-adv-x="953" d="M746 569V992H482Q347 992 276 884T205 569T276 254T484 145Q611 145 678 254T746 569ZM930 72Q930 -180 811 -310T461 -440Q385 -440 302 -426T136 -385V-203Q234 -249 314 -271T461 -293Q610
-293 678 -212T746 45V53V178Q702 84 626 38T441 -8Q245 -8 128 149T11 569Q11 794 128 959Q241 1118 441 1118H930V72Z" />
<glyph unicode="&#x262;" glyph-name="uni0262" horiz-adv-x="1024" d="M837 178V460H681V600H1003V72Q931 38 843 18Q765 0 563 0Q311 0 162 159T13 588Q13 862 163 1019T575 1176Q637 1176 741 1158Q845 1141 973 1066V894Q853 971 741 998Q655 1020 583 1020Q405
1020 305 906Q207 793 207 588T305 270Q405 156 583 156Q757 156 837 178Z" />
<glyph unicode="&#x263;" glyph-name="uni0263" horiz-adv-x="1048" d="M646 572Q930 144 930 -189Q930 -245 909 -288T841 -363T715 -413T525 -430T336 -413T210 -364T142 -288T120 -189Q120 151 408 579L10 1118H228L530 720L822 1118H1038L646 572ZM729 -123Q729
167 526 452Q307 148 307 -123Q307 -192 356 -230T518 -268T680 -230T729 -123Z" />
<glyph unicode="&#x264;" glyph-name="uni0264" horiz-adv-x="1040" d="M630 575Q808 334 808 167T523 0Q220 0 220 167Q220 344 404 586L6 1118H224L520 721L818 1118H1034L630 575ZM512 440Q395 282 395 223Q395 119 518 119Q631 119 631 223Q631 286 512 440Z" />
<glyph unicode="&#x265;" glyph-name="uni0265" horiz-adv-x="885" d="M3 424V1118H187V424Q187 273 241 202T407 131Q537 131 606 222T675 485V1118H859V-430H675V168Q625 71 541 21T343 -29Q171 -29 87 83T3 424Z" />
<glyph unicode="&#x266;" glyph-name="uni0266" horiz-adv-x="889" d="M210 962L208 952Q258 1048 342 1097T540 1147Q712 1147 796 1035T880 694V0H696V694Q696 845 643 916T476 987Q348 987 278 896T208 633V0H24V1002V1150Q24 1345 114 1450Q204 1556 368 1556H574V1400H388Q298
1400 254 1338T210 1150V962Z" />
<glyph unicode="&#x267;" glyph-name="uni0267" horiz-adv-x="877" d="M197 962L195 952Q244 1048 328 1097T527 1147Q698 1147 782 1035T867 694V-20Q867 -215 779 -320Q688 -426 523 -426H319V-270H503Q594 -270 639 -208Q683 -146 683 -20V694Q683 845 630
916T463 987Q335 987 265 896T195 633V0H11V1002V1150Q11 1345 101 1450Q191 1556 355 1556H561V1400H375Q285 1400 241 1338T197 1150V962Z" />
<glyph unicode="&#x268;" glyph-name="uni0268" horiz-adv-x="934" d="M383 1556H567V1323H383V1556ZM97 1118H567V616H921V452H567V143H933V0H19V143H383V452H1V616H383V977H97V1118Z" />
<glyph unicode="&#x269;" glyph-name="uni0269" horiz-adv-x="838" d="M836 0H632Q466 0 376 106Q288 208 288 406V977H0V1118H472V406Q472 280 516 218T650 156H836V0Z" />
<glyph unicode="&#x26a;" glyph-name="uni026A" horiz-adv-x="946" d="M16 1118H930V977H564V143H930V0H16V143H380V977H16V1118Z" />
<glyph unicode="&#x26b;" glyph-name="uni026B" horiz-adv-x="1058" d="M571 406Q571 259 617 219Q689 156 751 156H967V0H733Q569 0 478 106T387 406V604Q341 614 294 614Q215 614 145 585T1 492V666Q79 726 152 753T308 780Q349 780 387 774V1423H93V1567H571V710Q685
657 777 657Q847 657 915 687T1058 780V606Q983 547 912 520T761 492Q676 492 571 537V406Z" />
<glyph unicode="&#x26c;" glyph-name="uni026C" horiz-adv-x="921" d="M526 406Q526 282 571 219T706 156H920V0H688Q523 0 433 106T342 406V626H280Q1 626 1 815Q1 1061 247 1061Q300 1061 342 1036V1423H47V1567H526V786H776V626H526V406ZM342 786Q319 918 248
918Q170 918 170 843Q170 786 262 786H342Z" />
<glyph unicode="&#x26d;" glyph-name="uni026D" horiz-adv-x="874" d="M479 -20Q479 -144 524 -207T659 -270H874V-426H641Q476 -426 386 -320T295 -20V1423H0V1567H479V-20Z" />
<glyph unicode="&#x26e;" glyph-name="uni026E" horiz-adv-x="1156" d="M386 406Q386 282 422 219T530 156H702V0H515Q383 0 311 106T238 406V1423H2V1567H386V1120H1084V952L755 476Q839 476 942 420Q1021 377 1090 269Q1154 165 1154 27Q1154 -194 1033 -315T687
-436Q612 -436 533 -418Q453 -399 368 -362V-167Q435 -216 515 -241T682 -266Q834 -266 914 -191T994 27Q994 159 920 234Q846 308 714 308H574V474L918 973H386V406Z" />
<glyph unicode="&#x26f;" glyph-name="uni026F" horiz-adv-x="1076" d="M482 141Q448 69 396 35T270 0Q134 0 79 104T24 498V1147H192V506Q192 269 218 212T314 154Q394 154 424 215T454 506V1147H622V506Q622 266 650 210T752 154T854 215T882 506V1147H1050V27H882V123Q850
63 800 32T688 0Q612 0 561 35T482 141Z" />
<glyph unicode="&#x270;" glyph-name="uni0270" d="M460 141Q426 69 374 35T248 0Q112 0 57 104T2 498V1147H170V506Q170 269 196 212T292 154Q372 154 402 215T432 506V1147H600V506Q600 266 628 210T730 154T832 215T860 506V1147H1028V-430H860V123Q828 63
778 32T666 0Q590 0 539 35T460 141Z" />
<glyph unicode="&#x271;" glyph-name="uni0271" horiz-adv-x="1056" d="M574 1006Q608 1078 660 1112T787 1147Q922 1147 977 1043T1033 649V-20Q1033 -214 953 -320T722 -426H536V-270H704Q787 -270 826 -208T865 -20V641Q865 878 839 935T742 993Q662 993 633
932T603 641V0H435V641Q435 881 407 937T304 993Q231 993 203 932T174 641V0H7V1118H174V1024Q207 1088 256 1117T369 1147Q452 1147 496 1112Q549 1069 574 1006Z" />
<glyph unicode="&#x272;" glyph-name="uni0272" horiz-adv-x="939" d="M324 -20Q324 -234 263 -330T65 -426H12V-270H14Q82 -270 110 -222Q138 -173 138 -20V1118H324V946Q373 1047 441 1097Q508 1147 595 1147Q763 1147 849 1028Q935 908 935 676V0H750V670Q750
829 704 908T564 987Q453 987 388 892Q324 797 324 633V-20Z" />
<glyph unicode="&#x273;" glyph-name="uni0273" horiz-adv-x="932" d="M613 -20V670Q613 829 567 908Q520 987 427 987Q315 987 251 892Q186 797 186 633V0H5V1118H186V946Q236 1047 303 1097T458 1147Q626 1147 712 1028Q798 908 798 676V-20Q798 -173 827 -222Q856
-270 919 -270H923V-426H871Q735 -426 675 -330Q613 -234 613 -20Z" />
<glyph unicode="&#x274;" glyph-name="uni0274" horiz-adv-x="997" d="M26 1147H298L775 244V1147H971V0H699L222 903V0H26V1147Z" />
<glyph unicode="&#x275;" glyph-name="uni0275" horiz-adv-x="989" d="M974 559Q974 272 851 122T494 -29Q261 -29 138 121T15 559Q15 845 138 996T494 1147T850 996T974 559ZM494 991Q354 991 282 882Q219 787 211 611H778Q770 787 707 882Q635 991 494 991ZM773
447H216Q230 315 282 236Q354 127 494 127Q635 127 707 236Q759 315 773 447Z" />
<glyph unicode="&#x276;" glyph-name="uni0276" horiz-adv-x="1134" d="M1100 1120V950H727V675H1083V520H727V172H1111V0H511Q268 0 142 142Q16 285 16 561Q16 835 142 977Q268 1120 511 1120H1100ZM543 973H520Q369 973 294 869Q219 766 219 559Q219 351 294
247Q369 142 520 142H543V973Z" />
<glyph unicode="&#x277;" glyph-name="uni0277" horiz-adv-x="924" d="M742 510Q742 666 685 779Q605 940 460 940Q329 940 257 829Q183 714 183 483Q183 171 307 171Q341 171 382 250Q404 293 404 478V660H521V478Q521 293 544 250Q585 171 617 171Q742 171 742
510ZM908 435Q908 264 860 128Q805 -30 668 -30Q573 -30 506 92Q479 142 463 243Q447 142 420 92Q353 -30 258 -30Q140 -30 72 124Q16 248 16 431Q16 686 80 859Q186 1147 463 1147Q698 1147 818 910Q908 734 908 435Z" />
<glyph unicode="&#x278;" glyph-name="uni0278" horiz-adv-x="974" d="M402 1391H162V1555H826V1391H586V1139Q747 1113 842 996Q966 845 966 559Q966 272 843 122Q748 5 586 -21V-261H826V-426H162V-261H402V-24Q230 -1 130 122Q7 272 7 559Q7 845 130 996Q230
1119 402 1142V1391ZM586 974V144Q655 170 699 236Q771 346 771 559Q771 773 699 882Q655 948 586 974ZM402 139V979Q323 955 274 882Q202 773 202 559Q202 346 274 236Q323 163 402 139Z" />
<glyph unicode="&#x279;" glyph-name="uni0279" horiz-adv-x="819" d="M0 231Q59 185 120 164T254 143Q426 143 517 251T608 563V1118H793V0H608V219Q562 100 467 37T240 -27Q172 -27 113 -10T0 43V231Z" />
<glyph unicode="&#x27a;" glyph-name="uni027A" horiz-adv-x="819" d="M0 231Q59 185 120 164T254 143Q426 143 517 251T608 563V1567H793V0H608V219Q562 100 467 37T240 -27Q172 -27 113 -10T0 43V231Z" />
<glyph unicode="&#x27b;" glyph-name="uni027B" horiz-adv-x="1057" d="M793 -20Q793 -145 837 -207T972 -270H1050V-426H952Q787 -426 698 -321T608 -20V219Q562 100 467 37T240 -27Q172 -27 113 -10T0 43V231Q59 185 120 164T254 143Q426 143 517 251T608 563V1118H793V-20Z"
/>
<glyph unicode="&#x27c;" glyph-name="uni027C" horiz-adv-x="819" d="M819 889Q760 935 699 956T565 977Q393 977 302 869T211 557V-426H26V1118H211V901Q257 1020 352 1083T579 1147Q647 1147 706 1130T819 1077V889Z" />
<glyph unicode="&#x27d;" glyph-name="uni027D" horiz-adv-x="820" d="M209 -20Q209 -145 253 -208Q297 -270 388 -270H622V-426H368Q203 -426 114 -321T24 -20V1118H209V901Q255 1020 350 1083T577 1147Q645 1147 704 1130T817 1077V889Q758 935 697 956T563
977Q391 977 300 869Q209 761 209 557V-20Z" />
<glyph unicode="&#x27e;" glyph-name="uni027E" horiz-adv-x="932" d="M360 741Q360 953 442 1051Q524 1147 704 1147H914V991H726Q620 991 582 943Q546 893 546 741V143H914V0H0V143H360V741Z" />
<glyph unicode="&#x27f;" glyph-name="uni027F" horiz-adv-x="931" d="M569 741V143H931V0H17V143H383V741Q383 895 347 943T203 991H17V1147H225Q405 1147 487 1051Q569 953 569 741Z" />
<glyph unicode="&#x280;" glyph-name="uni0280" horiz-adv-x="1021" d="M628 525Q683 508 736 454Q788 400 841 306L1015 0H820L658 287Q595 400 536 436Q477 473 380 473H211V0H26V1118H414Q631 1118 739 1040Q846 963 846 797Q846 692 790 622T628 525ZM211
965V628H409Q528 628 591 671Q655 714 655 797Q655 881 591 923Q528 965 409 965H211Z" />
<glyph unicode="&#x281;" glyph-name="uni0281" horiz-adv-x="1021" d="M628 595Q734 568 790 498T846 323Q846 161 739 80Q631 0 414 0H26V1118H211V647H380Q477 647 536 684Q595 720 658 833L820 1118H1015L841 814Q788 720 736 666Q683 612 628 595ZM211 155H409Q528
155 591 197Q655 239 655 323Q655 406 591 449Q528 492 409 492H211V155Z" />
<glyph unicode="&#x282;" glyph-name="uni0282" horiz-adv-x="878" d="M814 1087V913Q736 953 653 973T478 993Q342 993 274 951Q204 909 204 825Q204 761 254 724Q302 688 450 655L514 641Q710 599 792 522Q874 446 874 309Q874 152 752 62Q628 -29 412 -29Q308
-29 202 -8Q202 -167 240 -222Q274 -270 384 -270H616V-426H362Q182 -426 100 -330T18 -20V231Q120 178 220 152Q318 125 416 125Q546 125 616 170Q686 214 686 295Q686 370 636 410Q584 450 414 487L350 502Q178 538 102 612Q26 687 26 817Q26 975 138 1061T456
1147Q558 1147 648 1132T814 1087Z" />
<glyph unicode="&#x283;" glyph-name="uni0283" horiz-adv-x="983" d="M598 -20Q598 -215 509 -320T254 -426H0V-270H234Q324 -270 369 -208T414 -20V1198Q414 1382 498 1469T762 1556H983V1403H774Q675 1403 637 1363T598 1219V-20Z" />
<glyph unicode="&#x284;" glyph-name="uni0284" horiz-adv-x="983" d="M951 616V452H598V-20Q598 -215 509 -320T254 -426H0V-270H234Q324 -270 369 -208T414 -20V452H31V616H414V977H97V1118H414V1198Q414 1382 498 1469T762 1556H983V1403H774Q675 1403 637
1363T598 1219V616H951Z" />
<glyph unicode="&#x285;" glyph-name="uni0285" horiz-adv-x="983" d="M598 712V-89Q598 -192 637 -232Q675 -273 774 -273H983V-426H762Q583 -426 499 -339T414 -68V712Q414 836 369 900Q324 962 234 962H0V1118H254Q419 1118 508 1013T598 712Z" />
<glyph unicode="&#x286;" glyph-name="uni0286" horiz-adv-x="998" d="M450 -154H271Q155 -154 155 -205Q155 -270 282 -270Q392 -270 425 -222Q443 -199 450 -154ZM645 0H828V-155H637Q619 -266 566 -330Q484 -426 303 -426Q0 -426 0 -210Q0 0 270 0H460V1198Q460
1378 547 1470Q628 1556 823 1556H997V1403H821Q721 1403 684 1363Q645 1322 645 1219V0Z" />
<glyph unicode="&#x287;" glyph-name="uni0287" horiz-adv-x="902" d="M419 -318V0H1V143H419V751Q419 875 372 924T208 973H1V1120H226Q433 1120 518 1037T603 751V143H902V0H603V-318H419Z" />
<glyph unicode="&#x288;" glyph-name="uni0288" horiz-adv-x="901" d="M483 1438V1120H901V977H483V-56Q483 -180 530 -229T694 -278H901V-425H676Q469 -425 384 -342T299 -56V977H0V1120H299V1438H483Z" />
<glyph unicode="&#x289;" glyph-name="uni0289" horiz-adv-x="1254" d="M10 452V616H152V1120H336V616H906V1120H1090V616H1243V452H1090V0H906V172Q839 70 750 20Q661 -29 544 -29Q351 -29 252 91T152 442V452H10ZM905 452H336V449Q336 290 398 210Q460 131 584
131Q733 131 820 226Q897 311 905 452Z" />
<glyph unicode="&#x28a;" glyph-name="uni028A" horiz-adv-x="1075" d="M16 956V1120H458V900Q349 831 286 726Q220 615 220 480Q220 321 308 224T540 127T772 224Q860 322 860 480Q860 626 794 726Q723 837 623 900V1120H1059V956H823Q937 856 993 743Q1047 633
1047 497Q1047 262 905 116T538 -30T171 115Q29 261 29 489Q29 636 81 743Q134 852 253 956H16Z" />
<glyph unicode="&#x28b;" glyph-name="uni028B" horiz-adv-x="1096" d="M541 986H863Q977 886 1033 773Q1087 663 1087 527Q1087 292 945 146T578 0H508Q327 0 245 96Q164 192 164 406V977H9V1120H348V406Q348 253 386 204Q426 154 529 156L580 157Q724 157 812
254Q900 352 900 510Q900 656 834 756Q755 875 663 930Q587 974 541 986Z" />
<glyph unicode="&#x28c;" glyph-name="uni028C" horiz-adv-x="1098" d="M1094 0H898L548 940L198 0H4L424 1120H674L1094 0Z" />
<glyph unicode="&#x28d;" glyph-name="uni028D" horiz-adv-x="1227" d="M1215 0H1067L883 874L700 0H527L343 874L159 0H12L247 1120H420L613 202L807 1120H980L1215 0Z" />
<glyph unicode="&#x28e;" glyph-name="uni028E" horiz-adv-x="1101" d="M492 1224Q570 1424 644 1485T842 1546H988V1392H880Q804 1392 762 1356T670 1186L636 1102L1090 0H894L544 876L194 0H0L492 1224Z" />
<glyph unicode="&#x28f;" glyph-name="uni028F" horiz-adv-x="1032" d="M2 1149H219L512 693L814 1149H1031L612 525V0H409V525L2 1149Z" />
<glyph unicode="&#x290;" glyph-name="uni0290" horiz-adv-x="856" d="M19 1120H698V952L179 147H716L717 -20Q717 -173 738 -222Q759 -270 818 -270H845V-426H793Q657 -426 596 -330T535 -20V0H0V168L519 973H19V1120Z" />
<glyph unicode="&#x291;" glyph-name="uni0291" horiz-adv-x="919" d="M522 0Q519 -51 519 -111H366Q366 -52 369 0H7V168L699 973H32V1120H906V952L214 147H389Q449 435 668 435Q895 435 896 189Q897 0 563 0H522ZM543 147H563Q737 147 737 201Q737 292 667 292Q579
290 543 147Z" />
<glyph unicode="&#x292;" glyph-name="uni0292" horiz-adv-x="1004" d="M492 476Q598 476 726 420Q824 378 910 269Q991 165 991 27Q991 -194 839 -315T407 -436Q313 -436 214 -418Q114 -399 8 -362V-167Q92 -216 192 -241T401 -266Q591 -266 690 -191Q790 -116
790 27Q790 159 698 234Q605 308 440 308H266V474L696 973H29V1120H903V952L492 476Z" />
<glyph unicode="&#x293;" glyph-name="uni0293" horiz-adv-x="1044" d="M386 -436Q51 -436 53 -247Q55 4 353 -1Q599 -5 757 -64Q769 -22 769 27Q769 160 677 234Q583 308 419 308H245V474L675 973H8V1120H882V952L471 476Q576 476 705 420Q805 377 889 269Q970
166 970 27Q970 -86 931 -171Q1031 -272 1031 -436H878Q878 -354 838 -298Q838 -298 818 -315Q667 -436 386 -436ZM676 -186Q551 -144 354 -144Q223 -144 222 -219Q222 -266 380 -266Q570 -266 669 -191L676 -186Z" />
<glyph unicode="&#x294;" glyph-name="uni0294" horiz-adv-x="852" d="M257 798H320Q511 798 598 912Q656 988 656 1086Q656 1219 598 1284Q496 1398 320 1398Q240 1398 161 1376Q83 1355 5 1312V1484Q81 1519 162 1536Q243 1554 328 1554Q603 1554 741 1397Q850
1272 850 1086Q850 916 742 801Q630 682 460 652V0H257V798Z" />
<glyph unicode="&#x295;" glyph-name="uni0295" horiz-adv-x="852" d="M594 798V0H392V652Q222 682 110 801Q2 916 2 1086Q2 1272 112 1397Q249 1554 524 1554Q609 1554 690 1536Q771 1519 847 1484V1312Q769 1355 690 1376Q612 1398 532 1398Q353 1398 254 1284Q197
1219 196 1086Q196 988 254 912Q340 798 532 798H594Z" />
<glyph unicode="&#x296;" glyph-name="uni0296" horiz-adv-x="852" d="M257 756V1554H460V902Q630 872 742 753Q850 638 850 468Q850 282 741 157Q603 0 328 0Q243 0 162 18Q81 35 5 70V242Q83 199 161 178Q240 156 320 156Q499 156 598 270Q655 335 656 468Q656
566 598 642Q512 756 320 756H257Z" />
<glyph unicode="&#x297;" glyph-name="uni0297" horiz-adv-x="870" d="M20 1086Q20 1272 130 1397Q267 1554 542 1554Q627 1554 708 1536Q789 1519 865 1484V1312Q787 1355 708 1376Q630 1398 550 1398Q371 1398 272 1284Q215 1219 214 1086V30Q215 -103 272 -168Q371
-282 550 -282Q630 -282 708 -260Q787 -239 865 -196V-368Q789 -403 708 -420Q627 -438 542 -438Q267 -438 130 -281Q20 -156 20 30V1086Z" />
<glyph unicode="&#x298;" glyph-name="uni0298" horiz-adv-x="1068" d="M12 565Q12 777 166 933Q320 1090 536 1090Q748 1090 902 933Q1056 777 1056 565Q1056 349 905 197T537 45T166 197T12 565ZM193 566Q193 425 294 326Q394 227 535 227T775 326T874 566Q874
704 774 806Q673 908 535 908Q394 908 294 806Q193 704 193 566ZM420 567Q420 613 454 647Q487 681 534 681Q580 681 614 647Q647 613 647 567Q647 520 614 487T534 454T454 487Q420 520 420 567Z" />
<glyph unicode="&#x299;" glyph-name="uni0299" horiz-adv-x="855" d="M228 530V170H449Q542 170 589 222T637 338Q637 430 592 480T453 530H228ZM228 980V700H438Q523 700 565 742T607 848Q607 894 565 937T437 980H228ZM26 1149H423Q601 1149 697 1075T793 865Q793
760 744 698T599 620Q714 595 777 517T841 322Q841 168 737 84T439 0H26V1149Z" />
<glyph unicode="&#x29a;" glyph-name="uni029A" horiz-adv-x="912" d="M404 984Q289 984 232 930Q168 869 168 792T228 660Q260 630 398 630H535V473H398Q260 473 228 443Q168 389 168 311Q168 237 232 173Q287 119 404 119Q744 120 744 566Q744 984 404 984ZM624
1099Q900 948 900 556Q900 212 624 18Q538 -44 391 -42Q218 -42 118 45Q18 131 18 279Q18 382 71 453T222 552Q124 579 71 650T18 824Q18 972 118 1059Q218 1145 391 1145Q541 1145 624 1099Z" />
<glyph unicode="&#x29b;" glyph-name="uni029B" horiz-adv-x="1087" d="M667 178V460H551V600H837V72Q836 68 673 18Q615 0 463 0Q251 0 128 159Q3 319 3 588Q3 859 130 1019Q254 1176 473 1176Q524 1176 596 1158Q620 1152 633 1147V1148Q633 1364 695 1458Q755
1554 891 1554H1081V1398H952Q874 1398 844 1350Q816 1299 816 1148V1000H814V894Q785 932 596 998Q533 1020 478 1020Q344 1020 269 906Q195 793 195 588T269 270Q344 156 478 156Q608 156 667 178Z" />
<glyph unicode="&#x29c;" glyph-name="uni029C" horiz-adv-x="997" d="M26 1147H228V700H769V1147H971V0H769V530H228V0H26V1147Z" />
<glyph unicode="&#x29d;" glyph-name="uni029D" horiz-adv-x="830" d="M464 1556H648V1323H464V1556ZM648 1120V0H828V-155H638Q619 -267 566 -330Q485 -426 304 -426Q0 -426 0 -205Q0 0 270 0H464V977H146V1120H648ZM453 -154H272Q153 -154 156 -205Q159 -270
282 -270Q388 -270 426 -222Q443 -199 453 -154Z" />
<glyph unicode="&#x29e;" glyph-name="uni029E" horiz-adv-x="1020" d="M994 -436H808V483L260 0H24L618 524L0 1120H240L808 573V1120H994V-436Z" />
<glyph unicode="&#x29f;" glyph-name="uni029F" horiz-adv-x="769" d="M26 1147H228V170H769V0H26V1147Z" />
<glyph unicode="&#x2a0;" glyph-name="uni02A0" horiz-adv-x="1116" d="M663 168Q619 68 553 20Q486 -29 393 -29Q219 -29 109 133Q0 295 0 559T109 985Q219 1147 393 1147Q486 1147 553 1098Q619 1050 663 950V1148Q663 1362 724 1458Q785 1554 921 1554H1111V1398H984Q905
1398 876 1350Q848 1301 848 1148V-426H663V168ZM255 240Q318 125 427 125T600 240Q663 356 663 559T600 878Q537 993 428 993T255 878Q192 762 192 559T255 240Z" />
<glyph unicode="&#x2a1;" glyph-name="uni02A1" horiz-adv-x="855" d="M259 798H322Q513 798 600 912Q658 988 658 1086Q658 1219 600 1284Q498 1398 322 1398Q242 1398 163 1376Q85 1355 7 1312V1484Q83 1519 164 1536Q245 1554 330 1554Q605 1554 743 1397Q852
1272 852 1086Q852 916 744 801Q632 682 462 652V440H693V276H462V0H260V276H31V440H259V798Z" />
<glyph unicode="&#x2a2;" glyph-name="uni02A2" horiz-adv-x="855" d="M393 440V652Q223 682 111 801Q3 916 3 1086Q3 1272 113 1397Q250 1554 525 1554Q610 1554 691 1536Q772 1519 848 1484V1312Q770 1355 691 1376Q613 1398 533 1398Q357 1398 255 1284Q197
1219 197 1086Q197 988 255 912Q342 798 533 798H595V440H824V276H595V0H393V276H162V440H393Z" />
<glyph unicode="&#x2a3;" glyph-name="uni02A3" horiz-adv-x="1159" d="M197 877Q147 762 147 559T197 241T334 125T472 240T523 559T473 877T335 993T197 877ZM523 950V1556H633V1120H1156V952L741 147H1156V0H633H617H523V168Q490 71 431 20Q375 -29 297 -29Q169
-29 89 133T8 559T88 985T297 1147Q375 1147 431 1098Q489 1050 523 950ZM633 973V200L1032 973H633Z" />
<glyph unicode="&#x2a4;" glyph-name="uni02A4" horiz-adv-x="1185" d="M166 240Q216 125 304 125Q391 125 442 240Q492 356 492 559T442 878Q391 993 304 993Q216 993 166 878Q116 762 116 559T166 240ZM602 973L603 0H492V168Q457 68 404 20Q351 -29 277 -29Q155
-29 79 133Q2 295 2 559T79 985Q155 1147 277 1147Q351 1147 404 1098Q457 1050 492 950V1556H603L602 1120H1126V952L880 476Q943 476 1020 420Q1079 378 1130 269Q1179 165 1179 27Q1179 -194 1088 -315T829 -436Q772 -436 713 -418Q653 -399 589 -362V-167Q640
-216 700 -241T825 -266Q939 -266 998 -191Q1058 -116 1058 27Q1058 159 1003 234Q947 308 848 308H744V474L1002 973H603H602Z" />
<glyph unicode="&#x2a5;" glyph-name="uni02A5" horiz-adv-x="1134" d="M171 877Q121 762 121 559T171 241T308 125T446 240T497 559T447 877T309 993T171 877ZM604 973L607 203L1004 973H607H604ZM607 1120H1128V952L713 147H818Q854 435 986 435Q1122 435 1122
189Q1123 0 923 0H898Q896 -51 896 -111H804Q804 -28 805 -1L589 0H497V168Q462 68 409 20T281 -29Q160 -29 84 133T7 559T83 985T281 1147Q356 1147 409 1099T497 950V1556H607V1120ZM911 147H923Q1027 147 1027 201Q1027 292 985 292Q932 290 911 147Z" />
<glyph unicode="&#x2a6;" glyph-name="uni02A6" horiz-adv-x="941" d="M904 1087V913Q857 953 807 973T702 993Q620 993 579 951T538 825Q538 761 567 725T686 655L723 641Q842 597 890 522Q940 446 940 309Q940 153 866 62T662 -29Q608 -29 550 -12Q494 5 432
38V0H319Q191 0 143 79T94 369V977H13V1120H94V1438H205V1120H432V977H205V369Q205 232 227 193T319 154H426V231Q488 178 547 152T665 125Q743 125 785 169T827 295Q827 370 796 410Q769 446 663 487L625 502Q522 538 477 612T431 817Q431 975 498 1061T689 1147Q750
1147 804 1132T904 1087Z" />
<glyph unicode="&#x2a7;" glyph-name="uni02A7" horiz-adv-x="929" d="M244 1438V1120H525V1198Q525 1380 590 1470Q650 1556 797 1556H927V1403H795Q721 1403 693 1363Q663 1322 663 1219L665 -20Q665 -235 604 -330Q543 -426 407 -426H354V-270H391Q469 -270
498 -222Q527 -172 527 -20V0H386Q225 0 166 80Q105 157 105 369V977H4V1120H105V1438H244ZM526 154Q525 433 525 977H244V369Q244 231 272 193Q301 154 386 154H526Z" />
<glyph unicode="&#x2a8;" glyph-name="uni02A8" horiz-adv-x="870" d="M201 1438V1120H429V990Q519 1147 676 1147Q727 1147 776 1130Q824 1112 870 1077V905Q823 948 776 970Q729 991 681 991Q573 991 514 878Q455 764 455 559T514 240Q518 233 522 226Q572 402
690 402Q869 402 870 156Q870 -33 670 -33Q621 -33 578 -16Q575 -73 575 -141L483 -144Q483 -40 490 44Q457 78 429 128V0H315Q187 0 139 79T90 369V977H9V1120H90V1438H201ZM600 146Q636 127 681 127Q768 127 768 184Q768 259 689 259Q628 259 600 146ZM415 154Q338
311 338 559Q338 822 422 977H201V369Q201 232 223 193T315 154H415Z" />
<glyph unicode="&#x2a9;" glyph-name="uni02A9" horiz-adv-x="969" d="M961 676V-20Q961 -234 912 -330Q863 -426 755 -426H602V-270H742Q805 -270 828 -222Q851 -173 851 -20V670Q851 829 814 908T702 987Q613 987 561 892T509 633V0H398V977H218V0H108V977H2V1120H108V1198Q108
1385 160 1470T325 1556H430V1403H324Q265 1403 242 1363T218 1219V1120H398H400H509V946Q549 1047 602 1097Q656 1147 726 1147Q842 1147 902 1028Q961 908 961 676Z" />
<glyph unicode="&#x2aa;" glyph-name="uni02AA" horiz-adv-x="799" d="M754 1087V913Q695 954 633 973Q568 993 502 993Q399 993 348 951T297 825Q297 762 333 724Q371 688 481 655L528 641Q677 597 737 522Q799 446 799 309Q799 154 706 62Q615 -29 452 -29Q387
-29 311 -12Q232 9 164 38V0H26V1556H164V846Q172 984 247 1061Q331 1147 486 1147Q562 1147 630 1132Q697 1117 754 1087ZM164 788V226Q239 175 308 152Q382 125 455 125Q552 125 605 170Q657 213 657 295Q657 370 620 410Q586 445 453 487L405 502Q277 538 220
612Q170 677 164 788Z" />
<glyph unicode="&#x2ab;" glyph-name="uni02AB" horiz-adv-x="819" d="M26 1556H164V1120H819V952L300 147H819V0H164H144H26V1556ZM164 973V199L663 973H164Z" />
<glyph unicode="&#x2ac;" glyph-name="uni02AC" horiz-adv-x="975" d="M14 597H130L275 108L419 597H556L701 108L845 597H961L776 -30H640L488 484L335 -30H199L14 597ZM14 1311H130L275 822L419 1311H556L701 822L845 1311H961L776 684H640L488 1198L335 684H199L14
1311Z" />
<glyph unicode="&#x2ad;" glyph-name="uni02AD" horiz-adv-x="982" d="M26 597H973V173H830V434H169V173H26V597ZM26 1311H973V887H830V1148H169V887H26V1311Z" />
<glyph unicode="&#x2ae;" glyph-name="uni02AE" horiz-adv-x="884" d="M466 -29Q173 -29 173 442V1150Q173 1303 145 1351T37 1400H0V1556H53Q189 1556 250 1460T311 1150V448Q311 131 497 131Q609 131 673 226T738 485V1118H876V-438H738V172Q639 -29 466 -29Z" />
<glyph unicode="&#x2af;" glyph-name="uni02AF" horiz-adv-x="839" d="M249 448Q249 131 397 131Q487 131 538 226T590 485V1118H701V-20Q699 -168 723 -219T809 -270H839V-426H797Q688 -426 641 -334Q591 -231 590 0V172Q511 -29 373 -29Q138 -29 138 442V1150Q138
1303 115 1352Q92 1400 29 1400H0V1556H42Q151 1556 200 1460T249 1150V448Z" />
<glyph unicode="&#x2b0;" glyph-name="uni02B0" horiz-adv-x="620" d="M617 1047V668H501V1043Q501 1132 462 1176T345 1221Q251 1221 197 1168T143 1022V668H26V1539H143V1198Q184 1254 240 1282T371 1310Q492 1310 554 1243T617 1047Z" />
<glyph unicode="&#x2b1;" glyph-name="uni02B1" horiz-adv-x="624" d="M140 1196H141Q182 1253 238 1281T369 1309Q490 1309 552 1242T615 1045V667H499V1042Q499 1131 460 1175T343 1219Q249 1219 195 1166T141 1021V667H24V1228V1311Q24 1430 76 1484Q127 1538
241 1538H401V1451H254Q188 1451 164 1424Q140 1396 140 1311V1196Z" />
<glyph unicode="&#x2b2;" glyph-name="uni02B2" horiz-adv-x="281" d="M145 1295H261V657Q261 537 210 483T44 429H0V517H31Q97 517 121 544T145 657V1295ZM145 1539H261V1409H145V1539Z" />
<glyph unicode="&#x2b3;" glyph-name="uni02B3" horiz-adv-x="439" d="M439 1199Q420 1209 397 1213T346 1218Q248 1218 195 1162T142 998V668H26V1295H142V1198Q179 1255 237 1282T380 1310Q392 1310 406 1309T439 1305V1199Z" />
<glyph unicode="&#x2b4;" glyph-name="uni02B4" horiz-adv-x="439" d="M0 764Q19 754 42 750T93 745Q191 745 244 801T297 965V1295H413V668H297V765Q260 708 202 681T59 653Q47 653 33 654T0 658V764Z" />
<glyph unicode="&#x2b5;" glyph-name="uni02B5" horiz-adv-x="565" d="M0 764Q20 754 43 750T94 745Q192 745 244 801T297 965V1295H414V740V668V657Q414 571 438 544Q462 517 528 517H559V429H514Q400 429 349 483Q298 537 298 657V668H297V765Q261 708 202 681T60
653Q48 653 34 654T1 658L0 764Z" />
<glyph unicode="&#x2b6;" glyph-name="uni02B6" horiz-adv-x="655" d="M405 1001Q472 986 507 947T543 849Q543 758 475 713Q407 668 270 668H26V1295H143V1030H249Q310 1030 347 1051Q384 1071 424 1134L526 1295H649L539 1124Q506 1071 473 1041Q440 1011 405
1001ZM143 755H267Q342 755 382 778Q422 802 422 849Q422 895 382 919Q342 944 267 944H143V755Z" />
<glyph unicode="&#x2b7;" glyph-name="uni02B7" horiz-adv-x="971" d="M12 1295H128L273 806L417 1295H554L699 806L843 1295H959L774 668H638L486 1182L333 668H197L12 1295Z" />
<glyph unicode="&#x2b8;" glyph-name="uni02B8" horiz-adv-x="699" d="M389 610Q340 498 294 464T168 429H76V516H144Q192 516 218 536T277 631L298 678L12 1295H135L355 805L576 1295H699L389 610Z" />
<glyph unicode="&#x2b9;" glyph-name="uni02B9" horiz-adv-x="1233" d="M10 1140L75 1638H265L155 1140H10Z" />
<glyph unicode="&#x2bb;" glyph-name="uni02BB" horiz-adv-x="1233" d="M257 967H5V1174L201 1556H355L257 1174V967Z" />
<glyph unicode="&#x2bc;" glyph-name="uni02BC" horiz-adv-x="1233" d="M104 1556H356V1350L159 967H6L104 1350V1556Z" />
<glyph unicode="&#x2bd;" glyph-name="uni02BD" horiz-adv-x="1233" d="M15 1475V1729H256V1475H144Q144 1341 256 1341V1218Q15 1218 15 1475Z" />
<glyph unicode="&#x2be;" glyph-name="uni02BE" horiz-adv-x="304" d="M26 1007Q26 1068 26 1130Q90 1130 134 1174T178 1282Q178 1345 134 1389T26 1433Q26 1494 26 1556Q140 1556 220 1476Q300 1397 300 1282T220 1087Q140 1007 26 1007Z" />
<glyph unicode="&#x2bf;" glyph-name="uni02BF" horiz-adv-x="288" d="M278 1007Q162 1007 82 1087Q4 1167 4 1282T82 1476Q162 1556 278 1556Q278 1494 278 1433Q214 1433 170 1389T126 1282Q126 1218 170 1174T278 1130Q278 1068 278 1007Z" />
<glyph unicode="&#x2c0;" glyph-name="uni02C0" horiz-adv-x="540" d="M164 1357H204Q325 1357 379 1421Q415 1463 415 1518Q415 1593 379 1629Q317 1693 204 1693Q153 1693 104 1681Q54 1669 5 1645V1741Q53 1761 104 1770Q155 1780 209 1780Q382 1780 469 1692Q538
1622 538 1518Q538 1423 470 1359Q399 1292 292 1275V910H165L164 1357Z" />
<glyph unicode="&#x2c1;" glyph-name="uni02C1" horiz-adv-x="540" d="M375 1357V910H248V1275Q141 1292 70 1359Q2 1423 2 1518Q2 1622 72 1692Q158 1780 331 1780Q385 1780 436 1770Q487 1761 535 1741V1645Q486 1669 436 1681Q387 1693 336 1693Q223 1693 161
1629Q125 1593 125 1518Q125 1463 161 1421Q215 1357 336 1357H375Z" />
<glyph unicode="&#x2c6;" glyph-name="circumflex" horiz-adv-x="647" d="M250 1638H397L643 1262H504L323 1507L143 1262H4L250 1638Z" />
<glyph unicode="&#x2c7;" glyph-name="caron" horiz-adv-x="647" d="M250 1262L4 1638H143L323 1393L504 1638H643L397 1262H250Z" />
<glyph unicode="&#x2c8;" glyph-name="uni02C8" horiz-adv-x="191" d="M162 1554V999H26V1554H162Z" />
<glyph unicode="&#x2c9;" glyph-name="uni02C9" horiz-adv-x="1233" d="M26 1526H624V1378H26V1526Z" />
<glyph unicode="&#x2cc;" glyph-name="uni02CC" horiz-adv-x="191" d="M162 252V-303H26V252H162Z" />
<glyph unicode="&#x2cd;" glyph-name="uni02CD" horiz-adv-x="1233" d="M26 -209H624V-357H26V-209Z" />
<glyph unicode="&#x2d0;" glyph-name="uni02D0" horiz-adv-x="375" d="M187 729L9 1059H366L187 729ZM187 330L366 0H9L187 330Z" />
<glyph unicode="&#x2d1;" glyph-name="uni02D1" horiz-adv-x="359" d="M179 729L1 1059H358L179 729Z" />
<glyph unicode="&#x2d2;" glyph-name="uni02D2" horiz-adv-x="1233" d="M26 511Q26 572 26 634Q90 634 134 678T178 786Q178 849 134 893T26 937Q26 998 26 1060Q140 1060 220 980Q300 901 300 786T220 591Q140 511 26 511Z" />
<glyph unicode="&#x2d3;" glyph-name="uni02D3" horiz-adv-x="1233" d="M278 511Q162 511 82 591Q4 671 4 786T82 980Q162 1060 278 1060Q278 998 278 937Q214 937 170 893T126 786Q126 722 170 678T278 634Q278 572 278 511Z" />
<glyph unicode="&#x2d6;" glyph-name="uni02D6" horiz-adv-x="598" d="M224 629V853H374V629H598V479H374V255H224V479H0V629H224Z" />
<glyph unicode="&#x2d7;" glyph-name="uni02D7" horiz-adv-x="503" d="M476 479H26V629H476V479Z" />
<glyph unicode="&#x2d8;" glyph-name="breve" horiz-adv-x="1233" d="M13 1608H132Q143 1532 191 1495T326 1458Q411 1458 459 1495T521 1608H640Q629 1465 550 1393T326 1321Q182 1321 103 1393T13 1608Z" />
<glyph unicode="&#x2d9;" glyph-name="dotaccent" horiz-adv-x="1233" d="M26 1552H231V1348H26V1552Z" />
<glyph unicode="&#x2da;" glyph-name="ring" horiz-adv-x="574" d="M562 1524Q562 1409 483 1329T287 1249Q172 1249 93 1329T13 1524Q13 1639 92 1718T287 1798Q403 1798 482 1719T562 1524ZM439 1524Q439 1587 395 1631T287 1675Q223 1675 180 1632T136 1524Q136
1459 179 1416T287 1372Q351 1372 395 1416T439 1524Z" />
<glyph unicode="&#x2db;" glyph-name="ogonek" horiz-adv-x="389" d="M121 0H240Q195 -61 174 -105T152 -180Q152 -226 179 -249T261 -272Q293 -272 324 -265T386 -242V-375Q348 -385 314 -390T250 -395Q128 -395 71 -352T13 -215Q13 -167 39 -115T121 0Z" />
<glyph unicode="&#x2dc;" glyph-name="tilde" horiz-adv-x="695" d="M343 1370L286 1425Q265 1445 249 1454T218 1464Q180 1464 162 1427T142 1309H18Q19 1443 70 1517T212 1591Q251 1591 283 1577T352 1530L409 1475Q430 1455 446 1446T476 1436Q515 1436 533
1473T552 1591H677Q676 1457 625 1383T483 1309Q444 1309 412 1323T343 1370Z" />
<glyph unicode="&#x2dd;" glyph-name="hungarumlaut" horiz-adv-x="1233" d="M200 1638H370L146 1262H9L200 1638ZM533 1638H712L464 1262H329L533 1638Z" />
<glyph unicode="&#x2de;" glyph-name="uni02DE" horiz-adv-x="1240" d="M0 868L619 1032H803V884Q803 731 841 682Q879 634 984 634H1234V478H963Q788 478 701 574Q619 664 619 864L1 702L0 868Z" />
<glyph unicode="&#x2e0;" glyph-name="uni02E0" horiz-adv-x="665" d="M409 988Q587 739 587 559Q587 430 345 427Q79 424 78 559Q77 751 259 992L9 1295H145L336 1071L520 1295H656L409 988ZM332 921Q193 747 196 595Q197 518 332 518Q460 518 460 595Q461 735 332 921Z" />
<glyph unicode="&#x2e1;" glyph-name="uni02E1" horiz-adv-x="550" d="M302 895Q302 826 330 791T414 755H550V668H404Q300 668 243 727T186 895V1465H0V1546H302V895Z" />
<glyph unicode="&#x2e2;" glyph-name="uni02E2" horiz-adv-x="570" d="M518 1293V1196Q469 1218 416 1229T307 1240Q220 1240 177 1217T134 1146Q134 1110 165 1090T289 1051L329 1043Q454 1019 504 977Q556 934 556 857Q556 770 479 719T264 668Q208 668 147
678T17 707V814Q81 784 143 769T267 754Q349 754 393 779T437 849Q437 891 405 914Q377 934 266 957L225 965Q118 986 70 1027T22 1142Q22 1230 92 1278T293 1327Q357 1327 413 1319T518 1293Z" />
<glyph unicode="&#x2e3;" glyph-name="uni02E3" horiz-adv-x="716" d="M686 1295L431 990L700 668H563L357 914L152 668H15L289 996L39 1295H175L363 1072L550 1295H686Z" />
<glyph unicode="&#x2e4;" glyph-name="uni02E4" horiz-adv-x="540" d="M375 1115V668H248V1033Q141 1050 70 1117Q2 1181 2 1276Q2 1380 72 1450Q158 1538 331 1538Q385 1538 436 1528Q487 1519 535 1499V1403Q486 1427 436 1439Q387 1451 336 1451Q223 1451 161
1387Q125 1351 125 1276Q125 1221 161 1179Q215 1115 336 1115H375Z" />
<glyph unicode="&#x2e5;" glyph-name="uni02E5" horiz-adv-x="660" d="M497 0V1232H0V1368H633V0H497Z" />
<glyph unicode="&#x2e6;" glyph-name="uni02E6" horiz-adv-x="660" d="M497 0V924H0V1060H497V1368H633V0H497Z" />
<glyph unicode="&#x2e7;" glyph-name="uni02E7" horiz-adv-x="660" d="M497 752V1368H633V0H497V616H0V752H497Z" />
<glyph unicode="&#x2e8;" glyph-name="uni02E8" horiz-adv-x="660" d="M497 444V1368H633V0H497V308H0V444H497Z" />
<glyph unicode="&#x2e9;" glyph-name="uni02E9" horiz-adv-x="660" d="M497 136V1368H633V0H0V136H497Z" />
<glyph unicode="&#x2ee;" glyph-name="uni02EE" horiz-adv-x="1233" d="M573 1556H825V1350L628 967H475L573 1350V1556ZM114 1556H366V1350L170 967H16L114 1350V1556Z" />
<glyph unicode="&#x2f3;" glyph-name="uni02F3" horiz-adv-x="1233" d="M452 -282Q452 -374 389 -438T232 -502Q140 -502 77 -438T13 -282Q13 -190 76 -127T232 -63Q325 -63 388 -126T452 -282ZM354 -282Q354 -232 319 -197T232 -161Q181 -161 146 -196T111 -282Q111
-334 146 -369T232 -404Q283 -404 318 -369T354 -282Z" />
<glyph unicode="&#x300;" glyph-name="gravecomb" horiz-adv-x="1233" d="M198 1638L479 1262H325L0 1638H198Z" />
<glyph unicode="&#x301;" glyph-name="acutecomb" horiz-adv-x="1233" d="M281 1638H479L154 1262H0L281 1638Z" />
<glyph unicode="&#x302;" glyph-name="uni0302" horiz-adv-x="1233" d="M250 1638H397L643 1262H504L323 1507L143 1262H4L250 1638Z" />
<glyph unicode="&#x303;" glyph-name="tildecomb" horiz-adv-x="1233" d="M343 1370L286 1425Q265 1445 249 1454T218 1464Q180 1464 162 1427T142 1309H18Q19 1443 70 1517T212 1591Q251 1591 283 1577T352 1530L409 1475Q430 1455 446 1446T476 1436Q515 1436
533 1473T552 1591H677Q676 1457 625 1383T483 1309Q444 1309 412 1323T343 1370Z" />
<glyph unicode="&#x304;" glyph-name="uni0304" horiz-adv-x="651" d="M26 1526H624V1378H26V1526Z" />
<glyph unicode="&#x305;" glyph-name="uni0305" horiz-adv-x="1285" d="M1259 1547V1467H26V1547H1259Z" />
<glyph unicode="&#x306;" glyph-name="uni0306" horiz-adv-x="653" d="M13 1608H132Q143 1532 191 1495T326 1458Q411 1458 459 1495T521 1608H640Q629 1465 550 1393T326 1321Q182 1321 103 1393T13 1608Z" />
<glyph unicode="&#x307;" glyph-name="uni0307" horiz-adv-x="259" d="M26 1552H231V1348H26V1552Z" />
<glyph unicode="&#x308;" glyph-name="uni0308" horiz-adv-x="1233" d="M26 1552H229V1350H26V1552ZM418 1552H620V1350H418V1552Z" />
<glyph unicode="&#x309;" glyph-name="hookabovecomb" horiz-adv-x="429" d="M182 1734Q412 1734 419 1564Q420 1559 420 1554Q420 1490 392 1454Q342 1387 290 1354V1266H142V1374Q209 1396 258 1444Q280 1464 280 1517Q280 1611 160 1611Q70 1611 6 1579V1710Q92
1734 182 1734Z" />
<glyph unicode="&#x30a;" glyph-name="uni030A" horiz-adv-x="1233" d="M562 1524Q562 1409 483 1329T287 1249Q172 1249 93 1329T13 1524Q13 1639 92 1718T287 1798Q403 1798 482 1719T562 1524ZM439 1524Q439 1587 395 1631T287 1675Q223 1675 180 1632T136
1524Q136 1459 179 1416T287 1372Q351 1372 395 1416T439 1524Z" />
<glyph unicode="&#x30b;" glyph-name="uni030B" horiz-adv-x="717" d="M200 1638H370L146 1262H9L200 1638ZM533 1638H712L464 1262H329L533 1638Z" />
<glyph unicode="&#x30c;" glyph-name="uni030C" horiz-adv-x="1233" d="M250 1262L4 1638H143L323 1393L504 1638H643L397 1262H250Z" />
<glyph unicode="&#x30d;" glyph-name="uni030D" horiz-adv-x="191" d="M162 1706V1262H26V1706H162Z" />
<glyph unicode="&#x30e;" glyph-name="uni030E" horiz-adv-x="1233" d="M366 1706V1262H230V1706H366ZM-41 1706V1262H-177V1706H-41Z" />
<glyph unicode="&#x30f;" glyph-name="uni030F" horiz-adv-x="716" d="M183 1638L388 1262H253L5 1638H183ZM517 1638L707 1262H570L347 1638H517Z" />
<glyph unicode="&#x310;" glyph-name="uni0310" horiz-adv-x="637" d="M215 1756H420V1552H215V1756ZM5 1608H124Q135 1532 183 1495T318 1458Q403 1458 451 1495T513 1608H632Q621 1465 542 1393T318 1321Q174 1321 95 1393T5 1608Z" />
<glyph unicode="&#x311;" glyph-name="uni0311" horiz-adv-x="653" d="M13 1321Q24 1464 103 1536T326 1608Q471 1608 550 1536T640 1321H521Q507 1397 459 1434T326 1471Q239 1471 191 1434T132 1321H13Z" />
<glyph unicode="&#x312;" glyph-name="uni0312" horiz-adv-x="341" d="M239 967H0L187 1312H333L239 967Z" />
<glyph unicode="&#x313;" glyph-name="uni0313" horiz-adv-x="283" d="M267 1475Q267 1218 26 1218V1341Q138 1338 138 1475H26V1729H267V1475Z" />
<glyph unicode="&#x314;" glyph-name="uni0314" horiz-adv-x="268" d="M15 1475V1729H256V1475H144Q144 1341 256 1341V1218Q15 1218 15 1475Z" />
<glyph unicode="&#x315;" glyph-name="uni0315" horiz-adv-x="279" d="M78 1638H276L163 1262H9L78 1638Z" />
<glyph unicode="&#x316;" glyph-name="uni0316" horiz-adv-x="1233" d="M296 -207L577 -583H423L98 -207H296Z" />
<glyph unicode="&#x317;" glyph-name="uni0317" horiz-adv-x="1233" d="M184 -207H382L57 -583H-97L184 -207Z" />
<glyph unicode="&#x318;" glyph-name="uni0318" horiz-adv-x="339" d="M176 -454V-277H312V-767H176V-590H0V-454H176Z" />
<glyph unicode="&#x319;" glyph-name="uni0319" horiz-adv-x="338" d="M162 -590V-767H26V-277H162V-454H338V-590H162Z" />
<glyph unicode="&#x31a;" glyph-name="uni031A" horiz-adv-x="517" d="M354 1768H0V1904H490V1414H354V1768Z" />
<glyph unicode="&#x31b;" glyph-name="uni031B" horiz-adv-x="414" d="M0 872V991Q61 946 105 925T180 903Q226 903 249 930T272 1012Q272 1044 265 1075T242 1137H375Q385 1099 390 1065T395 1001Q395 879 352 822T215 764Q167 764 115 790T0 872Z" />
<glyph unicode="&#x31c;" glyph-name="uni031C" horiz-adv-x="234" d="M224 -404V-502Q131 -502 68 -438T4 -282T67 -127T224 -63V-161Q173 -161 138 -196T102 -282Q102 -333 137 -368T224 -404Z" />
<glyph unicode="&#x31d;" glyph-name="uni031D" horiz-adv-x="506" d="M321 -454H498V-590H8V-454H185V-277H321V-454Z" />
<glyph unicode="&#x31e;" glyph-name="uni031E" horiz-adv-x="504" d="M184 -413H7V-277H497V-413H320V-590H184V-413Z" />
<glyph unicode="&#x31f;" glyph-name="uni031F" horiz-adv-x="492" d="M178 -590H1V-454H178V-277H314V-454H491V-590H314V-767H178V-590Z" />
<glyph unicode="&#x320;" glyph-name="uni0320" horiz-adv-x="543" d="M26 -413V-277H516V-413H26Z" />
<glyph unicode="&#x321;" glyph-name="uni0321" horiz-adv-x="564" d="M549 128V-20Q549 -215 460 -320Q370 -426 205 -426H0V-270H185Q275 -270 320 -208Q364 -146 364 -20V128H549Z" />
<glyph unicode="&#x322;" glyph-name="uni0322" horiz-adv-x="564" d="M15 128H200V-20Q200 -146 244 -208Q289 -270 379 -270H564V-426H359Q194 -426 104 -320Q15 -215 15 -20V128Z" />
<glyph unicode="&#x323;" glyph-name="dotbelowcomb" horiz-adv-x="259" d="M26 -209H231V-413H26V-209Z" />
<glyph unicode="&#x324;" glyph-name="uni0324" horiz-adv-x="647" d="M26 -210H228V-412H26V-210ZM418 -210H620V-412H418V-210Z" />
<glyph unicode="&#x325;" glyph-name="uni0325" horiz-adv-x="465" d="M452 -282Q452 -374 389 -438T232 -502Q140 -502 77 -438T13 -282Q13 -190 76 -127T232 -63Q325 -63 388 -126T452 -282ZM354 -282Q354 -232 319 -197T232 -161Q181 -161 146 -196T111 -282Q111
-334 146 -369T232 -404Q283 -404 318 -369T354 -282Z" />
<glyph unicode="&#x326;" glyph-name="uni0326" horiz-adv-x="341" d="M102 -197H341L154 -542H8L102 -197Z" />
<glyph unicode="&#x327;" glyph-name="uni0327" horiz-adv-x="430" d="M307 0Q363 -62 389 -114T416 -215Q416 -304 356 -349T178 -395Q133 -395 90 -389T2 -371V-240Q36 -257 73 -264T158 -272Q216 -272 246 -248T277 -178Q277 -148 255 -105T189 0H307Z" />
<glyph unicode="&#x328;" glyph-name="uni0328" horiz-adv-x="1233" d="M131 0H250Q205 -61 184 -105T162 -180Q162 -226 189 -249T271 -272Q303 -272 334 -265T396 -242V-375Q358 -385 324 -390T260 -395Q138 -395 81 -352T23 -215Q23 -167 49 -115T131 0Z" />
<glyph unicode="&#x329;" glyph-name="uni0329" horiz-adv-x="191" d="M162 -209V-653H26V-209H162Z" />
<glyph unicode="&#x32a;" glyph-name="uni032A" horiz-adv-x="604" d="M577 -209V-539H440V-345H163V-539H26V-209H577Z" />
<glyph unicode="&#x32b;" glyph-name="uni032B" horiz-adv-x="857" d="M428 -373Q369 -455 253 -455Q35 -455 18 -173Q18 -171 18 -168H136Q149 -318 252 -318Q354 -318 370 -168H488Q499 -317 604 -318Q706 -318 721 -168H839Q824 -454 604 -455Q488 -455 428 -373Z" />
<glyph unicode="&#x32c;" glyph-name="uni032C" horiz-adv-x="647" d="M250 -485L4 -109H143L323 -354L504 -109H643L397 -485H250Z" />
<glyph unicode="&#x32d;" glyph-name="uni032D" horiz-adv-x="647" d="M250 -109H397L643 -485H504L323 -240L143 -485H4L250 -109Z" />
<glyph unicode="&#x32e;" glyph-name="uni032E" horiz-adv-x="653" d="M13 -200H132Q143 -276 191 -313T326 -350Q411 -350 459 -313T521 -200H640Q629 -343 550 -415T326 -487Q182 -487 103 -415T13 -200Z" />
<glyph unicode="&#x32f;" glyph-name="uni032F" horiz-adv-x="653" d="M640 -485H521Q510 -409 462 -372T327 -335Q242 -335 194 -372T132 -485H13Q24 -342 103 -270T327 -198Q471 -198 550 -270T640 -485Z" />
<glyph unicode="&#x330;" glyph-name="uni0330" horiz-adv-x="695" d="M343 -424L286 -369Q265 -349 249 -340T218 -330Q180 -330 162 -367T142 -485H18Q19 -351 70 -277T212 -203Q251 -203 283 -217T352 -264L409 -319Q430 -339 446 -348T476 -358Q515 -358 533
-321T552 -203H677Q676 -337 625 -411T483 -485Q444 -485 412 -471T343 -424Z" />
<glyph unicode="&#x331;" glyph-name="uni0331" horiz-adv-x="651" d="M26 -209H624V-357H26V-209Z" />
<glyph unicode="&#x332;" glyph-name="uni0332" horiz-adv-x="1233" d="M1259 -403V-483H26V-403H1259Z" />
<glyph unicode="&#x333;" glyph-name="uni0333" horiz-adv-x="1260" d="M1259 -403V-483H26V-403H1259ZM1259 -163V-243H26V-163H1259Z" />
<glyph unicode="&#x334;" glyph-name="uni0334" horiz-adv-x="1233" d="M1078 780V606Q1003 547 932 520T781 492Q691 492 578 543Q556 553 545 557Q468 590 417 602T314 614Q235 614 165 585T21 492V666Q99 726 172 753T328 780Q381 780 431 769T555 727Q567
722 588 712Q704 657 797 657Q867 657 935 687T1078 780Z" />
<glyph unicode="&#x335;" glyph-name="uni0335" horiz-adv-x="972" d="M946 616V452H26V616H946Z" />
<glyph unicode="&#x336;" glyph-name="uni0336" horiz-adv-x="1285" d="M26 452V616H1259V452H26Z" />
<glyph unicode="&#x337;" glyph-name="uni0337" horiz-adv-x="1127" d="M92 -96L0 -20L1034 1212L1127 1135L92 -96Z" />
<glyph unicode="&#x338;" glyph-name="uni0338" horiz-adv-x="1192" d="M103 -70L0 0L1092 1559L1192 1485L103 -70Z" />
<glyph unicode="&#x339;" glyph-name="uni0339" horiz-adv-x="250" d="M26 -404Q77 -404 112 -369T148 -282Q148 -232 113 -197T26 -161V-63Q119 -63 182 -126T246 -282T183 -438T26 -502V-404Z" />
<glyph unicode="&#x33a;" glyph-name="uni033A" horiz-adv-x="604" d="M26 -384V-54H163V-248H440V-54H577V-384H26Z" />
<glyph unicode="&#x33b;" glyph-name="uni033B" horiz-adv-x="604" d="M577 -209V-759H26V-209H577ZM440 -623V-345H163V-623H440Z" />
<glyph unicode="&#x33c;" glyph-name="uni033C" horiz-adv-x="857" d="M428 -250Q488 -168 604 -168Q822 -168 839 -450Q839 -452 839 -455H722Q708 -305 604 -305Q503 -305 488 -455H370Q358 -306 253 -305Q151 -305 136 -455H18Q33 -169 253 -168Q369 -168 428 -250Z" />
<glyph unicode="&#x33d;" glyph-name="uni033D" horiz-adv-x="467" d="M233 1353L108 1228L12 1324L137 1449L12 1574L108 1671L233 1545L359 1671L455 1574L330 1449L455 1324L359 1228L233 1353Z" />
<glyph unicode="&#x33e;" glyph-name="uni033E" horiz-adv-x="310" d="M74 1479Q42 1507 28 1531T14 1583Q14 1663 87 1703T296 1746V1636Q214 1634 177 1621T140 1579Q140 1569 150 1557Q161 1542 180 1528L234 1485Q268 1457 282 1433T296 1381Q296 1301 222
1261T14 1218V1328Q96 1330 132 1343T168 1385Q168 1395 159 1407Q148 1422 130 1436L74 1479Z" />
<glyph unicode="&#x33f;" glyph-name="uni033F" horiz-adv-x="1260" d="M1259 1547V1467H26V1547H1259ZM1259 1307V1227H26V1307H1259Z" />
<glyph unicode="&#x343;" glyph-name="uni0343" horiz-adv-x="1233" d="M267 1475Q267 1218 26 1218V1341Q138 1338 138 1475H26V1729H267V1475Z" />
<glyph unicode="&#x358;" glyph-name="uni0358" horiz-adv-x="259" d="M26 1552H231V1348H26V1552Z" />
<glyph unicode="&#x361;" glyph-name="uni0361" horiz-adv-x="1732" d="M525 1685Q257 1662 131 1520H13Q13 1760 521 1820Q749 1847 865 1847T1211 1820Q1719 1760 1719 1520H1601Q1474 1662 1205 1685Q921 1710 866 1710T525 1685Z" />
<glyph unicode="&#x374;" glyph-name="uni0374" horiz-adv-x="268" d="M10 1140L75 1638H265L155 1140H10Z" />
<glyph unicode="&#x375;" glyph-name="uni0375" horiz-adv-x="267" d="M258 72L193 -426H3L113 72H258Z" />
<glyph unicode="&#x37a;" glyph-name="uni037A" horiz-adv-x="248" d="M241 -426H109Q21 -426 21 -243V-92H170V-256Q170 -360 221 -360H241V-426Z" />
<glyph unicode="&#x37e;" glyph-name="uni037E" horiz-adv-x="1233" d="M106 303H358V96L161 -287H7L106 96V303ZM93 1063H345V760H93V1063Z" />
<glyph unicode="&#x384;" glyph-name="tonos" horiz-adv-x="1233" d="M281 1638H479L154 1262H0L281 1638Z" />
<glyph unicode="&#x385;" glyph-name="dieresistonos" horiz-adv-x="651" d="M0 1552H203V1350H0V1552ZM392 1552H594V1350H392V1552ZM437 2008H635L310 1632H156L437 2008Z" />
<glyph unicode="&#x386;" glyph-name="Alphatonos" horiz-adv-x="1186" d="M604 1315L391 551H817L604 1315ZM482 1493H727L1184 0H975L865 389H342L234 0H25L482 1493ZM294 1638H492L167 1262H13L294 1638Z" />
<glyph unicode="&#x387;" glyph-name="anoteleia" horiz-adv-x="1233" d="M26 864H278V559H26V864Z" />
<glyph unicode="&#x388;" glyph-name="Epsilontonos" horiz-adv-x="1332" d="M424 1493H1310V1323H626V881H1280V711H626V170H1329V0H424V1493ZM283 1638H481L156 1262H2L283 1638Z" />
<glyph unicode="&#x389;" glyph-name="Etatonos" horiz-adv-x="1395" d="M415 1493H618V881H1171V1493H1374V0H1171V711H618V0H415V1493ZM284 1638H482L157 1262H3L284 1638Z" />
<glyph unicode="&#x38a;" glyph-name="Iotatonos" horiz-adv-x="1260" d="M426 1493H1255V1323H942V170H1255V0H426V170H739V1323H426V1493ZM281 1638H479L154 1262H0L281 1638Z" />
<glyph unicode="&#x38c;" glyph-name="Omicrontonos" horiz-adv-x="1208" d="M984 745Q984 1074 917 1215T695 1356Q542 1356 475 1215T407 745Q407 417 474 276T695 135Q849 135 916 275T984 745ZM1195 745Q1195 355 1072 163T695 -29Q442 -29 319 162T196 745Q196
1136 319 1328T695 1520Q948 1520 1071 1328T1195 745ZM285 1638H483L158 1262H4L285 1638Z" />
<glyph unicode="&#x38e;" glyph-name="Upsilontonos" horiz-adv-x="1597" d="M437 1493H652L1016 834L1379 1493H1596L1117 670V0H914V670L437 1493ZM281 1638H479L154 1262H0L281 1638Z" />
<glyph unicode="&#x38f;" glyph-name="Omegatonos" horiz-adv-x="1228" d="M133 0V172H378Q255 306 200 450T145 782Q145 1093 289 1276T673 1460Q915 1460 1059 1277T1204 782Q1204 594 1149 450T970 172H1218V0H755V172Q875 248 942 412T1009 799Q1009 1029
919 1161T675 1294Q521 1294 432 1162T342 799Q342 577 409 413T596 172V0H133ZM290 1638H488L163 1262H9L290 1638Z" />
<glyph unicode="&#x390;" glyph-name="iotadieresistonos" horiz-adv-x="1233" d="M399 1120V395Q399 250 433 204Q469 156 577 156H666V0H555Q375 0 293 96Q212 194 211 406V977H1V1120H399ZM0 1552H203V1350H0V1552ZM392 1552H594V1350H392V1552ZM437 2008H635L310
1632H156L437 2008Z" />
<glyph unicode="&#x391;" glyph-name="Alpha" horiz-adv-x="1233" d="M583 1315L370 551H796L583 1315ZM461 1493H706L1163 0H954L844 389H321L213 0H4L461 1493Z" />
<glyph unicode="&#x392;" glyph-name="Beta" horiz-adv-x="1233" d="M234 713V166H473Q649 166 724 227T799 430Q799 576 720 644T473 713H234ZM234 1327V877H469Q615 877 680 933T746 1114Q746 1227 682 1277T469 1327H234ZM31 1493H473Q702 1493 826 1394T950
1114Q950 977 885 898T688 799Q835 777 918 674T1002 410Q1002 207 869 104T473 0H31V1493Z" />
<glyph unicode="&#x393;" glyph-name="Gamma" horiz-adv-x="1233" d="M26 0V1493H950V1323H229V0H26Z" />
<glyph unicode="&#x394;" glyph-name="uni0394" horiz-adv-x="1167" d="M905 170L583 1315L261 170H905ZM1163 0H4L461 1493H706L1163 0Z" />
<glyph unicode="&#x395;" glyph-name="Epsilon" horiz-adv-x="1233" d="M30 1493H916V1323H232V881H886V711H232V170H935V0H30V1493Z" />
<glyph unicode="&#x396;" glyph-name="Zeta" horiz-adv-x="1233" d="M34 1493H1003V1339L223 170H1025V0H12V154L771 1323H34V1493Z" />
<glyph unicode="&#x397;" glyph-name="Eta" horiz-adv-x="1233" d="M29 1493H232V881H785V1493H988V0H785V711H232V0H29V1493Z" />
<glyph unicode="&#x398;" glyph-name="Theta" horiz-adv-x="1029" d="M714 711H315V881H714V711ZM803 745Q803 1074 736 1215T514 1356Q361 1356 294 1215T226 745Q226 417 293 276T514 135Q668 135 735 275T803 745ZM1014 745Q1014 355 891 163T514 -29Q261 -29
138 162T15 745Q15 1136 138 1328T514 1520Q767 1520 890 1328T1014 745Z" />
<glyph unicode="&#x399;" glyph-name="Iota" horiz-adv-x="1233" d="M14 1493H843V1323H530V170H843V0H14V170H327V1323H14V1493Z" />
<glyph unicode="&#x39a;" glyph-name="Kappa" horiz-adv-x="1233" d="M28 1493H231V829L862 1493H1099L518 883L1116 0H872L385 748L231 584V0H28V1493Z" />
<glyph unicode="&#x39b;" glyph-name="Lambda" horiz-adv-x="1167" d="M213 0H4L461 1493H706L1163 0H954L583 1315L213 0Z" />
<glyph unicode="&#x39c;" glyph-name="Mu" horiz-adv-x="1233" d="M28 1493H298L556 733L816 1493H1087V0H900V1319L634 532H481L214 1319V0H28V1493Z" />
<glyph unicode="&#x39d;" glyph-name="Nu" horiz-adv-x="1233" d="M28 1493H284L788 264V1493H983V0H727L223 1229V0H28V1493Z" />
<glyph unicode="&#x39e;" glyph-name="Xi" horiz-adv-x="963" d="M961 1493V1323H2V1493H961ZM758 711H205V881H758V711ZM961 170V0H2V170H961Z" />
</font>
</defs>
</svg>
