<?xml version="1.0" standalone="no"?> <!DOCTYPE svg PUBLIC "-//W3C//DTD SVG 1.0//EN" "http://www.w3.org/TR/2001/REC-SVG-20010904/DTD/svg10.dtd" > <svg xmlns="http://www.w3.org/2000/svg" width="100%" height="100%">
<defs >
<font horiz-adv-x="1435" ><font-face
    font-family="DejaVu Sans"
    units-per-em="2048"
    panose-1="2 11 8 3 3 3 4 11 2 4"
    ascent="1901"
    descent="-483"
    alphabetic="0" />
<missing-glyph horiz-adv-x="1103" d="M39 -362V1444H1063V-362H39ZM154 -248H949V1329H154V-248Z" />
<glyph unicode=" " glyph-name="space" horiz-adv-x="713" />
<glyph unicode="!" glyph-name="exclam" horiz-adv-x="658" d="M294 1493H655L542 920L411 502H153L181 920L294 1493ZM73 356H433L364 0H3L73 356Z" />
<glyph unicode="&quot;" glyph-name="quotedbl" horiz-adv-x="756" d="M716 1493V938H479V1493H716ZM276 1493V938H39V1493H276Z" />
<glyph unicode="#" glyph-name="numbersign" horiz-adv-x="1474" d="M896 872H632L562 598H826L896 872ZM783 1470L687 1085H951L1048 1470H1269L1172 1085H1469L1416 872H1119L1050 598H1347L1293 383H998L902 0H681L777 383H513L417 0H194L290 383H5L58 598H339L409
872H126L179 1085H464L560 1470H783Z" />
<glyph unicode="$" glyph-name="dollar" horiz-adv-x="1239" d="M542 -301H380L439 0Q312 5 203 26T1 86L50 348Q146 293 254 263T483 228L544 539Q334 570 239 650T143 874Q143 1073 292 1195T697 1327L741 1556H902L859 1329Q960 1323 1054 1306T1236 1262L1187
1008Q1124 1045 1029 1068T814 1099L757 811Q970 775 1072 694T1175 479Q1175 259 1025 134T600 0L542 -301ZM601 836L652 1098Q568 1090 518 1050T468 948Q468 900 500 873T601 836ZM700 512L645 227Q744 232 797 275T851 393Q851 444 815 472T700 512Z" />
<glyph unicode="%" glyph-name="percent" horiz-adv-x="1867" d="M1472 616Q1386 616 1331 532T1275 315Q1275 228 1305 185T1398 141Q1485 141 1540 225T1595 444Q1595 529 1564 572T1472 616ZM1500 784Q1657 784 1751 699T1846 473Q1846 249 1714 110T1367 -29Q1210
-29 1116 57T1021 285Q1021 507 1153 645T1500 784ZM439 -29H194L1429 1520H1674L439 -29ZM501 1520Q657 1520 752 1434T847 1208Q847 985 714 846T366 707Q209 707 115 792T20 1018Q20 1240 153 1380T501 1520ZM470 1352Q384 1352 329 1268T274 1051Q274 963 304
919T396 874Q483 874 538 959T593 1180Q593 1264 562 1308T470 1352Z" />
<glyph unicode="&amp;" glyph-name="ampersand" horiz-adv-x="1631" d="M832 915L1129 541Q1191 604 1236 692T1309 895H1620Q1577 720 1498 577T1298 322L1554 0H1116L1032 106Q914 38 796 5T555 -29Q310 -29 161 94T12 416Q12 567 107 693T404 934Q378 978 365
1023T352 1116Q352 1292 503 1406T893 1520Q984 1520 1079 1506T1276 1462L1223 1184Q1136 1232 1057 1255T899 1278Q813 1278 763 1242T713 1145Q713 1107 743 1049T832 915ZM530 743Q450 692 409 626T367 483Q367 376 443 303T633 229Q693 229 752 250T870 313L530
743Z" />
<glyph unicode="&apos;" glyph-name="quotesingle" horiz-adv-x="317" d="M276 1493V938H39V1493H276Z" />
<glyph unicode="(" glyph-name="parenleft" horiz-adv-x="810" d="M456 -270H165Q87 -104 49 55T10 373Q10 668 137 962T520 1554H810Q577 1244 463 941T348 332Q348 182 375 33T456 -270Z" />
<glyph unicode=")" glyph-name="parenright" horiz-adv-x="810" d="M354 1554H647Q724 1390 762 1231T800 911Q800 613 674 319T293 -270H0Q233 40 348 344T463 954Q463 1104 436 1252T354 1554Z" />
<glyph unicode="*" glyph-name="asterisk" horiz-adv-x="996" d="M992 1217L662 1044L992 870L916 729L583 913V569H413V913L79 729L3 870L337 1044L3 1217L79 1358L413 1176V1520H583V1176L916 1358L992 1217Z" />
<glyph unicode="+" glyph-name="plus" horiz-adv-x="1282" d="M760 1284V760H1282V524H760V0H522V524H0V760H522V1284H760Z" />
<glyph unicode="," glyph-name="comma" horiz-adv-x="601" d="M238 387H598L539 82L217 -291H4L178 82L238 387Z" />
<glyph unicode="-" glyph-name="hyphen" horiz-adv-x="746" d="M88 735H716L659 444H30L88 735Z" />
<glyph unicode="." glyph-name="period" horiz-adv-x="478" d="M97 387H457L382 0H21L97 387Z" />
<glyph unicode="/" glyph-name="slash" horiz-adv-x="1086" d="M854 1493H1086L232 -190H0L854 1493Z" />
<glyph unicode="0" glyph-name="zero" horiz-adv-x="1316" d="M557 233Q634 233 693 279T793 414Q821 477 844 557T887 748Q904 837 913 912T922 1040Q922 1152 882 1204T758 1257Q680 1257 621 1213T523 1077Q493 1012 469 929T426 748Q409 658 400 581T391 451Q391
340 432 287T557 233ZM1297 983Q1297 784 1242 596T1088 266Q987 120 844 46T525 -29Q280 -29 150 110T19 510Q19 706 73 894T226 1223Q329 1370 471 1445T791 1520Q1034 1520 1165 1381T1297 983Z" />
<glyph unicode="1" glyph-name="one" horiz-adv-x="1131" d="M64 266H404L591 1231L228 1159L279 1421L640 1493H1006L769 266H1107L1056 0H11L64 266Z" />
<glyph unicode="2" glyph-name="two" horiz-adv-x="1327" d="M503 283H1152L1097 0H13L69 285L704 764Q808 844 862 926T917 1085Q917 1167 861 1212T704 1257Q609 1257 492 1220T228 1104L292 1421Q428 1471 559 1495T818 1520Q1046 1520 1177 1422T1308 1153Q1308
1007 1228 887T876 563L503 283Z" />
<glyph unicode="3" glyph-name="three" horiz-adv-x="1332" d="M977 805Q1090 779 1153 700T1216 506Q1216 258 1020 115T479 -29Q349 -29 232 -11T10 45L67 342Q156 290 261 262T471 233Q640 233 738 296T837 467Q837 556 762 600T536 645H383L432 893H594Q751
893 842 950T934 1104Q934 1180 871 1220T686 1260Q601 1260 501 1238T293 1174L348 1456Q466 1488 580 1504T807 1520Q1060 1520 1187 1436T1315 1186Q1315 1037 1227 938T977 805Z" />
<glyph unicode="4" glyph-name="four" horiz-adv-x="1319" d="M846 1165L315 551H725L846 1165ZM836 1493H1274L1089 551H1302L1249 272H1036L983 0H618L672 272H0L65 602L836 1493Z" />
<glyph unicode="5" glyph-name="five" horiz-adv-x="1321" d="M347 1493H1304L1249 1210H599L554 979Q598 991 645 997T741 1004Q970 1004 1099 900T1228 610Q1228 316 1029 144T489 -29Q364 -29 246 -5T12 70L71 373Q182 301 286 267T499 233Q657 233 752 315T847
532Q847 628 775 684T579 741Q495 741 398 720T184 653L347 1493Z" />
<glyph unicode="6" glyph-name="six" horiz-adv-x="1285" d="M656 737Q542 737 469 643T396 401Q396 312 441 263T566 213Q679 213 752 305T826 539Q826 635 782 686T656 737ZM1267 1454L1213 1178Q1127 1222 1046 1244T884 1266Q698 1266 583 1166T443 885Q521
936 603 960T779 985Q963 985 1080 876T1197 598Q1197 322 1017 146T552 -31Q297 -31 157 113T17 522Q17 726 79 911T253 1231Q373 1374 536 1446T904 1518Q998 1518 1087 1502T1267 1454Z" />
<glyph unicode="7" glyph-name="seven" horiz-adv-x="1284" d="M158 1493H1284L1239 1274L408 0H23L813 1210H105L158 1493Z" />
<glyph unicode="8" glyph-name="eight" horiz-adv-x="1336" d="M657 668Q540 668 462 589T383 393Q383 310 434 262T573 213Q692 213 770 291T848 487Q848 570 797 619T657 668ZM411 795Q303 840 250 912T196 1085Q196 1288 362 1404T823 1520Q1059 1520 1189
1432T1319 1184Q1319 1042 1229 941T970 795Q1092 748 1150 669T1208 469Q1208 239 1029 105T536 -29Q289 -29 152 69T14 344Q14 503 119 622T411 795ZM788 1278Q686 1278 625 1219T563 1061Q563 993 607 951T725 909Q827 909 888 968T950 1126Q950 1195 906 1236T788
1278Z" />
<glyph unicode="9" glyph-name="nine" horiz-adv-x="1286" d="M18 33L71 309Q158 264 239 243T401 221Q587 221 702 321T841 602Q764 551 682 527T507 502Q324 502 207 611T90 889Q90 1165 270 1341T735 1518Q990 1518 1129 1374T1269 965Q1269 762 1207 577T1032
256Q912 113 750 41T383 -31Q288 -31 198 -15T18 33ZM628 750Q742 750 815 844T888 1085Q888 1176 845 1225T720 1274Q607 1274 533 1181T458 948Q458 852 502 801T628 750Z" />
<glyph unicode=":" glyph-name="colon" horiz-adv-x="590" d="M223 1120H584L510 733H149L223 1120ZM82 387H442L366 0H6L82 387Z" />
<glyph unicode=";" glyph-name="semicolon" horiz-adv-x="736" d="M233 387H593L534 82L214 -291H1L173 82L233 387ZM374 1120H735L661 733H300L374 1120Z" />
<glyph unicode="&lt;" glyph-name="less" horiz-adv-x="1298" d="M1282 973L318 641L1282 311V61L0 524V760L1282 1223V973Z" />
<glyph unicode="=" glyph-name="equal" horiz-adv-x="1330" d="M39 987H1321V752H39V987ZM39 532H1321V295H39V532Z" />
<glyph unicode="&gt;" glyph-name="greater" horiz-adv-x="1321" d="M39 973V1223L1321 760V524L39 61V311L1004 641L39 973Z" />
<glyph unicode="?" glyph-name="question" horiz-adv-x="947" d="M95 356H455L385 0H25L95 356ZM484 504H123L131 553Q147 633 190 695T365 860L439 918Q518 979 554 1032T590 1139Q590 1196 550 1226T433 1257Q353 1257 253 1224T37 1124L99 1438Q226 1480 331
1500T533 1520Q727 1520 837 1435T947 1200Q947 1081 894 987T713 791L637 731Q557 669 529 631T492 549L484 504Z" />
<glyph unicode="@" glyph-name="at" horiz-adv-x="1837" d="M961 801Q855 801 779 696T703 446Q703 362 743 318T861 274Q967 274 1041 374T1115 621Q1115 707 1075 754T961 801ZM1074 246Q1029 171 954 130T789 88Q646 88 564 182T482 444Q482 665 624 826T963
987Q1046 987 1108 945T1191 834L1215 967H1418L1285 274Q1436 296 1537 437T1639 770Q1639 983 1475 1118T1047 1253Q851 1253 683 1177T396 958Q304 848 256 716T208 442Q208 173 373 3T799 -168Q917 -168 1032 -125T1252 2L1361 -156Q1215 -254 1072 -303T787
-352Q652 -352 527 -311T304 -193Q164 -85 92 74T19 434Q19 610 79 774T253 1075Q399 1251 604 1345T1047 1440Q1213 1440 1354 1394T1606 1255Q1711 1166 1768 1047T1825 797Q1825 482 1621 285T1084 88Q1079 88 1070 87T1057 86Q1052 86 1049 86T1043 88L1074
246Z" />
<glyph unicode="A" glyph-name="A" horiz-adv-x="1570" d="M1140 272H544L396 0H1L845 1493H1285L1549 0H1183L1140 272ZM689 543H1090L1000 1118L689 543Z" />
<glyph unicode="B" glyph-name="B" horiz-adv-x="1428" d="M793 915Q896 915 954 967T1012 1110Q1012 1169 972 1200T855 1231H640L578 915H793ZM679 262Q811 262 882 325T953 506Q953 581 904 617T754 653H527L451 262H679ZM1135 799Q1233 771 1286 697T1340
512Q1340 271 1161 136T656 0H17L308 1493H885Q1151 1493 1278 1415T1406 1174Q1406 1037 1331 934T1135 799Z" />
<glyph unicode="C" glyph-name="C" horiz-adv-x="1440" d="M1183 70Q1045 21 918 -4T677 -29Q376 -29 196 136T16 573Q16 752 73 910T241 1200Q372 1354 556 1437T954 1520Q1070 1520 1187 1493T1425 1409L1363 1100Q1267 1173 1170 1207T962 1241Q731 1241 575
1063T419 618Q419 446 515 348T780 250Q881 250 994 286T1249 401L1183 70Z" />
<glyph unicode="D" glyph-name="D" horiz-adv-x="1604" d="M640 1202L461 291H599Q868 291 1025 442T1182 850Q1182 1024 1080 1113T775 1202H640ZM310 1493H715Q1005 1493 1150 1459T1391 1343Q1488 1262 1537 1147T1586 885Q1586 682 1503 503T1268 201Q1136
92 962 46T425 0H19L310 1493Z" />
<glyph unicode="E" glyph-name="E" horiz-adv-x="1362" d="M307 1493H1345L1288 1202H635L581 924H1196L1138 633H524L458 291H1132L1077 0H16L307 1493Z" />
<glyph unicode="F" glyph-name="F" horiz-adv-x="1345" d="M307 1493H1345L1288 1202H635L581 924H1196L1138 633H524L401 0H16L307 1493Z" />
<glyph unicode="G" glyph-name="G" horiz-adv-x="1556" d="M1338 111Q1192 40 1035 6T699 -29Q381 -29 199 132T17 573Q17 754 74 912T244 1202Q382 1362 569 1441T998 1520Q1132 1520 1268 1492T1536 1409L1477 1100Q1355 1171 1239 1206T1004 1241Q746 1241
584 1069T422 627Q422 448 516 349T783 250Q839 250 895 257T1008 281L1065 571H830L879 829H1477L1338 111Z" />
<glyph unicode="H" glyph-name="H" horiz-adv-x="1667" d="M311 1493H696L585 924H1153L1263 1493H1648L1357 0H972L1095 633H528L405 0H20L311 1493Z" />
<glyph unicode="I" glyph-name="I" horiz-adv-x="684" d="M295 1493H680L389 0H4L295 1493Z" />
<glyph unicode="J" glyph-name="J" horiz-adv-x="1064" d="M674 1493H1059L797 145Q739 -147 570 -278T78 -410H0L57 -119H117Q236 -119 311 -52T412 145L674 1493Z" />
<glyph unicode="K" glyph-name="K" horiz-adv-x="1703" d="M311 1493H696L591 956L1226 1493H1691L835 768L1480 0H1028L526 623L405 0H20L311 1493Z" />
<glyph unicode="L" glyph-name="L" horiz-adv-x="1132" d="M304 1493H689L455 291H1129L1074 0H13L304 1493Z" />
<glyph unicode="M" glyph-name="M" horiz-adv-x="1996" d="M313 1493H786L978 700L1482 1493H1974L1683 0H1318L1531 1102L1013 287H806L600 1102L387 0H22L313 1493Z" />
<glyph unicode="N" glyph-name="N" horiz-adv-x="1667" d="M311 1493H741L1083 459L1284 1493H1648L1357 0H927L585 1034L385 0H20L311 1493Z" />
<glyph unicode="O" glyph-name="O" horiz-adv-x="1631" d="M1205 881Q1205 1057 1126 1149T895 1241Q695 1241 560 1062T424 612Q424 440 503 345T723 250Q838 250 927 298T1080 442Q1140 533 1172 647T1205 881ZM951 1520Q1249 1520 1430 1355T1612 922Q1612
740 1557 578T1395 287Q1265 128 1088 50T678 -29Q381 -29 200 136T19 569Q19 752 74 914T236 1206Q364 1364 541 1442T951 1520Z" />
<glyph unicode="P" glyph-name="P" horiz-adv-x="1448" d="M308 1493H947Q1182 1493 1314 1386T1447 1087Q1447 970 1403 865T1277 680Q1188 595 1065 557T756 518H502L402 0H17L308 1493ZM640 1214L558 797H771Q907 797 979 861T1051 1047Q1051 1128 1000 1171T851
1214H640Z" />
<glyph unicode="Q" glyph-name="Q" horiz-adv-x="1618" d="M696 -27Q685 -28 674 -28T638 -29Q525 -29 425 2T243 94Q133 175 72 300T10 569Q10 752 65 914T227 1206Q356 1365 532 1442T942 1520Q1240 1520 1421 1355T1603 922Q1603 608 1451 372T1026 27L1255
-299H888L696 -27ZM1196 881Q1196 1057 1117 1149T886 1241Q686 1241 551 1062T415 612Q415 440 494 345T714 250Q829 250 918 298T1071 442Q1131 533 1163 647T1196 881Z" />
<glyph unicode="R" glyph-name="R" horiz-adv-x="1405" d="M726 831Q857 831 924 892T992 1071Q992 1145 946 1179T799 1214H640L564 831H726ZM513 565L402 0H17L308 1493H877Q1123 1493 1250 1401T1377 1130Q1377 949 1277 832T1006 698Q1084 682 1136 619T1227
424L1354 0H971L859 371Q825 482 777 523T636 565H513Z" />
<glyph unicode="S" glyph-name="S" horiz-adv-x="1360" d="M1343 1446L1281 1130Q1168 1186 1058 1213T843 1241Q699 1241 619 1196T538 1071Q538 1020 573 992T720 936L878 897Q1076 847 1168 753T1261 508Q1261 265 1077 118T581 -29Q436 -29 293 -2T12 78L73
403Q206 326 331 288T579 250Q711 250 793 304T876 442Q876 497 839 527T677 590L520 629Q346 672 261 765T176 1006Q176 1239 354 1379T835 1520Q956 1520 1083 1502T1343 1446Z" />
<glyph unicode="T" glyph-name="T" horiz-adv-x="1450" d="M74 1493H1450L1393 1202H897L663 0H278L512 1202H16L74 1493Z" />
<glyph unicode="U" glyph-name="U" horiz-adv-x="1520" d="M220 1493H605L431 599Q421 551 417 514T412 449Q412 351 464 303T621 254Q761 254 836 332T947 598L1121 1493H1506L1332 598Q1267 268 1086 120T566 -29Q301 -29 163 84T25 414Q25 450 30 494T46 598L220
1493Z" />
<glyph unicode="V" glyph-name="V" horiz-adv-x="1585" d="M156 1493H522L705 377L1323 1493H1720L877 0H418L156 1493Z" />
<glyph unicode="W" glyph-name="W" horiz-adv-x="2166" d="M34 1493H390L436 408L905 1493H1271L1320 408L1773 1493H2156L1513 0H1077L1027 1135L544 0H98L34 1493Z" />
<glyph unicode="X" glyph-name="X" horiz-adv-x="1792" d="M1132 756L1498 0H1107L864 500L427 0H12L683 766L329 1493H722L952 1024L1361 1493H1779L1132 756Z" />
<glyph unicode="Y" glyph-name="Y" horiz-adv-x="1542" d="M14 1493H399L653 940L1097 1493H1542L805 623L684 0H299L420 623L14 1493Z" />
<glyph unicode="Z" glyph-name="Z" horiz-adv-x="1607" d="M331 1493H1587L1539 1255L571 291H1376L1318 0H18L63 238L1034 1202H274L331 1493Z" />
<glyph unicode="[" glyph-name="bracketleft" horiz-adv-x="983" d="M361 1556H981L936 1331H658L389 -45H670L625 -270H7L361 1556Z" />
<glyph unicode="\" glyph-name="backslash" horiz-adv-x="424" d="M201 -190L2 1493H224L422 -190H201Z" />
<glyph unicode="]" glyph-name="bracketright" horiz-adv-x="984" d="M622 -270H2L45 -45H325L594 1331H313L356 1556H977L622 -270Z" />
<glyph unicode="^" glyph-name="asciicircum" horiz-adv-x="1312" d="M779 1493L1307 936H1066L656 1237L247 936H5L533 1493H779Z" />
<glyph unicode="_" glyph-name="underscore" horiz-adv-x="1140" d="M1102 -293V-483H38V-293H1102Z" />
<glyph unicode="`" glyph-name="grave" horiz-adv-x="496" d="M283 1638L492 1262H295L0 1638H283Z" />
<glyph unicode="a" glyph-name="a" horiz-adv-x="1257" d="M655 504Q521 504 453 463T384 340Q384 279 424 244T536 209Q646 209 720 275T819 463L827 504H655ZM1214 639L1089 0H731L761 166Q673 66 575 19T362 -29Q203 -29 110 53T16 276Q16 490 181 603T659
717H870L874 745Q877 759 877 765T878 776Q878 842 816 875T630 909Q519 909 415 886T214 817L268 1090Q380 1118 497 1132T741 1147Q990 1147 1111 1062T1232 801Q1232 767 1228 727T1214 639Z" />
<glyph unicode="b" glyph-name="b" horiz-adv-x="1344" d="M783 887Q645 887 558 760T470 428Q470 336 519 284T657 231Q792 231 880 356T968 678Q968 780 921 833T783 887ZM407 162L374 0H15L317 1556H677L560 956Q642 1054 732 1100T929 1147Q1118 1147 1228
1027T1338 700Q1338 571 1300 449T1189 227Q1098 101 984 36T738 -29Q623 -29 543 17T407 162Z" />
<glyph unicode="c" glyph-name="c" horiz-adv-x="1146" d="M1130 1085L1073 793Q1001 841 931 866T794 891Q619 891 508 774T397 473Q397 356 466 292T661 227Q745 227 826 252T980 326L925 33Q836 2 746 -13T565 -29Q301 -29 159 89T16 426Q16 563 68 692T219
924Q328 1037 469 1092T794 1147Q879 1147 963 1132T1130 1085Z" />
<glyph unicode="d" glyph-name="d" horiz-adv-x="1427" d="M558 231Q696 231 782 358T869 690Q869 783 821 835T685 887Q549 887 461 762T373 440Q373 338 420 285T558 231ZM935 956L1051 1556H1412L1109 0H748L781 162Q699 64 609 18T412 -29Q223 -29 113 91T3
418Q3 547 41 669T152 891Q243 1017 357 1082T603 1147Q718 1147 798 1101T935 956Z" />
<glyph unicode="e" glyph-name="e" horiz-adv-x="1275" d="M1232 518L1220 461H382Q382 455 381 444T380 426Q380 317 445 263T642 209Q755 209 880 243T1144 344L1089 66Q958 18 829 -5T565 -29Q303 -29 161 92T18 434Q18 562 63 682T196 903Q299 1023 442 1085T761
1147Q988 1147 1121 1026T1255 700Q1255 660 1250 616T1232 518ZM894 682Q897 695 898 708T900 735Q900 815 852 862T722 909Q617 909 544 852T431 682H894Z" />
<glyph unicode="f" glyph-name="f" horiz-adv-x="1015" d="M1015 1556L968 1321H771Q696 1321 662 1294T614 1199L597 1120H900L851 864H548L380 0H20L188 864H11L61 1120H237L253 1198Q290 1384 407 1470T740 1556H1015Z" />
<glyph unicode="g" glyph-name="g" horiz-adv-x="1389" d="M836 190Q750 92 661 46T467 0Q277 0 167 122T56 457Q56 570 94 683T205 897Q293 1018 407 1081T652 1145Q770 1145 850 1099T986 954L1016 1120H1377L1188 147Q1130 -154 940 -298T412 -442Q308 -442
212 -426T21 -377L74 -98Q159 -152 244 -178T418 -205Q596 -205 691 -129T820 113L836 190ZM736 887Q604 887 517 768T429 469Q429 367 476 314T613 260Q744 260 832 378T920 674Q920 778 873 832T736 887Z" />
<glyph unicode="h" glyph-name="h" horiz-adv-x="1300" d="M1273 682L1140 0H781L894 584Q906 641 912 680T919 743Q919 807 884 842T783 877Q672 877 593 791T482 551L374 0H15L317 1556H677L560 956Q659 1053 759 1100T968 1147Q1123 1147 1207 1066T1291 838Q1291
806 1287 767T1273 682Z" />
<glyph unicode="i" glyph-name="i" horiz-adv-x="668" d="M221 1120H581L362 0H3L221 1120ZM305 1556H665L608 1264H247L305 1556Z" />
<glyph unicode="j" glyph-name="j" horiz-adv-x="990" d="M543 1120H903L688 20Q642 -215 517 -328T178 -442H0L45 -207H108Q209 -207 255 -162T328 20L543 1120ZM627 1556H987L930 1264H569L627 1556Z" />
<glyph unicode="k" glyph-name="k" horiz-adv-x="1420" d="M319 1556H679L515 713L998 1120H1420L769 602L1242 0H833L470 483L376 0H17L319 1556Z" />
<glyph unicode="l" glyph-name="l" horiz-adv-x="668" d="M305 1556H665L362 0H3L305 1556Z" />
<glyph unicode="m" glyph-name="m" horiz-adv-x="2007" d="M1246 934Q1329 1037 1434 1092T1654 1147Q1804 1147 1890 1065T1977 838Q1977 808 1973 770T1959 682L1826 0H1465L1578 584L1581 599Q1607 723 1607 758Q1607 813 1576 845T1490 877Q1387 877 1316
793T1213 551L1105 0H744L859 584Q874 659 880 697T886 758Q886 814 855 845T769 877Q670 877 596 790T492 551L384 0H25L243 1120H603L570 956Q654 1051 749 1099T947 1147Q1063 1147 1146 1088T1246 934Z" />
<glyph unicode="n" glyph-name="n" horiz-adv-x="1322" d="M1277 682L1144 0H785L898 584Q910 641 916 680T923 743Q923 807 888 842T787 877Q676 877 597 791T486 551L378 0H19L237 1120H597L564 956Q663 1053 763 1100T972 1147Q1127 1147 1211 1066T1295 838Q1295
806 1291 767T1277 682Z" />
<glyph unicode="o" glyph-name="o" horiz-adv-x="1296" d="M713 891Q574 891 484 765T394 444Q394 338 442 283T584 227Q723 227 813 353T903 676Q903 781 855 836T713 891ZM742 1147Q992 1147 1135 1020T1278 674Q1278 547 1233 428T1102 209Q1000 91 861 31T551
-29Q304 -29 162 98T19 444Q19 570 65 690T197 911Q297 1027 435 1087T742 1147Z" />
<glyph unicode="p" glyph-name="p" horiz-adv-x="1424" d="M490 162L375 -426H15L316 1120H676L643 956Q725 1054 815 1100T1012 1147Q1201 1147 1311 1027T1421 700Q1421 571 1383 449T1272 227Q1181 101 1067 36T821 -29Q706 -29 626 17T490 162ZM866 887Q728
887 641 760T553 428Q553 336 602 284T740 231Q875 231 963 356T1051 678Q1051 780 1004 833T866 887Z" />
<glyph unicode="q" glyph-name="q" horiz-adv-x="1344" d="M938 956L968 1120H1329L1028 -426H667L782 162Q702 64 612 18T415 -29Q226 -29 116 91T6 418Q6 547 44 669T155 891Q246 1017 360 1082T606 1147Q721 1147 801 1101T938 956ZM561 231Q699 231 785 358T872
690Q872 783 824 835T688 887Q552 887 464 762T376 440Q376 338 423 285T561 231Z" />
<glyph unicode="r" glyph-name="r" horiz-adv-x="1069" d="M1006 815Q969 836 924 847T827 858Q690 858 600 770T477 516L375 0H16L234 1120H594L555 928Q626 1034 732 1090T969 1147Q988 1147 1012 1145T1069 1139L1006 815Z" />
<glyph unicode="s" glyph-name="s" horiz-adv-x="1160" d="M1141 1085L1088 807Q983 857 879 883T682 909Q576 909 519 882T461 803Q461 773 493 755T619 717L684 705Q901 659 988 587T1075 385Q1075 190 922 81T494 -29Q379 -29 259 -11T14 43L68 324Q165 267
275 238T502 209Q615 209 672 236T729 315Q729 351 697 371T565 412L500 424Q308 464 226 542T144 758Q144 945 285 1046T690 1147Q805 1147 916 1132T1141 1085Z" />
<glyph unicode="t" glyph-name="t" horiz-adv-x="968" d="M661 1438L600 1120H966L915 864H549L457 390Q453 374 452 363T450 342Q450 296 480 276T583 256H768L717 0H416Q254 0 169 68T84 264Q84 292 87 324T96 389L188 864H12L61 1120H239L301 1438H661Z" />
<glyph unicode="u" glyph-name="u" horiz-adv-x="1318" d="M43 436L174 1120H533L420 537Q408 480 402 440T396 377Q396 314 431 279T531 244Q642 244 722 330T832 569L940 1120H1299L1082 0H721L754 164Q662 67 561 19T348 -29Q195 -29 111 52T27 281Q27 316
31 355T43 436Z" />
<glyph unicode="v" glyph-name="v" horiz-adv-x="1281" d="M20 1120H350L495 338L917 1120H1280L622 0H243L20 1120Z" />
<glyph unicode="w" glyph-name="w" horiz-adv-x="1763" d="M33 1120H363L402 350L740 1120H1024L1065 352L1401 1120H1753L1241 0H861L824 770L482 0H111L33 1120Z" />
<glyph unicode="x" glyph-name="x" horiz-adv-x="1486" d="M550 573L253 1120H625L791 788L1082 1120H1471L961 575L1273 0H900L724 354L402 0H13L550 573Z" />
<glyph unicode="y" glyph-name="y" horiz-adv-x="1430" d="M158 1120H496L650 344L1047 1120H1430L721 -106Q602 -313 501 -377T240 -442H23L60 -207H173Q261 -207 309 -178T396 -74L429 -14L158 1120Z" />
<glyph unicode="z" glyph-name="z" horiz-adv-x="1255" d="M259 1120H1236L1187 870L489 256H1068L1019 0H18L65 250L765 864H210L259 1120Z" />
<glyph unicode="{" glyph-name="braceleft" horiz-adv-x="1158" d="M831 -109L788 -334H570Q391 -334 301 -273T210 -88Q210 -66 213 -36T224 34L261 227Q267 257 270 284T273 334Q273 422 228 458T65 494H1L46 717H108Q249 717 314 775T409 983L448 1188Q485
1381 601 1468T937 1556H1154L1111 1331H1041Q902 1331 851 1288T771 1102L738 936Q708 780 649 709T476 612Q556 591 593 546T630 424Q630 394 626 361T613 287L581 121Q572 75 569 51T566 10Q566 -57 606 -83T763 -109H831Z" />
<glyph unicode="|" glyph-name="bar" horiz-adv-x="305" d="M265 1565V-483H38V1565H265Z" />
<glyph unicode="}" glyph-name="braceright" horiz-adv-x="1156" d="M47 -109H117Q257 -109 308 -65T387 121L420 287Q450 442 509 514T684 612Q604 631 566 676T528 799Q528 823 532 857T545 936L578 1102Q586 1144 589 1169T592 1212Q592 1280 552 1305T395
1331H328L371 1556H590Q769 1556 858 1495T948 1311Q948 1283 945 1253T934 1188L895 983Q889 953 886 926T883 877Q883 789 929 753T1092 717H1155L1110 494H1049Q908 494 843 436T748 227L711 35Q674 -158 557 -246T221 -334H4L47 -109Z" />
<glyph unicode="~" glyph-name="asciitilde" horiz-adv-x="1332" d="M1307 850V606Q1201 526 1112 492T926 457Q819 457 676 515Q662 521 654 524Q647 527 632 533Q477 594 383 594Q295 594 209 556T25 434V678Q132 758 221 792T406 827Q513 827 656 769Q671 763
678 760Q685 757 700 751Q855 690 949 690Q1035 690 1119 727T1307 850Z" />
<glyph unicode="&#xa0;" glyph-name="nbspace" horiz-adv-x="713" />
<glyph unicode="&#xa1;" glyph-name="exclamdown" horiz-adv-x="658" d="M585 1137H224L294 1493H655L585 1137ZM364 0H3L116 573L247 991H505L476 573L364 0Z" />
<glyph unicode="&#xa2;" glyph-name="cent" horiz-adv-x="1115" d="M606 856Q504 810 443 706T381 473Q381 399 409 345T490 264L606 856ZM1114 1085L1057 793Q982 843 915 867T783 891H774L646 227Q735 229 814 253T965 326L909 33Q837 8 759 -7T596 -27L541
-313H379L434 -23Q233 -1 118 115T2 414Q2 705 184 906T662 1141L717 1432H879L824 1145Q892 1143 965 1128T1114 1085Z" />
<glyph unicode="&#xa3;" glyph-name="sterling" horiz-adv-x="1422" d="M1404 1466L1349 1180Q1290 1217 1220 1237T1079 1257Q954 1257 884 1196T788 1001L755 831H1128L1083 592H708L644 266H1185L1134 0H3L55 266H280L343 592H151L196 831H390L423 1001Q475
1271 626 1395T1052 1520Q1144 1520 1232 1507T1404 1466Z" />
<glyph unicode="&#xa4;" glyph-name="currency" horiz-adv-x="1208" d="M386 268L179 61L26 215L233 422Q205 471 191 524T177 641Q177 704 192 758T237 858L28 1063L181 1217L388 1010Q436 1040 490 1054T605 1069Q659 1069 713 1056T824 1014L1031 1221L1183
1067L976 860Q1005 805 1019 750T1033 641Q1033 578 1019 526T974 426L1181 219L1027 66L820 272Q774 242 721 228T605 213Q547 213 493 226T386 268ZM605 422Q696 422 760 485T824 641Q824 733 761 796T605 860Q514 860 450 797T386 641Q386 548 449 485T605 422Z"
/>
<glyph unicode="&#xa5;" glyph-name="yen" horiz-adv-x="1545" d="M1291 416H837L755 0H374L456 416H9L48 610H493L507 686L478 762H77L114 954H405L190 1493H558L753 993L1138 1493H1543L1103 954H1396L1359 762H951L892 686L874 610H1328L1291 416Z" />
<glyph unicode="&#xa6;" glyph-name="brokenbar" horiz-adv-x="288" d="M265 1432V674H38V1432H265ZM265 408V-350H38V408H265Z" />
<glyph unicode="&#xa7;" glyph-name="section" horiz-adv-x="1105" d="M1091 1462L1048 1235Q958 1275 886 1294T753 1313Q673 1313 626 1283T579 1202Q579 1172 603 1147T685 1096L775 1055Q950 977 1014 902T1078 715Q1078 592 1001 497T777 344Q834 308 861
264T888 166Q888 4 747 -95T370 -195Q286 -195 196 -181T11 -137L59 100Q161 57 241 36T382 14Q459 14 507 45T556 125Q556 156 532 179T429 240L294 301Q175 355 119 428T63 604Q63 727 136 822T351 977Q299 1018 274 1064T249 1163Q249 1319 387 1419T747 1520Q830
1520 916 1506T1091 1462ZM523 854Q443 833 401 789T358 682Q358 621 406 578T618 471Q698 498 742 543T786 645Q786 706 729 752T523 854Z" />
<glyph unicode="&#xa8;" glyph-name="dieresis" horiz-adv-x="741" d="M78 1585H316L267 1339H31L78 1585ZM476 1585H711L662 1339H427L476 1585Z" />
<glyph unicode="&#xa9;" glyph-name="copyright" horiz-adv-x="1518" d="M1058 1126V911Q1001 948 946 965T833 983Q720 983 657 919T593 741Q593 626 656 563T833 500Q897 500 954 518T1058 571V358Q993 336 928 325T800 313Q589 313 462 430T335 741Q335 936
462 1052T800 1169Q869 1169 933 1159T1058 1126ZM759 1331Q638 1331 534 1288T343 1157Q256 1070 213 967T169 741Q169 620 212 517T343 326Q429 240 533 197T759 154Q882 154 985 196T1175 326Q1262 413 1305 516T1349 741Q1349 863 1306 966T1175 1157Q1087
1245 984 1288T759 1331ZM759 1485Q911 1485 1042 1430T1283 1266Q1392 1157 1446 1026T1500 741Q1500 589 1446 459T1283 219Q1174 110 1043 55T759 0Q607 0 476 55T235 219Q126 328 72 458T18 741Q18 895 72 1026T235 1266Q344 1375 475 1430T759 1485Z" />
<glyph unicode="&#xaa;" glyph-name="ordfeminine" horiz-adv-x="1025" d="M51 573H866L827 373H12L51 573ZM616 1081Q468 1081 412 1053T356 954Q356 910 387 884T471 858Q555 858 620 914T702 1059L706 1081H616ZM993 1165L907 717H659L684 842Q618 766 543
731T366 696Q241 696 172 751T102 907Q102 1062 225 1140T592 1219H733L737 1239Q738 1243 738 1248T739 1264Q739 1308 701 1331T586 1354Q498 1354 411 1337T239 1284L274 1464Q372 1492 459 1506T622 1520Q808 1520 905 1456T1003 1270Q1003 1239 1001 1214T993
1165Z" />
<glyph unicode="&#xab;" glyph-name="guillemotleft" horiz-adv-x="1118" d="M1097 1063L1047 811L701 582L959 360L916 137L494 506L531 692L1097 1063ZM607 1063L558 811L212 582L470 360L427 137L5 506L42 692L607 1063Z" />
<glyph unicode="&#xac;" glyph-name="logicalnot" horiz-adv-x="1320" d="M0 909H1282V287H1047V672H0V909Z" />
<glyph unicode="&#xad;" glyph-name="sfthyphen" horiz-adv-x="744" d="M87 735H715L658 444H29L87 735Z" />
<glyph unicode="&#xae;" glyph-name="registered" horiz-adv-x="1518" d="M759 1331Q638 1331 534 1288T343 1157Q256 1070 213 967T169 741Q169 620 212 517T343 326Q429 240 533 197T759 154Q882 154 985 196T1175 326Q1262 413 1305 516T1349 741Q1349 863
1306 966T1175 1157Q1087 1245 984 1288T759 1331ZM702 1036H667V829H702Q780 829 819 855T859 934Q859 986 821 1011T702 1036ZM739 1174Q915 1174 1002 1115T1089 934Q1089 848 1037 792T888 719Q929 697 964 657T1029 559L1140 338H911L804 551Q766 629 737
661T679 694H667V338H454V1174H739ZM759 1485Q911 1485 1042 1430T1283 1266Q1392 1157 1446 1026T1500 741Q1500 589 1446 459T1283 219Q1174 110 1043 55T759 0Q607 0 476 55T235 219Q126 328 72 458T18 741Q18 895 72 1026T235 1266Q344 1375 475 1430T759 1485Z"
/>
<glyph unicode="&#xaf;" glyph-name="overscore" horiz-adv-x="732" d="M69 1556H700L663 1368H32L69 1556Z" />
<glyph unicode="&#xb0;" glyph-name="degree" horiz-adv-x="703" d="M353 1372Q281 1372 231 1322T181 1200Q181 1128 230 1079T353 1030Q425 1030 475 1079T525 1200Q525 1272 475 1322T353 1372ZM353 1534Q419 1534 480 1509T589 1436Q636 1388 660 1328T685
1200Q685 1133 661 1073T591 967Q543 919 481 894T351 868Q210 868 115 963T19 1200Q19 1341 115 1437T353 1534Z" />
<glyph unicode="&#xb1;" glyph-name="plusminus" horiz-adv-x="1302" d="M770 1284V930H1292V694H770V340H532V694H10V930H532V1284H770ZM10 238H1292V0H10V238Z" />
<glyph unicode="&#xb2;" glyph-name="twosuperior" horiz-adv-x="823" d="M344 836H721L688 668H12L43 821L409 1087Q489 1145 528 1194T567 1286Q567 1326 535 1349T444 1372Q376 1372 303 1349T158 1282L194 1468Q277 1494 351 1507T495 1520Q644 1520 723 1466T803
1311Q803 1232 749 1158T575 999L344 836Z" />
<glyph unicode="&#xb3;" glyph-name="threesuperior" horiz-adv-x="823" d="M597 1120Q672 1107 711 1061T750 938Q750 801 633 727T300 653Q220 653 148 665T13 700L46 872Q104 836 163 818T283 799Q392 799 453 837T515 942Q515 996 466 1021T312 1047H236L263
1184H349Q455 1184 511 1213T568 1296Q568 1334 530 1353T418 1372Q364 1372 301 1359T160 1319L191 1485Q263 1502 337 1511T484 1520Q639 1520 722 1470T805 1327Q805 1246 749 1190T597 1120Z" />
<glyph unicode="&#xb4;" glyph-name="acute" horiz-adv-x="640" d="M347 1638H640L202 1262H1L347 1638Z" />
<glyph unicode="&#xb5;" glyph-name="mu" horiz-adv-x="1448" d="M17 -428L318 1120H678L551 469Q547 448 545 428T543 391Q543 318 586 279T711 240Q813 240 873 296T957 469L1084 1120H1444L1299 371Q1295 350 1293 333T1291 301Q1291 272 1304 258T1346 244Q1363
244 1382 249T1422 266L1372 16Q1315 -7 1266 -18T1172 -29Q1084 -29 1035 9T965 129Q903 50 828 11T664 -29Q590 -29 544 -6T475 66L379 -428H17Z" />
<glyph unicode="&#xb6;" glyph-name="paragraph" horiz-adv-x="1105" d="M575 1493H1095L767 -197H577L876 1346H687L386 -197H198L362 649Q194 669 103 761T12 1001Q12 1216 168 1354T575 1493Z" />
<glyph unicode="&#xb7;" glyph-name="middot" horiz-adv-x="477" d="M97 905H457L381 518H21L97 905Z" />
<glyph unicode="&#xb8;" glyph-name="cedilla" horiz-adv-x="508" d="M415 0Q452 -52 469 -96T486 -182Q486 -286 411 -343T198 -401Q149 -401 101 -395T1 -375L30 -219Q70 -236 110 -245T189 -254Q255 -254 293 -226T331 -150Q331 -124 318 -90T273 0H415Z" />
<glyph unicode="&#xb9;" glyph-name="onesuperior" horiz-adv-x="707" d="M44 825H249L351 1346L118 1294L148 1454L392 1503H611L478 825H685L654 668H13L44 825Z" />
<glyph unicode="&#xba;" glyph-name="ordmasculine" horiz-adv-x="1055" d="M640 1520Q823 1520 930 1430T1037 1186Q1037 967 890 833T499 698Q317 698 208 789T99 1032Q99 1249 248 1384T640 1520ZM54 573H877L839 373H15L54 573ZM615 1350Q516 1350 451 1258T386
1024Q386 948 421 908T523 868Q622 868 687 960T752 1194Q752 1269 717 1309T615 1350Z" />
<glyph unicode="&#xbb;" glyph-name="guillemotright" horiz-adv-x="1115" d="M21 135L70 389L414 618L158 840L201 1063L621 692L586 506L21 135ZM510 135L559 389L903 618L645 840L690 1063L1110 692L1075 506L510 135Z" />
<glyph unicode="&#xbc;" glyph-name="onequarter" horiz-adv-x="2120" d="M278 825H483L585 1346L352 1294L382 1454L626 1503H845L712 825H919L888 668H247L278 825ZM1163 -29H918L2153 1520H2398L1163 -29ZM1630 641L1328 318H1567L1630 641ZM1650 836H1898L1797
318H1934L1904 163H1767L1736 1H1506L1537 163H1146L1179 331L1650 836Z" />
<glyph unicode="&#xbd;" glyph-name="onehalf" horiz-adv-x="2120" d="M278 825H483L585 1346L352 1294L382 1454L626 1503H845L712 825H919L888 668H247L278 825ZM1583 169H1960L1927 1H1251L1282 154L1648 420Q1728 478 1767 527T1806 619Q1806 659 1774 682T1683
705Q1615 705 1542 682T1397 615L1433 801Q1516 827 1590 840T1734 853Q1883 853 1962 799T2042 644Q2042 565 1988 491T1814 332L1583 169ZM1163 -29H918L2153 1520H2398L1163 -29Z" />
<glyph unicode="&#xbe;" glyph-name="threequarters" horiz-adv-x="2120" d="M611 1120Q686 1107 725 1061T764 938Q764 801 647 727T314 653Q234 653 162 665T27 700L60 872Q118 836 177 818T297 799Q406 799 467 837T529 942Q529 996 480 1021T326 1047H250L277
1184H363Q469 1184 525 1213T582 1296Q582 1334 544 1353T432 1372Q378 1372 315 1359T174 1319L205 1485Q277 1502 351 1511T498 1520Q653 1520 736 1470T819 1327Q819 1246 763 1190T611 1120ZM1163 -29H918L2153 1520H2398L1163 -29ZM1630 641L1328 318H1567L1630
641ZM1650 836H1898L1797 318H1934L1904 163H1767L1736 1H1506L1537 163H1146L1179 331L1650 836Z" />
<glyph unicode="&#xbf;" glyph-name="questiondown" horiz-adv-x="948" d="M465 989H825L815 938Q800 858 757 797T583 633L508 573Q428 512 393 460T358 354Q358 297 398 267T514 236Q594 236 695 270T911 369L850 55Q723 13 618 -7T416 -27Q221 -27 111 58T0
293Q0 412 53 506T233 702L309 762Q392 827 420 864T456 944L465 989ZM854 1137H493L563 1493H923L854 1137Z" />
<glyph unicode="&#xc0;" glyph-name="Agrave" horiz-adv-x="1585" d="M1140 272H544L396 0H1L845 1493H1285L1549 0H1183L1140 272ZM689 543H1090L1000 1118L689 543ZM1612 1899L1756 1635H1578L1348 1899H1612Z" />
<glyph unicode="&#xc1;" glyph-name="Aacute" horiz-adv-x="1585" d="M1140 272H544L396 0H1L845 1493H1285L1549 0H1183L1140 272ZM689 543H1090L1000 1118L689 543ZM1597 1899H1877L1558 1635H1351L1597 1899Z" />
<glyph unicode="&#xc2;" glyph-name="Acircumflex" horiz-adv-x="1585" d="M1140 272H544L396 0H1L845 1493H1285L1549 0H1183L1140 272ZM689 543H1090L1000 1118L689 543ZM1602 1899H1950L2102 1635H1932L1768 1796L1537 1635H1358L1602 1899Z" />
<glyph unicode="&#xc3;" glyph-name="Atilde" horiz-adv-x="1585" d="M1140 272H544L396 0H1L845 1493H1285L1549 0H1183L1140 272ZM689 543H1090L1000 1118L689 543ZM1729 1686L1680 1723Q1656 1742 1640 1748T1605 1755Q1569 1755 1543 1723T1506 1635H1369Q1395
1763 1460 1832T1621 1901Q1658 1901 1690 1889T1758 1850L1811 1809Q1827 1796 1845 1789T1879 1782Q1918 1782 1944 1812T1981 1901H2119Q2093 1773 2028 1704T1869 1635Q1831 1635 1799 1646T1729 1686Z" />
<glyph unicode="&#xc4;" glyph-name="Adieresis" horiz-adv-x="1585" d="M1140 272H544L396 0H1L845 1493H1285L1549 0H1183L1140 272ZM689 543H1090L1000 1118L689 543ZM1426 1899H1662L1615 1653H1379L1426 1899ZM1821 1899H2059L2010 1653H1774L1821 1899Z" />
<glyph unicode="&#xc5;" glyph-name="Aring" horiz-adv-x="1567" d="M928 1616Q928 1562 966 1524T1059 1485Q1113 1485 1151 1523T1190 1616Q1190 1670 1151 1708T1059 1747Q1005 1747 967 1709T928 1616ZM1288 1456L1548 0H1182L1139 272H543L395 0H0L825 1458Q799
1495 787 1533T774 1616Q774 1733 857 1817T1059 1901Q1176 1901 1259 1817T1343 1616Q1343 1568 1330 1530T1288 1456ZM688 543H1089L999 1118L688 543Z" />
<glyph unicode="&#xc6;" glyph-name="AE" horiz-adv-x="2385" d="M1150 1237L775 627H1152L1271 1237H1150ZM939 1493H2360L2303 1202H1650L1597 924H2211L2154 633H1539L1474 291H2147L2092 0H1031L1099 350H607L390 0H5L939 1493Z" />
<glyph unicode="&#xc7;" glyph-name="Ccedilla" horiz-adv-x="1503" d="M1183 70Q1045 21 918 -4T677 -29Q376 -29 196 136T16 573Q16 752 73 910T241 1200Q372 1354 556 1437T954 1520Q1070 1520 1187 1493T1425 1409L1363 1100Q1267 1173 1170 1207T962 1241Q731
1241 575 1063T419 618Q419 446 515 348T780 250Q881 250 994 286T1249 401L1183 70ZM821 0Q858 -52 875 -96T892 -182Q892 -286 817 -343T604 -401Q555 -401 507 -395T407 -375L436 -219Q476 -236 516 -245T595 -254Q661 -254 699 -226T737 -150Q737 -124 724
-90T679 0H821Z" />
<glyph unicode="&#xc8;" glyph-name="Egrave" horiz-adv-x="1399" d="M307 1493H1345L1288 1202H635L581 924H1196L1138 633H524L458 291H1132L1077 0H16L307 1493ZM1571 1899L1715 1635H1537L1307 1899H1571Z" />
<glyph unicode="&#xc9;" glyph-name="Eacute" horiz-adv-x="1399" d="M307 1493H1345L1288 1202H635L581 924H1196L1138 633H524L458 291H1132L1077 0H16L307 1493ZM1556 1899H1836L1517 1635H1310L1556 1899Z" />
<glyph unicode="&#xca;" glyph-name="Ecircumflex" horiz-adv-x="1399" d="M307 1493H1345L1288 1202H635L581 924H1196L1138 633H524L458 291H1132L1077 0H16L307 1493ZM1561 1899H1909L2061 1635H1891L1727 1796L1496 1635H1317L1561 1899Z" />
<glyph unicode="&#xcb;" glyph-name="Edieresis" horiz-adv-x="1399" d="M307 1493H1345L1288 1202H635L581 924H1196L1138 633H524L458 291H1132L1077 0H16L307 1493ZM1385 1899H1621L1574 1653H1338L1385 1899ZM1780 1899H2018L1969 1653H1733L1780 1899Z" />
<glyph unicode="&#xcc;" glyph-name="Igrave" horiz-adv-x="762" d="M295 1493H680L389 0H4L295 1493ZM1214 1899L1358 1635H1180L950 1899H1214Z" />
<glyph unicode="&#xcd;" glyph-name="Iacute" horiz-adv-x="762" d="M295 1493H680L389 0H4L295 1493ZM1199 1899H1479L1160 1635H953L1199 1899Z" />
<glyph unicode="&#xce;" glyph-name="Icircumflex" horiz-adv-x="762" d="M295 1493H680L389 0H4L295 1493ZM1204 1899H1552L1704 1635H1534L1370 1796L1139 1635H960L1204 1899Z" />
<glyph unicode="&#xcf;" glyph-name="Idieresis" horiz-adv-x="762" d="M295 1493H680L389 0H4L295 1493ZM1028 1899H1264L1217 1653H981L1028 1899ZM1423 1899H1661L1612 1653H1376L1423 1899Z" />
<glyph unicode="&#xd0;" glyph-name="Eth" horiz-adv-x="1683" d="M715 1202L658 903H904L853 643H607L537 291H674Q945 291 1102 442T1260 850Q1260 1024 1157 1113T850 1202H715ZM386 1493H791Q1081 1493 1226 1459T1467 1343Q1564 1262 1614 1146T1664 885Q1664
684 1580 504T1344 201Q1212 92 1038 46T500 0H95L220 643H15L66 903H271L386 1493Z" />
<glyph unicode="&#xd1;" glyph-name="Ntilde" horiz-adv-x="1714" d="M311 1493H741L1083 459L1284 1493H1648L1357 0H927L585 1034L385 0H20L311 1493ZM1778 1686L1729 1723Q1705 1742 1689 1748T1654 1755Q1618 1755 1592 1723T1555 1635H1418Q1444 1763 1509
1832T1670 1901Q1707 1901 1739 1889T1807 1850L1860 1809Q1876 1796 1894 1789T1928 1782Q1967 1782 1993 1812T2030 1901H2168Q2142 1773 2077 1704T1918 1635Q1880 1635 1848 1646T1778 1686Z" />
<glyph unicode="&#xd2;" glyph-name="Ograve" horiz-adv-x="1741" d="M1205 881Q1205 1057 1126 1149T895 1241Q695 1241 560 1062T424 612Q424 440 503 345T723 250Q838 250 927 298T1080 442Q1140 533 1172 647T1205 881ZM951 1520Q1249 1520 1430 1355T1612
922Q1612 740 1557 578T1395 287Q1265 128 1088 50T678 -29Q381 -29 200 136T19 569Q19 752 74 914T236 1206Q364 1364 541 1442T951 1520ZM1732 1899L1876 1635H1698L1468 1899H1732Z" />
<glyph unicode="&#xd3;" glyph-name="Oacute" horiz-adv-x="1741" d="M1205 881Q1205 1057 1126 1149T895 1241Q695 1241 560 1062T424 612Q424 440 503 345T723 250Q838 250 927 298T1080 442Q1140 533 1172 647T1205 881ZM951 1520Q1249 1520 1430 1355T1612
922Q1612 740 1557 578T1395 287Q1265 128 1088 50T678 -29Q381 -29 200 136T19 569Q19 752 74 914T236 1206Q364 1364 541 1442T951 1520ZM1717 1899H1997L1678 1635H1471L1717 1899Z" />
<glyph unicode="&#xd4;" glyph-name="Ocircumflex" horiz-adv-x="1741" d="M1205 881Q1205 1057 1126 1149T895 1241Q695 1241 560 1062T424 612Q424 440 503 345T723 250Q838 250 927 298T1080 442Q1140 533 1172 647T1205 881ZM951 1520Q1249 1520 1430 1355T1612
922Q1612 740 1557 578T1395 287Q1265 128 1088 50T678 -29Q381 -29 200 136T19 569Q19 752 74 914T236 1206Q364 1364 541 1442T951 1520ZM1722 1899H2070L2222 1635H2052L1888 1796L1657 1635H1478L1722 1899Z" />
<glyph unicode="&#xd5;" glyph-name="Otilde" horiz-adv-x="1741" d="M1205 881Q1205 1057 1126 1149T895 1241Q695 1241 560 1062T424 612Q424 440 503 345T723 250Q838 250 927 298T1080 442Q1140 533 1172 647T1205 881ZM951 1520Q1249 1520 1430 1355T1612
922Q1612 740 1557 578T1395 287Q1265 128 1088 50T678 -29Q381 -29 200 136T19 569Q19 752 74 914T236 1206Q364 1364 541 1442T951 1520ZM1849 1686L1800 1723Q1776 1742 1760 1748T1725 1755Q1689 1755 1663 1723T1626 1635H1489Q1515 1763 1580 1832T1741 1901Q1778
1901 1810 1889T1878 1850L1931 1809Q1947 1796 1965 1789T1999 1782Q2038 1782 2064 1812T2101 1901H2239Q2213 1773 2148 1704T1989 1635Q1951 1635 1919 1646T1849 1686Z" />
<glyph unicode="&#xd6;" glyph-name="Odieresis" horiz-adv-x="1741" d="M1205 881Q1205 1057 1126 1149T895 1241Q695 1241 560 1062T424 612Q424 440 503 345T723 250Q838 250 927 298T1080 442Q1140 533 1172 647T1205 881ZM951 1520Q1249 1520 1430 1355T1612
922Q1612 740 1557 578T1395 287Q1265 128 1088 50T678 -29Q381 -29 200 136T19 569Q19 752 74 914T236 1206Q364 1364 541 1442T951 1520ZM1546 1899H1782L1735 1653H1499L1546 1899ZM1941 1899H2179L2130 1653H1894L1941 1899Z" />
<glyph unicode="&#xd7;" glyph-name="multiply" horiz-adv-x="1256" d="M1230 1075L796 641L1230 209L1062 41L628 473L194 41L26 209L460 641L26 1075L194 1243L628 809L1062 1243L1230 1075Z" />
<glyph unicode="&#xd8;" glyph-name="Oslash" horiz-adv-x="1951" d="M1302 1128Q1262 1185 1201 1213T1058 1241Q856 1241 722 1063T587 612Q587 590 591 538Q591 538 591 532L1302 1128ZM264 258Q222 332 201 410T180 569Q180 752 235 914T397 1206Q526 1365
702 1442T1112 1520Q1260 1520 1376 1481T1581 1364L1839 1579L1941 1456L1683 1243Q1728 1167 1750 1086T1773 920Q1773 738 1718 576T1556 285Q1426 127 1248 49T839 -29Q692 -29 574 12T364 135L112 -78L10 45L264 258ZM645 371Q684 312 745 281T884 250Q999
250 1088 298T1241 442Q1301 534 1334 648T1368 879Q1368 904 1361 957Q1360 965 1359 969L645 371Z" />
<glyph unicode="&#xd9;" glyph-name="Ugrave" horiz-adv-x="1663" d="M220 1493H605L431 599Q421 551 417 514T412 449Q412 351 464 303T621 254Q761 254 836 332T947 598L1121 1493H1506L1332 598Q1267 268 1086 120T566 -29Q301 -29 163 84T25 414Q25 450 30
494T46 598L220 1493ZM1653 1899L1797 1635H1619L1389 1899H1653Z" />
<glyph unicode="&#xda;" glyph-name="Uacute" horiz-adv-x="1663" d="M220 1493H605L431 599Q421 551 417 514T412 449Q412 351 464 303T621 254Q761 254 836 332T947 598L1121 1493H1506L1332 598Q1267 268 1086 120T566 -29Q301 -29 163 84T25 414Q25 450 30
494T46 598L220 1493ZM1638 1899H1918L1599 1635H1392L1638 1899Z" />
<glyph unicode="&#xdb;" glyph-name="Ucircumflex" horiz-adv-x="1663" d="M220 1493H605L431 599Q421 551 417 514T412 449Q412 351 464 303T621 254Q761 254 836 332T947 598L1121 1493H1506L1332 598Q1267 268 1086 120T566 -29Q301 -29 163 84T25 414Q25 450
30 494T46 598L220 1493ZM1643 1899H1991L2143 1635H1973L1809 1796L1578 1635H1399L1643 1899Z" />
<glyph unicode="&#xdc;" glyph-name="Udieresis" horiz-adv-x="1663" d="M220 1493H605L431 599Q421 551 417 514T412 449Q412 351 464 303T621 254Q761 254 836 332T947 598L1121 1493H1506L1332 598Q1267 268 1086 120T566 -29Q301 -29 163 84T25 414Q25 450
30 494T46 598L220 1493ZM1467 1899H1703L1656 1653H1420L1467 1899ZM1862 1899H2100L2051 1653H1815L1862 1899Z" />
<glyph unicode="&#xdd;" glyph-name="Yacute" horiz-adv-x="1483" d="M14 1493H399L653 940L1097 1493H1542L805 623L684 0H299L420 623L14 1493ZM1560 1899H1840L1521 1635H1314L1560 1899Z" />
<glyph unicode="&#xde;" glyph-name="Thorn" horiz-adv-x="1398" d="M308 1493H693L650 1270H896Q1131 1270 1264 1163T1397 864Q1397 747 1354 643T1227 459Q1138 373 1014 334T705 295H459L402 0H17L308 1493ZM595 993L515 573H719Q855 573 927 638T1000 825Q1000
907 950 950T801 993H595Z" />
<glyph unicode="&#xdf;" glyph-name="germandbls" horiz-adv-x="1339" d="M229 1114Q271 1338 425 1447T853 1556Q1079 1556 1196 1468T1314 1210Q1314 1190 1312 1166T1304 1115L1289 1042Q1138 1037 1049 991T960 872Q960 817 1062 745Q1071 739 1077 735L1138
692Q1222 633 1261 564T1300 403Q1300 210 1161 91T794 -29Q716 -29 641 -17T491 20L540 264Q596 237 651 223T759 209Q841 209 891 247T941 346Q941 386 918 418T818 506L757 549Q690 596 660 646T630 760Q630 898 721 997T986 1145Q987 1151 987 1159T988 1182Q988
1249 947 1284T827 1319Q725 1319 667 1266T587 1100L372 0H13L229 1114Z" />
<glyph unicode="&#xe0;" glyph-name="agrave" horiz-adv-x="1382" d="M655 504Q521 504 453 463T384 340Q384 279 424 244T536 209Q646 209 720 275T819 463L827 504H655ZM1214 639L1089 0H731L761 166Q673 66 575 19T362 -29Q203 -29 110 53T16 276Q16 490 181
603T659 717H870L874 745Q877 759 877 765T878 776Q878 842 816 875T630 909Q519 909 415 886T214 817L268 1090Q380 1118 497 1132T741 1147Q990 1147 1111 1062T1232 801Q1232 767 1228 727T1214 639ZM463 1638L672 1262H475L180 1638H463Z" />
<glyph unicode="&#xe1;" glyph-name="aacute" horiz-adv-x="1382" d="M655 504Q521 504 453 463T384 340Q384 279 424 244T536 209Q646 209 720 275T819 463L827 504H655ZM1214 639L1089 0H731L761 166Q673 66 575 19T362 -29Q203 -29 110 53T16 276Q16 490 181
603T659 717H870L874 745Q877 759 877 765T878 776Q878 842 816 875T630 909Q519 909 415 886T214 817L268 1090Q380 1118 497 1132T741 1147Q990 1147 1111 1062T1232 801Q1232 767 1228 727T1214 639ZM527 1638H820L382 1262H181L527 1638Z" />
<glyph unicode="&#xe2;" glyph-name="acircumflex" horiz-adv-x="1382" d="M655 504Q521 504 453 463T384 340Q384 279 424 244T536 209Q646 209 720 275T819 463L827 504H655ZM1214 639L1089 0H731L761 166Q673 66 575 19T362 -29Q203 -29 110 53T16 276Q16 490
181 603T659 717H870L874 745Q877 759 877 765T878 776Q878 842 816 875T630 909Q519 909 415 886T214 817L268 1090Q380 1118 497 1132T741 1147Q990 1147 1111 1062T1232 801Q1232 767 1228 727T1214 639ZM512 1638H774L956 1262H778L622 1487L381 1262H184L512
1638Z" />
<glyph unicode="&#xe3;" glyph-name="atilde" horiz-adv-x="1382" d="M655 504Q521 504 453 463T384 340Q384 279 424 244T536 209Q646 209 720 275T819 463L827 504H655ZM1214 639L1089 0H731L761 166Q673 66 575 19T362 -29Q203 -29 110 53T16 276Q16 490 181
603T659 717H870L874 745Q877 759 877 765T878 776Q878 842 816 875T630 909Q519 909 415 886T214 817L268 1090Q380 1118 497 1132T741 1147Q990 1147 1111 1062T1232 801Q1232 767 1228 727T1214 639ZM564 1364L515 1401Q512 1403 505 1408Q467 1438 437 1438Q403
1438 377 1404T341 1309H201Q228 1446 293 1519T453 1593Q489 1593 522 1580T593 1536L646 1493Q664 1478 681 1470T713 1462Q751 1462 777 1495T814 1591H953Q927 1455 862 1381T703 1307Q669 1307 639 1318T564 1364Z" />
<glyph unicode="&#xe4;" glyph-name="adieresis" horiz-adv-x="1382" d="M655 504Q521 504 453 463T384 340Q384 279 424 244T536 209Q646 209 720 275T819 463L827 504H655ZM1214 639L1089 0H731L761 166Q673 66 575 19T362 -29Q203 -29 110 53T16 276Q16 490
181 603T659 717H870L874 745Q877 759 877 765T878 776Q878 842 816 875T630 909Q519 909 415 886T214 817L268 1090Q380 1118 497 1132T741 1147Q990 1147 1111 1062T1232 801Q1232 767 1228 727T1214 639ZM258 1585H496L447 1339H211L258 1585ZM656 1585H891L842
1339H607L656 1585Z" />
<glyph unicode="&#xe5;" glyph-name="aring" horiz-adv-x="1382" d="M655 504Q521 504 453 463T384 340Q384 279 424 244T536 209Q646 209 720 275T819 463L827 504H655ZM1214 639L1089 0H731L761 166Q673 66 575 19T362 -29Q203 -29 110 53T16 276Q16 490 181
603T659 717H870L874 745Q877 759 877 765T878 776Q878 842 816 875T630 909Q519 909 415 886T214 817L268 1090Q380 1118 497 1132T741 1147Q990 1147 1111 1062T1232 801Q1232 767 1228 727T1214 639ZM768 1524Q768 1404 686 1322T484 1239Q364 1239 282 1321T199
1524Q199 1644 281 1726T484 1808Q603 1808 685 1726T768 1524ZM633 1524Q633 1589 591 1631T484 1673Q418 1673 376 1631T334 1524Q334 1459 376 1417T484 1374Q549 1374 591 1416T633 1524Z" />
<glyph unicode="&#xe6;" glyph-name="ae" horiz-adv-x="2078" d="M662 504Q528 504 460 463T391 340Q391 279 431 244T543 209Q653 209 727 275T826 463L834 504H662ZM279 1090Q396 1118 507 1132T723 1147Q872 1147 970 1111T1125 997Q1220 1074 1326 1110T1563
1147Q1786 1147 1919 1025T2052 702Q2052 657 2047 611T2032 518L2018 461H1182Q1182 455 1181 444T1180 426Q1180 317 1245 263T1442 209Q1554 209 1678 242T1942 344L1889 66Q1758 18 1628 -5T1362 -29Q1189 -29 1071 22T887 178Q770 73 647 22T385 -29Q215 -29
119 52T23 274Q23 490 188 603T670 717H875L881 746Q884 759 884 765T885 776Q885 842 823 875T641 909Q527 909 424 886T226 817L279 1090ZM1694 682Q1697 695 1698 708T1700 735Q1700 815 1652 862T1522 909Q1417 909 1343 851T1231 682H1694Z" />
<glyph unicode="&#xe7;" glyph-name="ccedilla" horiz-adv-x="1214" d="M1130 1085L1073 793Q1001 841 931 866T794 891Q619 891 508 774T397 473Q397 356 466 292T661 227Q745 227 826 252T980 326L925 33Q836 2 746 -13T565 -29Q301 -29 159 89T16 426Q16 563
68 692T219 924Q328 1037 469 1092T794 1147Q879 1147 963 1132T1130 1085ZM646 0Q683 -52 700 -96T717 -182Q717 -286 642 -343T429 -401Q380 -401 332 -395T232 -375L261 -219Q301 -236 341 -245T420 -254Q486 -254 524 -226T562 -150Q562 -124 549 -90T504 0H646Z"
/>
<glyph unicode="&#xe8;" glyph-name="egrave" horiz-adv-x="1389" d="M1232 518L1220 461H382Q382 455 381 444T380 426Q380 317 445 263T642 209Q755 209 880 243T1144 344L1089 66Q958 18 829 -5T565 -29Q303 -29 161 92T18 434Q18 562 63 682T196 903Q299 1023
442 1085T761 1147Q988 1147 1121 1026T1255 700Q1255 660 1250 616T1232 518ZM894 682Q897 695 898 708T900 735Q900 815 852 862T722 909Q617 909 544 852T431 682H894ZM510 1638L719 1262H522L227 1638H510Z" />
<glyph unicode="&#xe9;" glyph-name="eacute" horiz-adv-x="1389" d="M1232 518L1220 461H382Q382 455 381 444T380 426Q380 317 445 263T642 209Q755 209 880 243T1144 344L1089 66Q958 18 829 -5T565 -29Q303 -29 161 92T18 434Q18 562 63 682T196 903Q299 1023
442 1085T761 1147Q988 1147 1121 1026T1255 700Q1255 660 1250 616T1232 518ZM894 682Q897 695 898 708T900 735Q900 815 852 862T722 909Q617 909 544 852T431 682H894ZM574 1638H867L429 1262H228L574 1638Z" />
<glyph unicode="&#xea;" glyph-name="ecircumflex" horiz-adv-x="1389" d="M1232 518L1220 461H382Q382 455 381 444T380 426Q380 317 445 263T642 209Q755 209 880 243T1144 344L1089 66Q958 18 829 -5T565 -29Q303 -29 161 92T18 434Q18 562 63 682T196 903Q299
1023 442 1085T761 1147Q988 1147 1121 1026T1255 700Q1255 660 1250 616T1232 518ZM894 682Q897 695 898 708T900 735Q900 815 852 862T722 909Q617 909 544 852T431 682H894ZM559 1638H821L1003 1262H825L669 1487L428 1262H231L559 1638Z" />
<glyph unicode="&#xeb;" glyph-name="edieresis" horiz-adv-x="1389" d="M1232 518L1220 461H382Q382 455 381 444T380 426Q380 317 445 263T642 209Q755 209 880 243T1144 344L1089 66Q958 18 829 -5T565 -29Q303 -29 161 92T18 434Q18 562 63 682T196 903Q299
1023 442 1085T761 1147Q988 1147 1121 1026T1255 700Q1255 660 1250 616T1232 518ZM894 682Q897 695 898 708T900 735Q900 815 852 862T722 909Q617 909 544 852T431 682H894ZM305 1585H543L494 1339H258L305 1585ZM703 1585H938L889 1339H654L703 1585Z" />
<glyph unicode="&#xec;" glyph-name="igrave" horiz-adv-x="702" d="M224 1120H584L365 0H6L224 1120ZM143 1638L352 1262H155L-140 1638H143Z" />
<glyph unicode="&#xed;" glyph-name="iacute" horiz-adv-x="702" d="M224 1120H584L365 0H6L224 1120ZM207 1638H500L62 1262H-139L207 1638Z" />
<glyph unicode="&#xee;" glyph-name="icircumflex" horiz-adv-x="702" d="M224 1120H584L365 0H6L224 1120ZM192 1638H454L636 1262H458L302 1487L61 1262H-136L192 1638Z" />
<glyph unicode="&#xef;" glyph-name="idieresis" horiz-adv-x="702" d="M224 1120H584L365 0H6L224 1120ZM-62 1585H176L127 1339H-109L-62 1585ZM336 1585H571L522 1339H287L336 1585Z" />
<glyph unicode="&#xf0;" glyph-name="eth" horiz-adv-x="1340" d="M893 743Q841 770 790 783T687 797Q547 797 466 703T384 451Q384 342 434 285T578 227Q718 227 808 353T898 678Q898 691 894 731Q894 738 893 743ZM1139 1100Q1203 1008 1235 902T1268 680Q1268
550 1223 429T1090 207Q989 91 850 31T539 -29Q298 -29 154 96T9 426Q9 706 191 880T666 1055Q715 1055 758 1048T838 1028L687 1243L302 1135L267 1264L607 1358L470 1556H822L904 1440L1289 1546L1324 1419L984 1325L1139 1100Z" />
<glyph unicode="&#xf1;" glyph-name="ntilde" horiz-adv-x="1458" d="M1277 682L1144 0H785L898 584Q910 641 916 680T923 743Q923 807 888 842T787 877Q676 877 597 791T486 551L378 0H19L237 1120H597L564 956Q663 1053 763 1100T972 1147Q1127 1147 1211 1066T1295
838Q1295 806 1291 767T1277 682ZM601 1364L552 1401Q549 1403 542 1408Q504 1438 474 1438Q440 1438 414 1404T378 1309H238Q265 1446 330 1519T490 1593Q526 1593 559 1580T630 1536L683 1493Q701 1478 718 1470T750 1462Q788 1462 814 1495T851 1591H990Q964
1455 899 1381T740 1307Q706 1307 676 1318T601 1364Z" />
<glyph unicode="&#xf2;" glyph-name="ograve" horiz-adv-x="1407" d="M713 891Q574 891 484 765T394 444Q394 338 442 283T584 227Q723 227 813 353T903 676Q903 781 855 836T713 891ZM742 1147Q992 1147 1135 1020T1278 674Q1278 547 1233 428T1102 209Q1000
91 861 31T551 -29Q304 -29 162 98T19 444Q19 570 65 690T197 911Q297 1027 435 1087T742 1147ZM476 1638L685 1262H488L193 1638H476Z" />
<glyph unicode="&#xf3;" glyph-name="oacute" horiz-adv-x="1407" d="M713 891Q574 891 484 765T394 444Q394 338 442 283T584 227Q723 227 813 353T903 676Q903 781 855 836T713 891ZM742 1147Q992 1147 1135 1020T1278 674Q1278 547 1233 428T1102 209Q1000
91 861 31T551 -29Q304 -29 162 98T19 444Q19 570 65 690T197 911Q297 1027 435 1087T742 1147ZM540 1638H833L395 1262H194L540 1638Z" />
<glyph unicode="&#xf4;" glyph-name="ocircumflex" horiz-adv-x="1407" d="M713 891Q574 891 484 765T394 444Q394 338 442 283T584 227Q723 227 813 353T903 676Q903 781 855 836T713 891ZM742 1147Q992 1147 1135 1020T1278 674Q1278 547 1233 428T1102 209Q1000
91 861 31T551 -29Q304 -29 162 98T19 444Q19 570 65 690T197 911Q297 1027 435 1087T742 1147ZM525 1638H787L969 1262H791L635 1487L394 1262H197L525 1638Z" />
<glyph unicode="&#xf5;" glyph-name="otilde" horiz-adv-x="1407" d="M713 891Q574 891 484 765T394 444Q394 338 442 283T584 227Q723 227 813 353T903 676Q903 781 855 836T713 891ZM742 1147Q992 1147 1135 1020T1278 674Q1278 547 1233 428T1102 209Q1000
91 861 31T551 -29Q304 -29 162 98T19 444Q19 570 65 690T197 911Q297 1027 435 1087T742 1147ZM577 1364L528 1401Q525 1403 518 1408Q480 1438 450 1438Q416 1438 390 1404T354 1309H214Q241 1446 306 1519T466 1593Q502 1593 535 1580T606 1536L659 1493Q677
1478 694 1470T726 1462Q764 1462 790 1495T827 1591H966Q940 1455 875 1381T716 1307Q682 1307 652 1318T577 1364Z" />
<glyph unicode="&#xf6;" glyph-name="odieresis" horiz-adv-x="1407" d="M713 891Q574 891 484 765T394 444Q394 338 442 283T584 227Q723 227 813 353T903 676Q903 781 855 836T713 891ZM742 1147Q992 1147 1135 1020T1278 674Q1278 547 1233 428T1102 209Q1000
91 861 31T551 -29Q304 -29 162 98T19 444Q19 570 65 690T197 911Q297 1027 435 1087T742 1147ZM271 1585H509L460 1339H224L271 1585ZM669 1585H904L855 1339H620L669 1585Z" />
<glyph unicode="&#xf7;" glyph-name="divide" horiz-adv-x="1282" d="M488 395H795V86H488V395ZM488 1198H795V889H488V1198ZM0 760H1282V524H0V760Z" />
<glyph unicode="&#xf8;" glyph-name="oslash" horiz-adv-x="1488" d="M949 842Q926 866 892 878T812 891Q672 891 588 772T493 438L949 842ZM196 174Q157 233 138 301T118 446Q118 572 163 691T296 911Q396 1028 534 1087T845 1147Q949 1147 1035 1124T1189 1055L1381
1223L1478 1112L1295 950Q1336 891 1356 822T1377 674Q1377 547 1332 428T1201 209Q1100 93 960 32T650 -29Q541 -29 454 -5T298 70L105 -102L9 10L196 174ZM542 283Q567 255 601 241T683 227Q824 227 909 351T1002 692L542 283Z" />
<glyph unicode="&#xf9;" glyph-name="ugrave" horiz-adv-x="1458" d="M43 436L174 1120H533L420 537Q408 480 402 440T396 377Q396 314 431 279T531 244Q642 244 722 330T832 569L940 1120H1299L1082 0H721L754 164Q662 67 561 19T348 -29Q195 -29 111 52T27 281Q27
316 31 355T43 436ZM500 1638L709 1262H512L217 1638H500Z" />
<glyph unicode="&#xfa;" glyph-name="uacute" horiz-adv-x="1458" d="M43 436L174 1120H533L420 537Q408 480 402 440T396 377Q396 314 431 279T531 244Q642 244 722 330T832 569L940 1120H1299L1082 0H721L754 164Q662 67 561 19T348 -29Q195 -29 111 52T27 281Q27
316 31 355T43 436ZM564 1638H857L419 1262H218L564 1638Z" />
<glyph unicode="&#xfb;" glyph-name="ucircumflex" horiz-adv-x="1458" d="M43 436L174 1120H533L420 537Q408 480 402 440T396 377Q396 314 431 279T531 244Q642 244 722 330T832 569L940 1120H1299L1082 0H721L754 164Q662 67 561 19T348 -29Q195 -29 111 52T27
281Q27 316 31 355T43 436ZM549 1638H811L993 1262H815L659 1487L418 1262H221L549 1638Z" />
<glyph unicode="&#xfc;" glyph-name="udieresis" horiz-adv-x="1458" d="M43 436L174 1120H533L420 537Q408 480 402 440T396 377Q396 314 431 279T531 244Q642 244 722 330T832 569L940 1120H1299L1082 0H721L754 164Q662 67 561 19T348 -29Q195 -29 111 52T27
281Q27 316 31 355T43 436ZM295 1585H533L484 1339H248L295 1585ZM693 1585H928L879 1339H644L693 1585Z" />
<glyph unicode="&#xfd;" glyph-name="yacute" horiz-adv-x="1335" d="M158 1120H496L650 344L1047 1120H1430L721 -106Q602 -313 501 -377T240 -442H23L60 -207H173Q261 -207 309 -178T396 -74L429 -14L158 1120ZM503 1638H796L358 1262H157L503 1638Z" />
<glyph unicode="&#xfe;" glyph-name="thorn" horiz-adv-x="1418" d="M487 162L372 -426H12L397 1556H757L640 956Q722 1054 812 1100T1009 1147Q1198 1147 1308 1027T1418 700Q1418 571 1380 449T1269 227Q1178 101 1064 36T818 -29Q703 -29 623 17T487 162ZM863
887Q725 887 638 760T550 428Q550 336 599 284T737 231Q872 231 960 356T1048 678Q1048 780 1001 833T863 887Z" />
<glyph unicode="&#xff;" glyph-name="ydieresis" horiz-adv-x="1335" d="M158 1120H496L650 344L1047 1120H1430L721 -106Q602 -313 501 -377T240 -442H23L60 -207H173Q261 -207 309 -178T396 -74L429 -14L158 1120ZM234 1585H472L423 1339H187L234 1585ZM632
1585H867L818 1339H583L632 1585Z" />
<glyph unicode="&#x100;" glyph-name="Amacron" horiz-adv-x="1585" d="M1140 272H544L396 0H1L845 1493H1285L1549 0H1183L1140 272ZM689 543H1090L1000 1118L689 543ZM349 1871H980L943 1683H312L349 1871Z" />
<glyph unicode="&#x101;" glyph-name="amacron" horiz-adv-x="1382" d="M655 504Q521 504 453 463T384 340Q384 279 424 244T536 209Q646 209 720 275T819 463L827 504H655ZM1214 639L1089 0H731L761 166Q673 66 575 19T362 -29Q203 -29 110 53T16 276Q16 490
181 603T659 717H870L874 745Q877 759 877 765T878 776Q878 842 816 875T630 909Q519 909 415 886T214 817L268 1090Q380 1118 497 1132T741 1147Q990 1147 1111 1062T1232 801Q1232 767 1228 727T1214 639ZM206 1562H837L800 1374H169L206 1562Z" />
<glyph unicode="&#x102;" glyph-name="Abreve" horiz-adv-x="1585" d="M360 1916H502V1907Q502 1842 545 1807T668 1772Q749 1772 801 1807T881 1916H1033Q999 1773 897 1696T638 1619Q498 1619 428 1681T357 1864Q357 1885 357 1895T360 1916ZM1140 272H544L396
0H1L845 1493H1285L1549 0H1183L1140 272ZM689 543H1090L1000 1118L689 543Z" />
<glyph unicode="&#x103;" glyph-name="abreve" horiz-adv-x="1382" d="M211 1582H353V1573Q353 1508 396 1473T519 1438Q600 1438 652 1473T732 1582H884Q850 1439 748 1362T489 1285Q349 1285 279 1347T208 1530Q208 1551 208 1561T211 1582ZM655 504Q521 504
453 463T384 340Q384 279 424 244T536 209Q646 209 720 275T819 463L827 504H655ZM1214 639L1089 0H731L761 166Q673 66 575 19T362 -29Q203 -29 110 53T16 276Q16 490 181 603T659 717H870L874 745Q877 759 877 765T878 776Q878 842 816 875T630 909Q519 909 415
886T214 817L268 1090Q380 1118 497 1132T741 1147Q990 1147 1111 1062T1232 801Q1232 767 1228 727T1214 639Z" />
<glyph unicode="&#x104;" glyph-name="Aogonek" horiz-adv-x="1585" d="M925 0H1067Q996 -74 970 -114T944 -182Q944 -216 968 -235T1038 -254Q1075 -254 1116 -246T1200 -223L1171 -375Q1114 -388 1069 -394T985 -401Q879 -401 824 -367T768 -266Q768 -201 805
-138T925 0ZM1140 272H544L396 0H1L845 1493H1285L1549 0H1183L1140 272ZM689 543H1090L1000 1118L689 543Z" />
<glyph unicode="&#x105;" glyph-name="aogonek" horiz-adv-x="1382" d="M619 0H761Q690 -74 664 -114T638 -182Q638 -216 662 -235T732 -254Q769 -254 810 -246T894 -223L865 -375Q808 -388 763 -394T679 -401Q573 -401 518 -367T462 -266Q462 -201 499 -138T619
0ZM655 504Q521 504 453 463T384 340Q384 279 424 244T536 209Q646 209 720 275T819 463L827 504H655ZM1214 639L1089 0H731L761 166Q673 66 575 19T362 -29Q203 -29 110 53T16 276Q16 490 181 603T659 717H870L874 745Q877 759 877 765T878 776Q878 842 816 875T630
909Q519 909 415 886T214 817L268 1090Q380 1118 497 1132T741 1147Q990 1147 1111 1062T1232 801Q1232 767 1228 727T1214 639Z" />
<glyph unicode="&#x106;" glyph-name="Cacute" horiz-adv-x="1503" d="M1183 70Q1045 21 918 -4T677 -29Q376 -29 196 136T16 573Q16 752 73 910T241 1200Q372 1354 556 1437T954 1520Q1070 1520 1187 1493T1425 1409L1363 1100Q1267 1173 1170 1207T962 1241Q731
1241 575 1063T419 618Q419 446 515 348T780 250Q881 250 994 286T1249 401L1183 70ZM1736 1899H2016L1697 1635H1490L1736 1899Z" />
<glyph unicode="&#x107;" glyph-name="cacute" horiz-adv-x="1214" d="M1130 1085L1073 793Q1001 841 931 866T794 891Q619 891 508 774T397 473Q397 356 466 292T661 227Q745 227 826 252T980 326L925 33Q836 2 746 -13T565 -29Q301 -29 159 89T16 426Q16 563
68 692T219 924Q328 1037 469 1092T794 1147Q879 1147 963 1132T1130 1085ZM564 1638H857L419 1262H218L564 1638Z" />
<glyph unicode="&#x108;" glyph-name="Ccircumflex" horiz-adv-x="1503" d="M1741 1899H2089L2241 1635H2071L1907 1796L1676 1635H1497L1741 1899ZM1183 70Q1045 21 918 -4T677 -29Q376 -29 196 136T16 573Q16 752 73 910T241 1200Q372 1354 556 1437T954 1520Q1070
1520 1187 1493T1425 1409L1363 1100Q1267 1173 1170 1207T962 1241Q731 1241 575 1063T419 618Q419 446 515 348T780 250Q881 250 994 286T1249 401L1183 70Z" />
<glyph unicode="&#x109;" glyph-name="ccircumflex" horiz-adv-x="1214" d="M549 1638H811L993 1262H815L659 1487L418 1262H221L549 1638ZM1130 1085L1073 793Q1001 841 931 866T794 891Q619 891 508 774T397 473Q397 356 466 292T661 227Q745 227 826 252T980
326L925 33Q836 2 746 -13T565 -29Q301 -29 159 89T16 426Q16 563 68 692T219 924Q328 1037 469 1092T794 1147Q879 1147 963 1132T1130 1085Z" />
<glyph unicode="&#x10a;" glyph-name="Cdotaccent" horiz-adv-x="1503" d="M1557 1899H1832L1785 1653H1510L1557 1899ZM1183 70Q1045 21 918 -4T677 -29Q376 -29 196 136T16 573Q16 752 73 910T241 1200Q372 1354 556 1437T954 1520Q1070 1520 1187 1493T1425
1409L1363 1100Q1267 1173 1170 1207T962 1241Q731 1241 575 1063T419 618Q419 446 515 348T780 250Q881 250 994 286T1249 401L1183 70Z" />
<glyph unicode="&#x10b;" glyph-name="cdotaccent" horiz-adv-x="1214" d="M1118 1556H1476L1420 1264H1062L1118 1556ZM1130 1085L1073 793Q1001 841 931 866T794 891Q619 891 508 774T397 473Q397 356 466 292T661 227Q745 227 826 252T980 326L925 33Q836 2
746 -13T565 -29Q301 -29 159 89T16 426Q16 563 68 692T219 924Q328 1037 469 1092T794 1147Q879 1147 963 1132T1130 1085Z" />
<glyph unicode="&#x10c;" glyph-name="Ccaron" horiz-adv-x="1503" d="M1183 70Q1045 21 918 -4T677 -29Q376 -29 196 136T16 573Q16 752 73 910T241 1200Q372 1354 556 1437T954 1520Q1070 1520 1187 1493T1425 1409L1363 1100Q1267 1173 1170 1207T962 1241Q731
1241 575 1063T419 618Q419 446 515 348T780 250Q881 250 994 286T1249 401L1183 70ZM1991 1635H1642L1505 1899H1677L1825 1737L2056 1899H2234L1991 1635Z" />
<glyph unicode="&#x10d;" glyph-name="ccaron" horiz-adv-x="1214" d="M1130 1085L1073 793Q1001 841 931 866T794 891Q619 891 508 774T397 473Q397 356 466 292T661 227Q745 227 826 252T980 326L925 33Q836 2 746 -13T565 -29Q301 -29 159 89T16 426Q16 563
68 692T219 924Q328 1037 469 1092T794 1147Q879 1147 963 1132T1130 1085ZM675 1262H415L232 1638H408L564 1411L808 1638H1004L675 1262Z" />
<glyph unicode="&#x10e;" glyph-name="Dcaron" horiz-adv-x="1700" d="M1895 1635H1546L1409 1899H1581L1729 1737L1960 1899H2138L1895 1635ZM640 1202L461 291H599Q868 291 1025 442T1182 850Q1182 1024 1080 1113T775 1202H640ZM310 1493H715Q1005 1493 1150
1459T1391 1343Q1488 1262 1537 1147T1586 885Q1586 682 1503 503T1268 201Q1136 92 962 46T425 0H19L310 1493Z" />
<glyph unicode="&#x10f;" glyph-name="dcaron" horiz-adv-x="1466" d="M558 231Q696 231 782 358T869 690Q869 783 821 835T685 887Q549 887 461 762T373 440Q373 338 420 285T558 231ZM935 956L1051 1556H1412L1109 0H748L781 162Q699 64 609 18T412 -29Q223
-29 113 91T3 418Q3 547 41 669T152 891Q243 1017 357 1082T603 1147Q718 1147 798 1101T935 956ZM2217 1555H2510L2295 1179H2094L2217 1555Z" />
<glyph unicode="&#x110;" glyph-name="Dcroat" horiz-adv-x="1731" d="M715 1202L658 903H904L853 643H607L537 291H674Q945 291 1102 442T1260 850Q1260 1024 1157 1113T850 1202H715ZM386 1493H791Q1081 1493 1226 1459T1467 1343Q1564 1262 1614 1146T1664
885Q1664 684 1580 504T1344 201Q1212 92 1038 46T500 0H95L220 643H15L66 903H271L386 1493Z" />
<glyph unicode="&#x111;" glyph-name="" horiz-adv-x="1614" d="M564 231Q702 231 788 358T875 690Q875 783 827 835T691 887Q555 887 467 762T379 440Q379 338 426 285T564 231ZM941 956L998 1251H603L640 1440H1035L1057 1556H1418L1395 1440H1608L1571 1251H1358L1115
0H754L787 162Q705 64 615 18T418 -29Q229 -29 119 91T9 418Q9 547 47 669T158 891Q249 1017 363 1082T609 1147Q724 1147 804 1101T941 956Z" />
<glyph unicode="&#x112;" glyph-name="Emacron" horiz-adv-x="1399" d="M307 1493H1345L1288 1202H635L581 924H1196L1138 633H524L458 291H1132L1077 0H16L307 1493ZM265 1871H896L859 1683H228L265 1871Z" />
<glyph unicode="&#x113;" glyph-name="emacron" horiz-adv-x="1389" d="M1232 518L1220 461H382Q382 455 381 444T380 426Q380 317 445 263T642 209Q755 209 880 243T1144 344L1089 66Q958 18 829 -5T565 -29Q303 -29 161 92T18 434Q18 562 63 682T196 903Q299
1023 442 1085T761 1147Q988 1147 1121 1026T1255 700Q1255 660 1250 616T1232 518ZM894 682Q897 695 898 708T900 735Q900 815 852 862T722 909Q617 909 544 852T431 682H894ZM266 1563H897L860 1375H229L266 1563Z" />
<glyph unicode="&#x114;" glyph-name="Ebreve" horiz-adv-x="1399" d="M1330 1899H1473Q1483 1839 1523 1812T1643 1784Q1715 1784 1768 1814T1844 1899H1997Q1958 1770 1859 1703T1612 1635Q1476 1635 1403 1702T1330 1895V1899ZM307 1493H1345L1288 1202H635L581
924H1196L1138 633H524L458 291H1132L1077 0H16L307 1493Z" />
<glyph unicode="&#x115;" glyph-name="ebreve" horiz-adv-x="1389" d="M256 1606H398V1597Q398 1532 441 1497T564 1462Q645 1462 697 1497T777 1606H929Q895 1463 793 1386T534 1309Q394 1309 324 1371T253 1554Q253 1575 253 1585T256 1606ZM1232 518L1220 461H382Q382
455 381 444T380 426Q380 317 445 263T642 209Q755 209 880 243T1144 344L1089 66Q958 18 829 -5T565 -29Q303 -29 161 92T18 434Q18 562 63 682T196 903Q299 1023 442 1085T761 1147Q988 1147 1121 1026T1255 700Q1255 660 1250 616T1232 518ZM894 682Q897 695
898 708T900 735Q900 815 852 862T722 909Q617 909 544 852T431 682H894Z" />
<glyph unicode="&#x116;" glyph-name="Edotaccent" horiz-adv-x="1399" d="M1377 1899H1652L1605 1653H1330L1377 1899ZM307 1493H1345L1288 1202H635L581 924H1196L1138 633H524L458 291H1132L1077 0H16L307 1493Z" />
<glyph unicode="&#x117;" glyph-name="edotaccent" horiz-adv-x="1389" d="M1128 1556H1486L1430 1264H1072L1128 1556ZM1232 518L1220 461H382Q382 455 381 444T380 426Q380 317 445 263T642 209Q755 209 880 243T1144 344L1089 66Q958 18 829 -5T565 -29Q303
-29 161 92T18 434Q18 562 63 682T196 903Q299 1023 442 1085T761 1147Q988 1147 1121 1026T1255 700Q1255 660 1250 616T1232 518ZM894 682Q897 695 898 708T900 735Q900 815 852 862T722 909Q617 909 544 852T431 682H894Z" />
<glyph unicode="&#x118;" glyph-name="Eogonek" horiz-adv-x="1399" d="M700 0H842Q771 -74 745 -114T719 -182Q719 -216 743 -235T813 -254Q850 -254 891 -246T975 -223L946 -375Q889 -388 844 -394T760 -401Q654 -401 599 -367T543 -266Q543 -201 580 -138T700
0ZM307 1493H1345L1288 1202H635L581 924H1196L1138 633H524L458 291H1132L1077 0H16L307 1493Z" />
<glyph unicode="&#x119;" glyph-name="eogonek" horiz-adv-x="1389" d="M619 0H761Q690 -74 664 -114T638 -182Q638 -216 662 -235T732 -254Q769 -254 810 -246T894 -223L865 -375Q808 -388 763 -394T679 -401Q573 -401 518 -367T462 -266Q462 -201 499 -138T619
0ZM1232 518L1220 461H382Q382 455 381 444T380 426Q380 317 445 263T642 209Q755 209 880 243T1144 344L1089 66Q958 18 829 -5T565 -29Q303 -29 161 92T18 434Q18 562 63 682T196 903Q299 1023 442 1085T761 1147Q988 1147 1121 1026T1255 700Q1255 660 1250
616T1232 518ZM894 682Q897 695 898 708T900 735Q900 815 852 862T722 909Q617 909 544 852T431 682H894Z" />
<glyph unicode="&#x11a;" glyph-name="Ecaron" horiz-adv-x="1399" d="M307 1493H1345L1288 1202H635L581 924H1196L1138 633H524L458 291H1132L1077 0H16L307 1493ZM1847 1635H1498L1361 1899H1533L1681 1737L1912 1899H2090L1847 1635Z" />
<glyph unicode="&#x11b;" glyph-name="ecaron" horiz-adv-x="1389" d="M1232 518L1220 461H382Q382 455 381 444T380 426Q380 317 445 263T642 209Q755 209 880 243T1144 344L1089 66Q958 18 829 -5T565 -29Q303 -29 161 92T18 434Q18 562 63 682T196 903Q299
1023 442 1085T761 1147Q988 1147 1121 1026T1255 700Q1255 660 1250 616T1232 518ZM894 682Q897 695 898 708T900 735Q900 815 852 862T722 909Q617 909 544 852T431 682H894ZM675 1262H415L232 1638H408L564 1411L808 1638H1004L675 1262Z" />
<glyph unicode="&#x11c;" glyph-name="Gcircumflex" horiz-adv-x="1681" d="M1754 1899H2102L2254 1635H2084L1920 1796L1689 1635H1510L1754 1899ZM1338 111Q1192 40 1035 6T699 -29Q381 -29 199 132T17 573Q17 754 74 912T244 1202Q382 1362 569 1441T998 1520Q1132
1520 1268 1492T1536 1409L1477 1100Q1355 1171 1239 1206T1004 1241Q746 1241 584 1069T422 627Q422 448 516 349T783 250Q839 250 895 257T1008 281L1065 571H830L879 829H1477L1338 111Z" />
<glyph unicode="&#x11d;" glyph-name="gcircumflex" horiz-adv-x="1466" d="M553 1638H815L997 1262H819L663 1487L422 1262H225L553 1638ZM836 190Q750 92 661 46T467 0Q277 0 167 122T56 457Q56 570 94 683T205 897Q293 1018 407 1081T652 1145Q770 1145 850
1099T986 954L1016 1120H1377L1188 147Q1130 -154 940 -298T412 -442Q308 -442 212 -426T21 -377L74 -98Q159 -152 244 -178T418 -205Q596 -205 691 -129T820 113L836 190ZM736 887Q604 887 517 768T429 469Q429 367 476 314T613 260Q744 260 832 378T920 674Q920
778 873 832T736 887Z" />
<glyph unicode="&#x11e;" glyph-name="Gbreve" horiz-adv-x="1681" d="M1338 111Q1192 40 1035 6T699 -29Q381 -29 199 132T17 573Q17 754 74 912T244 1202Q382 1362 569 1441T998 1520Q1132 1520 1268 1492T1536 1409L1477 1100Q1355 1171 1239 1206T1004 1241Q746
1241 584 1069T422 627Q422 448 516 349T783 250Q839 250 895 257T1008 281L1065 571H830L879 829H1477L1338 111ZM1434 1899H1577Q1587 1839 1627 1812T1747 1784Q1819 1784 1872 1814T1948 1899H2101Q2062 1770 1963 1703T1716 1635Q1580 1635 1507 1702T1434
1895V1899Z" />
<glyph unicode="&#x11f;" glyph-name="gbreve" horiz-adv-x="1466" d="M836 190Q750 92 661 46T467 0Q277 0 167 122T56 457Q56 570 94 683T205 897Q293 1018 407 1081T652 1145Q770 1145 850 1099T986 954L1016 1120H1377L1188 147Q1130 -154 940 -298T412 -442Q308
-442 212 -426T21 -377L74 -98Q159 -152 244 -178T418 -205Q596 -205 691 -129T820 113L836 190ZM736 887Q604 887 517 768T429 469Q429 367 476 314T613 260Q744 260 832 378T920 674Q920 778 873 832T736 887ZM250 1606H392V1597Q392 1532 435 1497T558 1462Q639
1462 691 1497T771 1606H923Q889 1463 787 1386T528 1309Q388 1309 318 1371T247 1554Q247 1575 247 1585T250 1606Z" />
<glyph unicode="&#x120;" glyph-name="Gdotaccent" horiz-adv-x="1681" d="M1557 1899H1832L1785 1653H1510L1557 1899ZM1338 111Q1192 40 1035 6T699 -29Q381 -29 199 132T17 573Q17 754 74 912T244 1202Q382 1362 569 1441T998 1520Q1132 1520 1268 1492T1536
1409L1477 1100Q1355 1171 1239 1206T1004 1241Q746 1241 584 1069T422 627Q422 448 516 349T783 250Q839 250 895 257T1008 281L1065 571H830L879 829H1477L1338 111Z" />
<glyph unicode="&#x121;" glyph-name="gdotaccent" horiz-adv-x="1466" d="M1122 1556H1480L1424 1264H1066L1122 1556ZM836 190Q750 92 661 46T467 0Q277 0 167 122T56 457Q56 570 94 683T205 897Q293 1018 407 1081T652 1145Q770 1145 850 1099T986 954L1016
1120H1377L1188 147Q1130 -154 940 -298T412 -442Q308 -442 212 -426T21 -377L74 -98Q159 -152 244 -178T418 -205Q596 -205 691 -129T820 113L836 190ZM736 887Q604 887 517 768T429 469Q429 367 476 314T613 260Q744 260 832 378T920 674Q920 778 873 832T736
887Z" />
<glyph unicode="&#x122;" glyph-name="Gcommaaccent" horiz-adv-x="1681" d="M1427 -160H1751L1471 -458H1279L1427 -160ZM1338 111Q1192 40 1035 6T699 -29Q381 -29 199 132T17 573Q17 754 74 912T244 1202Q382 1362 569 1441T998 1520Q1132 1520 1268 1492T1536
1409L1477 1100Q1355 1171 1239 1206T1004 1241Q746 1241 584 1069T422 627Q422 448 516 349T783 250Q839 250 895 257T1008 281L1065 571H830L879 829H1477L1338 111Z" />
<glyph unicode="&#x123;" glyph-name="gcommaaccent" horiz-adv-x="1466" d="M1538 1269H1214L1494 1567H1686L1538 1269ZM836 190Q750 92 661 46T467 0Q277 0 167 122T56 457Q56 570 94 683T205 897Q293 1018 407 1081T652 1145Q770 1145 850 1099T986 954L1016
1120H1377L1188 147Q1130 -154 940 -298T412 -442Q308 -442 212 -426T21 -377L74 -98Q159 -152 244 -178T418 -205Q596 -205 691 -129T820 113L836 190ZM736 887Q604 887 517 768T429 469Q429 367 476 314T613 260Q744 260 832 378T920 674Q920 778 873 832T736
887Z" />
<glyph unicode="&#x124;" glyph-name="Hcircumflex" horiz-adv-x="1714" d="M1707 1899H2055L2207 1635H2037L1873 1796L1642 1635H1463L1707 1899ZM311 1493H696L585 924H1153L1263 1493H1648L1357 0H972L1095 633H528L405 0H20L311 1493Z" />
<glyph unicode="&#x125;" glyph-name="hcircumflex" horiz-adv-x="1458" d="M1230 1899H1578L1730 1635H1560L1396 1796L1165 1635H986L1230 1899ZM1273 682L1140 0H781L894 584Q906 641 912 680T919 743Q919 807 884 842T783 877Q672 877 593 791T482 551L374
0H15L317 1556H677L560 956Q659 1053 759 1100T968 1147Q1123 1147 1207 1066T1291 838Q1291 806 1287 767T1273 682Z" />
<glyph unicode="&#x126;" glyph-name="Hbar" horiz-adv-x="1769" d="M314 1493H699L663 1306H1231L1267 1493H1652L1616 1306H1756L1718 1112H1578L1362 0H977L1100 633H532L409 0H24L240 1112H100L138 1306H278L314 1493ZM625 1112L589 924H1157L1193 1112H625Z" />
<glyph unicode="&#x127;" glyph-name="hbar" horiz-adv-x="1313" d="M1281 682L1148 0H788L889 520Q917 662 921 722Q923 737 923 750Q923 784 915 803Q901 838 869 858Q837 877 790 877Q678 877 598 791T487 551L380 0H22L266 1255H106L143 1449H303L324 1556H682L661
1449H1024L987 1255H624L566 956Q666 1054 765 1100Q865 1147 975 1147Q1169 1147 1247 1028Q1297 952 1297 832Q1297 764 1281 682Z" />
<glyph unicode="&#x128;" glyph-name="Itilde" horiz-adv-x="762" d="M1331 1686L1282 1723Q1258 1742 1242 1748T1207 1755Q1171 1755 1145 1723T1108 1635H971Q997 1763 1062 1832T1223 1901Q1260 1901 1292 1889T1360 1850L1413 1809Q1429 1796 1447 1789T1481
1782Q1520 1782 1546 1812T1583 1901H1721Q1695 1773 1630 1704T1471 1635Q1433 1635 1401 1646T1331 1686ZM295 1493H680L389 0H4L295 1493Z" />
<glyph unicode="&#x129;" glyph-name="itilde" horiz-adv-x="702" d="M244 1364L195 1401Q192 1403 185 1408Q147 1438 117 1438Q83 1438 57 1404T21 1309H-119Q-92 1446 -27 1519T133 1593Q169 1593 202 1580T273 1536L326 1493Q344 1478 361 1470T393 1462Q431
1462 457 1495T494 1591H633Q607 1455 542 1381T383 1307Q349 1307 319 1318T244 1364ZM224 1120H584L365 0H6L224 1120Z" />
<glyph unicode="&#x12a;" glyph-name="Imacron" horiz-adv-x="762" d="M295 1493H680L389 0H4L295 1493ZM-62 1871H569L532 1683H-99L-62 1871Z" />
<glyph unicode="&#x12b;" glyph-name="imacron" horiz-adv-x="702" d="M224 1120H584L365 0H6L224 1120ZM-91 1563H540L503 1375H-128L-91 1563Z" />
<glyph unicode="&#x12c;" glyph-name="Ibreve" horiz-adv-x="762" d="M973 1899H1116Q1126 1839 1166 1812T1286 1784Q1358 1784 1411 1814T1487 1899H1640Q1601 1770 1502 1703T1255 1635Q1119 1635 1046 1702T973 1895V1899ZM295 1493H680L389 0H4L295 1493Z" />
<glyph unicode="&#x12d;" glyph-name="ibreve" horiz-adv-x="702" d="M-111 1606H31V1597Q31 1532 74 1497T197 1462Q278 1462 330 1497T410 1606H562Q528 1463 426 1386T167 1309Q27 1309 -43 1371T-114 1554Q-114 1575 -114 1585T-111 1606ZM224 1120H584L365
0H6L224 1120Z" />
<glyph unicode="&#x12e;" glyph-name="Iogonek" horiz-adv-x="762" d="M295 1493H680L389 0H4L295 1493ZM411 0H553Q482 -74 456 -114T430 -182Q430 -216 454 -235T524 -254Q561 -254 602 -246T686 -223L657 -375Q600 -388 555 -394T471 -401Q365 -401 310 -367T254
-266Q254 -201 291 -138T411 0Z" />
<glyph unicode="&#x12f;" glyph-name="iogonek" horiz-adv-x="702" d="M405 0H547Q476 -74 450 -114T424 -182Q424 -216 448 -235T518 -254Q555 -254 596 -246T680 -223L651 -375Q594 -388 549 -394T465 -401Q359 -401 304 -367T248 -266Q248 -201 285 -138T405
0ZM221 1120H581L362 0H3L221 1120ZM305 1556H665L608 1264H247L305 1556Z" />
<glyph unicode="&#x130;" glyph-name="Idot" horiz-adv-x="762" d="M295 1493H680L389 0H4L295 1493ZM1020 1899H1295L1248 1653H973L1020 1899Z" />
<glyph unicode="&#x131;" glyph-name="dotlessi" horiz-adv-x="590" d="M224 1120H584L365 0H6L224 1120Z" />
<glyph unicode="&#x132;" glyph-name="IJ" horiz-adv-x="1524" d="M295 1493H680L389 0H4L295 1493ZM1435 1493H1820L1558 145Q1500 -147 1331 -278T839 -410H761L818 -119H878Q997 -119 1072 -52T1173 145L1435 1493Z" />
<glyph unicode="&#x133;" glyph-name="ij" horiz-adv-x="1404" d="M221 1120H581L362 0H3L221 1120ZM305 1556H665L608 1264H247L305 1556ZM1245 1120H1605L1390 20Q1344 -215 1219 -328T880 -442H702L747 -207H810Q911 -207 957 -162T1030 20L1245 1120ZM1329
1556H1689L1632 1264H1271L1329 1556Z" />
<glyph unicode="&#x134;" glyph-name="Jcircumflex" horiz-adv-x="762" d="M1231 1899H1579L1731 1635H1561L1397 1796L1166 1635H987L1231 1899ZM674 1493H1059L797 145Q739 -147 570 -278T78 -410H0L57 -119H117Q236 -119 311 -52T412 145L674 1493Z" />
<glyph unicode="&#x135;" glyph-name="jcircumflex" horiz-adv-x="702" d="M476 1638H738L920 1262H742L586 1487L345 1262H148L476 1638ZM543 1120H903L688 20Q642 -215 517 -328T178 -442H0L45 -207H108Q209 -207 255 -162T328 20L543 1120Z" />
<glyph unicode="&#x136;" glyph-name="Kcommaaccent" horiz-adv-x="1587" d="M1444 -131H1768L1488 -429H1296L1444 -131ZM311 1493H696L591 956L1226 1493H1691L835 768L1480 0H1028L526 623L405 0H20L311 1493Z" />
<glyph unicode="&#x137;" glyph-name="kcommaaccent" horiz-adv-x="1362" d="M1346 -131H1670L1390 -429H1198L1346 -131ZM319 1556H679L515 713L998 1120H1420L769 602L1242 0H833L470 483L376 0H17L319 1556Z" />
<glyph unicode="&#x138;" glyph-name="kgreenlandic" horiz-adv-x="1439" d="M240 1120H598L518 709L1010 1120H1426L779 606L1251 0H817L471 467L380 0H22L240 1120Z" />
<glyph unicode="&#x139;" glyph-name="Lacute" horiz-adv-x="1305" d="M1286 1900H1566L1247 1636H1040L1286 1900ZM304 1493H689L455 291H1129L1074 0H13L304 1493Z" />
<glyph unicode="&#x13a;" glyph-name="lacute" horiz-adv-x="702" d="M1261 1900H1541L1222 1636H1015L1261 1900ZM305 1556H665L362 0H3L305 1556Z" />
<glyph unicode="&#x13b;" glyph-name="Lcommaaccent" horiz-adv-x="1305" d="M1244 -131H1568L1288 -429H1096L1244 -131ZM304 1493H689L455 291H1129L1074 0H13L304 1493Z" />
<glyph unicode="&#x13c;" glyph-name="lcommaaccent" horiz-adv-x="702" d="M913 -131H1237L957 -429H765L913 -131ZM305 1556H665L362 0H3L305 1556Z" />
<glyph unicode="&#x13d;" glyph-name="Lcaron" horiz-adv-x="1305" d="M1553 1493H1846L1631 1117H1430L1553 1493ZM304 1493H689L455 291H1129L1074 0H13L304 1493Z" />
<glyph unicode="&#x13e;" glyph-name="lcaron" horiz-adv-x="702" d="M1468 1557H1761L1546 1181H1345L1468 1557ZM305 1556H665L362 0H3L305 1556Z" />
<glyph unicode="&#x13f;" glyph-name="Ldot" horiz-adv-x="1305" d="M767 1091H1127L1051 704H691L767 1091ZM304 1493H689L455 291H1129L1074 0H13L304 1493Z" />
<glyph unicode="&#x140;" glyph-name="ldot" horiz-adv-x="702" d="M625 1097H985L909 710H549L625 1097ZM305 1556H665L362 0H3L305 1556Z" />
<glyph unicode="&#x141;" glyph-name="Lslash" horiz-adv-x="1294" d="M461 1493H846L745 977L1085 1128L1190 918L690 698L612 291H1286L1231 0H170L268 502L108 428L4 643L321 778L461 1493Z" />
<glyph unicode="&#x142;" glyph-name="lslash" horiz-adv-x="950" d="M424 1556H784L682 1040L850 1118L950 915L630 770L481 0H120L237 598L98 530L2 733L290 868L424 1556Z" />
<glyph unicode="&#x143;" glyph-name="Nacute" horiz-adv-x="1714" d="M1624 1900H1904L1585 1636H1378L1624 1900ZM311 1493H741L1083 459L1284 1493H1648L1357 0H927L585 1034L385 0H20L311 1493Z" />
<glyph unicode="&#x144;" glyph-name="nacute" horiz-adv-x="1458" d="M507 1645H800L362 1269H161L507 1645ZM1277 682L1144 0H785L898 584Q910 641 916 680T923 743Q923 807 888 842T787 877Q676 877 597 791T486 551L378 0H19L237 1120H597L564 956Q663 1053
763 1100T972 1147Q1127 1147 1211 1066T1295 838Q1295 806 1291 767T1277 682Z" />
<glyph unicode="&#x145;" glyph-name="Ncommaaccent" horiz-adv-x="1714" d="M1382 -131H1706L1426 -429H1234L1382 -131ZM311 1493H741L1083 459L1284 1493H1648L1357 0H927L585 1034L385 0H20L311 1493Z" />
<glyph unicode="&#x146;" glyph-name="ncommaaccent" horiz-adv-x="1458" d="M1296 -131H1620L1340 -429H1148L1296 -131ZM1277 682L1144 0H785L898 584Q910 641 916 680T923 743Q923 807 888 842T787 877Q676 877 597 791T486 551L378 0H19L237 1120H597L564
956Q663 1053 763 1100T972 1147Q1127 1147 1211 1066T1295 838Q1295 806 1291 767T1277 682Z" />
<glyph unicode="&#x147;" glyph-name="Ncaron" horiz-adv-x="1714" d="M311 1493H741L1083 459L1284 1493H1648L1357 0H927L585 1034L385 0H20L311 1493ZM1991 1635H1642L1505 1899H1677L1825 1737L2056 1899H2234L1991 1635Z" />
<glyph unicode="&#x148;" glyph-name="ncaron" horiz-adv-x="1458" d="M1277 682L1144 0H785L898 584Q910 641 916 680T923 743Q923 807 888 842T787 877Q676 877 597 791T486 551L378 0H19L237 1120H597L564 956Q663 1053 763 1100T972 1147Q1127 1147 1211 1066T1295
838Q1295 806 1291 767T1277 682ZM675 1262H415L232 1638H408L564 1411L808 1638H1004L675 1262Z" />
<glyph unicode="&#x149;" glyph-name="napostrophe" horiz-adv-x="2013" d="M461 1493H801L746 1208L450 856H237L406 1208L461 1493ZM1804 682L1671 0H1312L1425 584Q1437 641 1443 680T1450 743Q1450 807 1415 842T1314 877Q1203 877 1124 791T1013 551L905
0H546L764 1120H1124L1091 956Q1190 1053 1290 1100T1499 1147Q1654 1147 1738 1066T1822 838Q1822 806 1818 767T1804 682Z" />
<glyph unicode="&#x14a;" glyph-name="Eng" horiz-adv-x="1552" d="M1361 145Q1304 -152 1149 -272Q970 -410 663 -410H585L642 -119H702Q822 -119 899 -50T1000 145L1106 691Q1148 908 1148 972T1129 1073T1060 1136T938 1162Q781 1162 670 1047T519 730L377
0H9L299 1493H671L627 1266Q764 1401 892 1460T1165 1520Q1392 1520 1480 1362Q1532 1267 1532 1146T1509 903L1361 145Z" />
<glyph unicode="&#x14b;" glyph-name="eng" horiz-adv-x="1305" d="M1270 682L1141 20Q1098 -203 965 -324Q834 -442 629 -442H348L393 -207H559Q661 -207 708 -161T781 20L879 522Q907 667 912 722Q913 736 913 748Q913 784 905 803Q890 838 858 858Q826 877
780 877Q668 877 587 790Q506 704 477 551L369 0H11L229 1120H587L555 956Q655 1054 755 1100Q855 1147 965 1147Q1159 1147 1237 1028Q1286 952 1286 833Q1286 765 1270 682Z" />
<glyph unicode="&#x14c;" glyph-name="Omacron" horiz-adv-x="1741" d="M1205 881Q1205 1057 1126 1149T895 1241Q695 1241 560 1062T424 612Q424 440 503 345T723 250Q838 250 927 298T1080 442Q1140 533 1172 647T1205 881ZM951 1520Q1249 1520 1430 1355T1612
922Q1612 740 1557 578T1395 287Q1265 128 1088 50T678 -29Q381 -29 200 136T19 569Q19 752 74 914T236 1206Q364 1364 541 1442T951 1520ZM427 1871H1058L1021 1683H390L427 1871Z" />
<glyph unicode="&#x14d;" glyph-name="omacron" horiz-adv-x="1407" d="M713 891Q574 891 484 765T394 444Q394 338 442 283T584 227Q723 227 813 353T903 676Q903 781 855 836T713 891ZM742 1147Q992 1147 1135 1020T1278 674Q1278 547 1233 428T1102 209Q1000
91 861 31T551 -29Q304 -29 162 98T19 444Q19 570 65 690T197 911Q297 1027 435 1087T742 1147ZM262 1563H893L856 1375H225L262 1563Z" />
<glyph unicode="&#x14e;" glyph-name="Obreve" horiz-adv-x="1741" d="M1491 1899H1634Q1644 1839 1684 1812T1804 1784Q1876 1784 1929 1814T2005 1899H2158Q2119 1770 2020 1703T1773 1635Q1637 1635 1564 1702T1491 1895V1899ZM1205 881Q1205 1057 1126 1149T895
1241Q695 1241 560 1062T424 612Q424 440 503 345T723 250Q838 250 927 298T1080 442Q1140 533 1172 647T1205 881ZM951 1520Q1249 1520 1430 1355T1612 922Q1612 740 1557 578T1395 287Q1265 128 1088 50T678 -29Q381 -29 200 136T19 569Q19 752 74 914T236 1206Q364
1364 541 1442T951 1520Z" />
<glyph unicode="&#x14f;" glyph-name="obreve" horiz-adv-x="1407" d="M222 1606H364V1597Q364 1532 407 1497T530 1462Q611 1462 663 1497T743 1606H895Q861 1463 759 1386T500 1309Q360 1309 290 1371T219 1554Q219 1575 219 1585T222 1606ZM713 891Q574 891
484 765T394 444Q394 338 442 283T584 227Q723 227 813 353T903 676Q903 781 855 836T713 891ZM742 1147Q992 1147 1135 1020T1278 674Q1278 547 1233 428T1102 209Q1000 91 861 31T551 -29Q304 -29 162 98T19 444Q19 570 65 690T197 911Q297 1027 435 1087T742
1147Z" />
<glyph unicode="&#x150;" glyph-name="Ohungarumlaut" horiz-adv-x="1741" d="M2194 1899H2474L2155 1635H1948L2194 1899ZM1729 1899H2009L1690 1635H1483L1729 1899ZM1205 881Q1205 1057 1126 1149T895 1241Q695 1241 560 1062T424 612Q424 440 503 345T723
250Q838 250 927 298T1080 442Q1140 533 1172 647T1205 881ZM951 1520Q1249 1520 1430 1355T1612 922Q1612 740 1557 578T1395 287Q1265 128 1088 50T678 -29Q381 -29 200 136T19 569Q19 752 74 914T236 1206Q364 1364 541 1442T951 1520Z" />
<glyph unicode="&#x151;" glyph-name="ohungarumlaut" horiz-adv-x="1407" d="M441 1638H691L380 1262H206L441 1638ZM816 1638H1066L722 1262H548L816 1638ZM713 891Q574 891 484 765T394 444Q394 338 442 283T584 227Q723 227 813 353T903 676Q903 781 855 836T713
891ZM742 1147Q992 1147 1135 1020T1278 674Q1278 547 1233 428T1102 209Q1000 91 861 31T551 -29Q304 -29 162 98T19 444Q19 570 65 690T197 911Q297 1027 435 1087T742 1147Z" />
<glyph unicode="&#x152;" glyph-name="OE" horiz-adv-x="2324" d="M1204 1202H1099Q959 1202 855 1179T675 1106Q562 1032 494 907T425 647Q425 464 545 378T921 291H1028L1204 1202ZM1171 1493H2299L2242 1202H1591L1535 924H2150L2093 633H1478L1413 291H2088L2031
0H872H817Q438 0 230 151T22 575Q22 817 140 1022T466 1350Q594 1423 751 1458T1114 1493H1171Z" />
<glyph unicode="&#x153;" glyph-name="oe" horiz-adv-x="2137" d="M1750 682Q1753 695 1754 708T1756 735Q1756 815 1708 862T1578 909Q1473 909 1398 851T1285 682H1750ZM2088 518L2076 461H1238Q1238 455 1237 444T1236 426Q1236 317 1301 263T1498 209Q1610
209 1736 243T2000 344L1945 66Q1814 18 1684 -5T1418 -29Q1263 -29 1163 10T1005 131Q915 49 808 10T564 -29Q313 -29 170 97T26 444Q26 571 71 691T202 911Q303 1028 443 1087T755 1147Q895 1147 996 1107T1162 985Q1256 1066 1370 1106T1621 1147Q1844 1147
1977 1025T2111 702Q2111 662 2105 616T2088 518ZM720 891Q581 891 491 765T401 444Q401 338 449 283T591 227Q730 227 820 353T910 676Q910 781 862 836T720 891Z" />
<glyph unicode="&#x154;" glyph-name="Racute" horiz-adv-x="1577" d="M1588 1900H1868L1549 1636H1342L1588 1900ZM726 831Q857 831 924 892T992 1071Q992 1145 946 1179T799 1214H640L564 831H726ZM513 565L402 0H17L308 1493H877Q1123 1493 1250 1401T1377
1130Q1377 949 1277 832T1006 698Q1084 682 1136 619T1227 424L1354 0H971L859 371Q825 482 777 523T636 565H513Z" />
<glyph unicode="&#x155;" glyph-name="racute" horiz-adv-x="1010" d="M507 1645H800L362 1269H161L507 1645ZM1006 815Q969 836 924 847T827 858Q690 858 600 770T477 516L375 0H16L234 1120H594L555 928Q626 1034 732 1090T969 1147Q988 1147 1012 1145T1069
1139L1006 815Z" />
<glyph unicode="&#x156;" glyph-name="Rcommaaccent" horiz-adv-x="1577" d="M1382 -131H1706L1426 -429H1234L1382 -131ZM726 831Q857 831 924 892T992 1071Q992 1145 946 1179T799 1214H640L564 831H726ZM513 565L402 0H17L308 1493H877Q1123 1493 1250 1401T1377
1130Q1377 949 1277 832T1006 698Q1084 682 1136 619T1227 424L1354 0H971L859 371Q825 482 777 523T636 565H513Z" />
<glyph unicode="&#x157;" glyph-name="rcommaaccent" horiz-adv-x="1010" d="M913 -131H1237L957 -429H765L913 -131ZM1006 815Q969 836 924 847T827 858Q690 858 600 770T477 516L375 0H16L234 1120H594L555 928Q626 1034 732 1090T969 1147Q988 1147 1012 1145T1069
1139L1006 815Z" />
<glyph unicode="&#x158;" glyph-name="Rcaron" horiz-adv-x="1577" d="M726 831Q857 831 924 892T992 1071Q992 1145 946 1179T799 1214H640L564 831H726ZM513 565L402 0H17L308 1493H877Q1123 1493 1250 1401T1377 1130Q1377 949 1277 832T1006 698Q1084 682
1136 619T1227 424L1354 0H971L859 371Q825 482 777 523T636 565H513ZM1805 1635H1456L1319 1899H1491L1639 1737L1870 1899H2048L1805 1635Z" />
<glyph unicode="&#x159;" glyph-name="rcaron" horiz-adv-x="1010" d="M1006 815Q969 836 924 847T827 858Q690 858 600 770T477 516L375 0H16L234 1120H594L555 928Q626 1034 732 1090T969 1147Q988 1147 1012 1145T1069 1139L1006 815ZM609 1262H349L166 1638H342L498
1411L742 1638H938L609 1262Z" />
<glyph unicode="&#x15a;" glyph-name="Sacute" horiz-adv-x="1475" d="M1588 1900H1868L1549 1636H1342L1588 1900ZM1343 1446L1281 1130Q1168 1186 1058 1213T843 1241Q699 1241 619 1196T538 1071Q538 1020 573 992T720 936L878 897Q1076 847 1168 753T1261
508Q1261 265 1077 118T581 -29Q436 -29 293 -2T12 78L73 403Q206 326 331 288T579 250Q711 250 793 304T876 442Q876 497 839 527T677 590L520 629Q346 672 261 765T176 1006Q176 1239 354 1379T835 1520Q956 1520 1083 1502T1343 1446Z" />
<glyph unicode="&#x15b;" glyph-name="sacute" horiz-adv-x="1219" d="M507 1645H800L362 1269H161L507 1645ZM1141 1085L1088 807Q983 857 879 883T682 909Q576 909 519 882T461 803Q461 773 493 755T619 717L684 705Q901 659 988 587T1075 385Q1075 190 922
81T494 -29Q379 -29 259 -11T14 43L68 324Q165 267 275 238T502 209Q615 209 672 236T729 315Q729 351 697 371T565 412L500 424Q308 464 226 542T144 758Q144 945 285 1046T690 1147Q805 1147 916 1132T1141 1085Z" />
<glyph unicode="&#x15c;" glyph-name="Scircumflex" horiz-adv-x="1475" d="M1553 1899H1901L2053 1635H1883L1719 1796L1488 1635H1309L1553 1899ZM1343 1446L1281 1130Q1168 1186 1058 1213T843 1241Q699 1241 619 1196T538 1071Q538 1020 573 992T720 936L878
897Q1076 847 1168 753T1261 508Q1261 265 1077 118T581 -29Q436 -29 293 -2T12 78L73 403Q206 326 331 288T579 250Q711 250 793 304T876 442Q876 497 839 527T677 590L520 629Q346 672 261 765T176 1006Q176 1239 354 1379T835 1520Q956 1520 1083 1502T1343
1446Z" />
<glyph unicode="&#x15d;" glyph-name="scircumflex" horiz-adv-x="1219" d="M449 1638H711L893 1262H715L559 1487L318 1262H121L449 1638ZM1141 1085L1088 807Q983 857 879 883T682 909Q576 909 519 882T461 803Q461 773 493 755T619 717L684 705Q901 659 988
587T1075 385Q1075 190 922 81T494 -29Q379 -29 259 -11T14 43L68 324Q165 267 275 238T502 209Q615 209 672 236T729 315Q729 351 697 371T565 412L500 424Q308 464 226 542T144 758Q144 945 285 1046T690 1147Q805 1147 916 1132T1141 1085Z" />
<glyph unicode="&#x15e;" glyph-name="Scedilla" horiz-adv-x="1475" d="M1343 1446L1281 1130Q1168 1186 1058 1213T843 1241Q699 1241 619 1196T538 1071Q538 1020 573 992T720 936L878 897Q1076 847 1168 753T1261 508Q1261 265 1077 118T581 -29Q436 -29 293
-2T12 78L73 403Q206 326 331 288T579 250Q711 250 793 304T876 442Q876 497 839 527T677 590L520 629Q346 672 261 765T176 1006Q176 1239 354 1379T835 1520Q956 1520 1083 1502T1343 1446ZM640 0Q677 -52 694 -96T711 -182Q711 -286 636 -343T423 -401Q374 -401
326 -395T226 -375L255 -219Q295 -236 335 -245T414 -254Q480 -254 518 -226T556 -150Q556 -124 543 -90T498 0H640Z" />
<glyph unicode="&#x15f;" glyph-name="scedilla" horiz-adv-x="1219" d="M1141 1085L1088 807Q983 857 879 883T682 909Q576 909 519 882T461 803Q461 773 493 755T619 717L684 705Q901 659 988 587T1075 385Q1075 190 922 81T494 -29Q379 -29 259 -11T14 43L68
324Q165 267 275 238T502 209Q615 209 672 236T729 315Q729 351 697 371T565 412L500 424Q308 464 226 542T144 758Q144 945 285 1046T690 1147Q805 1147 916 1132T1141 1085ZM513 0Q550 -52 567 -96T584 -182Q584 -286 509 -343T296 -401Q247 -401 199 -395T99
-375L128 -219Q168 -236 208 -245T287 -254Q353 -254 391 -226T429 -150Q429 -124 416 -90T371 0H513Z" />
<glyph unicode="&#x160;" glyph-name="Scaron" horiz-adv-x="1475" d="M1343 1446L1281 1130Q1168 1186 1058 1213T843 1241Q699 1241 619 1196T538 1071Q538 1020 573 992T720 936L878 897Q1076 847 1168 753T1261 508Q1261 265 1077 118T581 -29Q436 -29 293
-2T12 78L73 403Q206 326 331 288T579 250Q711 250 793 304T876 442Q876 497 839 527T677 590L520 629Q346 672 261 765T176 1006Q176 1239 354 1379T835 1520Q956 1520 1083 1502T1343 1446ZM1811 1635H1462L1325 1899H1497L1645 1737L1876 1899H2054L1811 1635Z"
/>
<glyph unicode="&#x161;" glyph-name="scaron" horiz-adv-x="1219" d="M1141 1085L1088 807Q983 857 879 883T682 909Q576 909 519 882T461 803Q461 773 493 755T619 717L684 705Q901 659 988 587T1075 385Q1075 190 922 81T494 -29Q379 -29 259 -11T14 43L68
324Q165 267 275 238T502 209Q615 209 672 236T729 315Q729 351 697 371T565 412L500 424Q308 464 226 542T144 758Q144 945 285 1046T690 1147Q805 1147 916 1132T1141 1085ZM556 1262H296L113 1638H289L445 1411L689 1638H885L556 1262Z" />
<glyph unicode="&#x162;" glyph-name="Tcommaaccent" horiz-adv-x="1397" d="M586 0Q623 -52 640 -96T657 -182Q657 -286 582 -343T369 -401Q320 -401 272 -395T172 -375L201 -219Q241 -236 281 -245T360 -254Q426 -254 464 -226T502 -150Q502 -124 489 -90T444
0H586ZM74 1493H1450L1393 1202H897L663 0H278L512 1202H16L74 1493Z" />
<glyph unicode="&#x163;" glyph-name="tcommaaccent" horiz-adv-x="979" d="M497 0Q534 -52 551 -96T568 -182Q568 -286 493 -343T280 -401Q231 -401 183 -395T83 -375L112 -219Q152 -236 192 -245T271 -254Q337 -254 375 -226T413 -150Q413 -124 400 -90T355
0H497ZM661 1438L600 1120H966L915 864H549L457 390Q453 374 452 363T450 342Q450 296 480 276T583 256H768L717 0H416Q254 0 169 68T84 264Q84 292 87 324T96 389L188 864H12L61 1120H239L301 1438H661Z" />
<glyph unicode="&#x164;" glyph-name="Tcaron" horiz-adv-x="1397" d="M74 1493H1450L1393 1202H897L663 0H278L512 1202H16L74 1493ZM1787 1635H1438L1301 1899H1473L1621 1737L1852 1899H2030L1787 1635Z" />
<glyph unicode="&#x165;" glyph-name="tcaron" horiz-adv-x="979" d="M661 1438L600 1120H966L915 864H549L457 390Q453 374 452 363T450 342Q450 296 480 276T583 256H768L717 0H416Q254 0 169 68T84 264Q84 292 87 324T96 389L188 864H12L61 1120H239L301 1438H661ZM1536
1638H1829L1614 1262H1413L1536 1638Z" />
<glyph unicode="&#x166;" glyph-name="Tbar" horiz-adv-x="1450" d="M73 1493H1449L1393 1202H898L799 697H1046L1009 505H762L664 0H279L377 505H130L167 697H414L513 1202H17L73 1493Z" />
<glyph unicode="&#x167;" glyph-name="tbar" horiz-adv-x="1031" d="M721 1438L659 1120H1028L978 864H609L582 722H766L728 530H544L517 389Q511 360 511 338Q511 301 527 284Q553 256 645 256H829L779 0H472Q260 0 189 88Q144 145 144 250Q144 311 159 389L186
530H8L46 722H224L251 864H73L123 1120H301L363 1438H721Z" />
<glyph unicode="&#x168;" glyph-name="Utilde" horiz-adv-x="1663" d="M1770 1686L1721 1723Q1697 1742 1681 1748T1646 1755Q1610 1755 1584 1723T1547 1635H1410Q1436 1763 1501 1832T1662 1901Q1699 1901 1731 1889T1799 1850L1852 1809Q1868 1796 1886 1789T1920
1782Q1959 1782 1985 1812T2022 1901H2160Q2134 1773 2069 1704T1910 1635Q1872 1635 1840 1646T1770 1686ZM220 1493H605L431 599Q421 551 417 514T412 449Q412 351 464 303T621 254Q761 254 836 332T947 598L1121 1493H1506L1332 598Q1267 268 1086 120T566 -29Q301
-29 163 84T25 414Q25 450 30 494T46 598L220 1493Z" />
<glyph unicode="&#x169;" glyph-name="utilde" horiz-adv-x="1458" d="M601 1364L552 1401Q549 1403 542 1408Q504 1438 474 1438Q440 1438 414 1404T378 1309H238Q265 1446 330 1519T490 1593Q526 1593 559 1580T630 1536L683 1493Q701 1478 718 1470T750 1462Q788
1462 814 1495T851 1591H990Q964 1455 899 1381T740 1307Q706 1307 676 1318T601 1364ZM43 436L174 1120H533L420 537Q408 480 402 440T396 377Q396 314 431 279T531 244Q642 244 722 330T832 569L940 1120H1299L1082 0H721L754 164Q662 67 561 19T348 -29Q195
-29 111 52T27 281Q27 316 31 355T43 436Z" />
<glyph unicode="&#x16a;" glyph-name="Umacron" horiz-adv-x="1663" d="M220 1493H605L431 599Q421 551 417 514T412 449Q412 351 464 303T621 254Q761 254 836 332T947 598L1121 1493H1506L1332 598Q1267 268 1086 120T566 -29Q301 -29 163 84T25 414Q25 450
30 494T46 598L220 1493ZM389 1871H1020L983 1683H352L389 1871Z" />
<glyph unicode="&#x16b;" glyph-name="umacron" horiz-adv-x="1458" d="M43 436L174 1120H533L420 537Q408 480 402 440T396 377Q396 314 431 279T531 244Q642 244 722 330T832 569L940 1120H1299L1082 0H721L754 164Q662 67 561 19T348 -29Q195 -29 111 52T27
281Q27 316 31 355T43 436ZM280 1562H911L874 1374H243L280 1562Z" />
<glyph unicode="&#x16c;" glyph-name="Ubreve" horiz-adv-x="1663" d="M1412 1899H1555Q1565 1839 1605 1812T1725 1784Q1797 1784 1850 1814T1926 1899H2079Q2040 1770 1941 1703T1694 1635Q1558 1635 1485 1702T1412 1895V1899ZM220 1493H605L431 599Q421 551
417 514T412 449Q412 351 464 303T621 254Q761 254 836 332T947 598L1121 1493H1506L1332 598Q1267 268 1086 120T566 -29Q301 -29 163 84T25 414Q25 450 30 494T46 598L220 1493Z" />
<glyph unicode="&#x16d;" glyph-name="ubreve" horiz-adv-x="1458" d="M246 1606H388V1597Q388 1532 431 1497T554 1462Q635 1462 687 1497T767 1606H919Q885 1463 783 1386T524 1309Q384 1309 314 1371T243 1554Q243 1575 243 1585T246 1606ZM43 436L174 1120H533L420
537Q408 480 402 440T396 377Q396 314 431 279T531 244Q642 244 722 330T832 569L940 1120H1299L1082 0H721L754 164Q662 67 561 19T348 -29Q195 -29 111 52T27 281Q27 316 31 355T43 436Z" />
<glyph unicode="&#x16e;" glyph-name="Uring" horiz-adv-x="1663" d="M912 1607Q912 1487 830 1405T628 1322Q508 1322 426 1404T343 1607Q343 1727 425 1809T628 1891Q747 1891 829 1809T912 1607ZM777 1607Q777 1672 735 1714T628 1756Q562 1756 520 1714T478
1607Q478 1542 520 1500T628 1457Q693 1457 735 1499T777 1607ZM220 1493H605L431 599Q421 551 417 514T412 449Q412 351 464 303T621 254Q761 254 836 332T947 598L1121 1493H1506L1332 598Q1267 268 1086 120T566 -29Q301 -29 163 84T25 414Q25 450 30 494T46
598L220 1493Z" />
<glyph unicode="&#x16f;" glyph-name="uring" horiz-adv-x="1458" d="M43 436L174 1120H533L420 537Q408 480 402 440T396 377Q396 314 431 279T531 244Q642 244 722 330T832 569L940 1120H1299L1082 0H721L754 164Q662 67 561 19T348 -29Q195 -29 111 52T27 281Q27
316 31 355T43 436ZM793 1505Q793 1385 711 1303T509 1220Q389 1220 307 1302T224 1505Q224 1625 306 1707T509 1789Q628 1789 710 1707T793 1505ZM658 1505Q658 1570 616 1612T509 1654Q443 1654 401 1612T359 1505Q359 1440 401 1398T509 1355Q574 1355 616 1397T658
1505Z" />
<glyph unicode="&#x170;" glyph-name="Uhungarumlaut" horiz-adv-x="1663" d="M2115 1899H2395L2076 1635H1869L2115 1899ZM1650 1899H1930L1611 1635H1404L1650 1899ZM220 1493H605L431 599Q421 551 417 514T412 449Q412 351 464 303T621 254Q761 254 836 332T947
598L1121 1493H1506L1332 598Q1267 268 1086 120T566 -29Q301 -29 163 84T25 414Q25 450 30 494T46 598L220 1493Z" />
<glyph unicode="&#x171;" glyph-name="uhungarumlaut" horiz-adv-x="1458" d="M465 1638H715L404 1262H230L465 1638ZM840 1638H1090L746 1262H572L840 1638ZM43 436L174 1120H533L420 537Q408 480 402 440T396 377Q396 314 431 279T531 244Q642 244 722 330T832
569L940 1120H1299L1082 0H721L754 164Q662 67 561 19T348 -29Q195 -29 111 52T27 281Q27 316 31 355T43 436Z" />
<glyph unicode="&#x172;" glyph-name="Uogonek" horiz-adv-x="1663" d="M220 1493H605L431 599Q421 551 417 514T412 449Q412 351 464 303T621 254Q761 254 836 332T947 598L1121 1493H1506L1332 598Q1267 268 1086 120T566 -29Q301 -29 163 84T25 414Q25 450
30 494T46 598L220 1493ZM405 -15H547Q476 -89 450 -129T424 -197Q424 -231 448 -250T518 -269Q555 -269 596 -261T680 -238L651 -390Q594 -403 549 -409T465 -416Q359 -416 304 -382T248 -281Q248 -216 285 -153T405 -15Z" />
<glyph unicode="&#x173;" glyph-name="uogonek" horiz-adv-x="1458" d="M43 436L174 1120H533L420 537Q408 480 402 440T396 377Q396 314 431 279T531 244Q642 244 722 330T832 569L940 1120H1299L1082 0H721L754 164Q662 67 561 19T348 -29Q195 -29 111 52T27
281Q27 316 31 355T43 436ZM900 0H1042Q971 -74 945 -114T919 -182Q919 -216 943 -235T1013 -254Q1050 -254 1091 -246T1175 -223L1146 -375Q1089 -388 1044 -394T960 -401Q854 -401 799 -367T743 -266Q743 -201 780 -138T900 0Z" />
<glyph unicode="&#x174;" glyph-name="Wcircumflex" horiz-adv-x="2259" d="M34 1493H390L436 408L905 1493H1271L1320 408L1773 1493H2156L1513 0H1077L1027 1135L544 0H98L34 1493ZM1984 1906H2332L2484 1642H2314L2150 1803L1919 1642H1740L1984 1906Z" />
<glyph unicode="&#x175;" glyph-name="wcircumflex" horiz-adv-x="1892" d="M796 1638H1058L1240 1262H1062L906 1487L665 1262H468L796 1638ZM33 1120H363L402 350L740 1120H1024L1065 352L1401 1120H1753L1241 0H861L824 770L482 0H111L33 1120Z" />
<glyph unicode="&#x176;" glyph-name="Ycircumflex" horiz-adv-x="1483" d="M14 1493H399L653 940L1097 1493H1542L805 623L684 0H299L420 623L14 1493ZM1594 1906H1942L2094 1642H1924L1760 1803L1529 1642H1350L1594 1906Z" />
<glyph unicode="&#x177;" glyph-name="ycircumflex" horiz-adv-x="1335" d="M529 1638H791L973 1262H795L639 1487L398 1262H201L529 1638ZM158 1120H496L650 344L1047 1120H1430L721 -106Q602 -313 501 -377T240 -442H23L60 -207H173Q261 -207 309 -178T396 -74L429
-14L158 1120Z" />
<glyph unicode="&#x178;" glyph-name="Ydieresis" horiz-adv-x="1483" d="M14 1493H399L653 940L1097 1493H1542L805 623L684 0H299L420 623L14 1493ZM1389 1899H1625L1578 1653H1342L1389 1899ZM1784 1899H2022L1973 1653H1737L1784 1899Z" />
<glyph unicode="&#x179;" glyph-name="Zacute" horiz-adv-x="1485" d="M1588 1900H1868L1549 1636H1342L1588 1900ZM331 1493H1587L1539 1255L571 291H1376L1318 0H18L63 238L1034 1202H274L331 1493Z" />
<glyph unicode="&#x17a;" glyph-name="zacute" horiz-adv-x="1192" d="M507 1645H800L362 1269H161L507 1645ZM259 1120H1236L1187 870L489 256H1068L1019 0H18L65 250L765 864H210L259 1120Z" />
<glyph unicode="&#x17b;" glyph-name="Zdotaccent" horiz-adv-x="1485" d="M331 1493H1587L1539 1255L571 291H1376L1318 0H18L63 238L1034 1202H274L331 1493ZM1405 1881H1680L1633 1635H1358L1405 1881Z" />
<glyph unicode="&#x17c;" glyph-name="zdotaccent" horiz-adv-x="1192" d="M973 1556H1331L1275 1264H917L973 1556ZM259 1120H1236L1187 870L489 256H1068L1019 0H18L65 250L765 864H210L259 1120Z" />
<glyph unicode="&#x17d;" glyph-name="Zcaron" horiz-adv-x="1485" d="M331 1493H1587L1539 1255L571 291H1376L1318 0H18L63 238L1034 1202H274L331 1493ZM1817 1635H1468L1331 1899H1503L1651 1737L1882 1899H2060L1817 1635Z" />
<glyph unicode="&#x17e;" glyph-name="zcaron" horiz-adv-x="1192" d="M259 1120H1236L1187 870L489 256H1068L1019 0H18L65 250L765 864H210L259 1120ZM542 1262H282L99 1638H275L431 1411L675 1638H871L542 1262Z" />
<glyph unicode="&#x17f;" glyph-name="longs" horiz-adv-x="1015" d="M380 0H20L188 864H11L61 1120H237L253 1198Q290 1384 407 1470T740 1556H1015L968 1321H771Q696 1321 661 1294Q627 1266 614 1199L380 0Z" />
<glyph unicode="&#x180;" glyph-name="uni0180" horiz-adv-x="1389" d="M563 956Q656 1054 756 1100Q855 1147 972 1147Q1179 1147 1280 982Q1381 818 1330 559Q1280 300 1115 136Q950 -29 743 -29Q626 -29 545 18Q464 64 409 162L378 0H20L260 1237H106L146 1442H300L322
1556H680L658 1442H986L946 1237H618L563 956ZM595 802Q517 718 486 559T500 316Q545 231 660 231T852 315T960 559T947 803T788 887T595 802Z" />
<glyph unicode="&#x181;" glyph-name="uni0181" horiz-adv-x="1677" d="M1011 915Q1102 915 1157 955Q1211 995 1226 1073Q1241 1150 1202 1190Q1163 1231 1072 1231H859L798 915H1011ZM897 262Q1013 262 1081 311T1168 459Q1187 556 1138 604Q1090 653 973 653H747L671
262H897ZM1359 799Q1476 763 1525 666T1547 428Q1505 212 1338 106Q1172 0 874 0H235L474 1231Q401 1231 395 1230Q349 1226 331 1210Q294 1176 282 1126Q278 1112 272 1079H17L32 1156Q58 1294 119 1359Q142 1383 180 1412Q267 1475 409 1488Q460 1493 525 1493H1103Q1414
1493 1535 1399Q1657 1305 1616 1098Q1595 989 1529 912Q1463 836 1359 799Z" />
<glyph unicode="&#x182;" glyph-name="uni0182" horiz-adv-x="1561" d="M453 262H679Q912 262 948 449Q953 473 953 495Q953 633 751 633H525L453 262ZM307 1493H1436L1380 1202H636L582 924H836Q1119 924 1257 807Q1348 730 1348 580Q1348 522 1336 461Q1245
0 656 0H17L307 1493Z" />
<glyph unicode="&#x183;" glyph-name="uni0183" horiz-adv-x="1397" d="M559 956Q652 1054 752 1100Q851 1147 968 1147Q1175 1147 1276 982Q1377 818 1326 559Q1276 300 1111 136Q946 -29 739 -29Q622 -29 541 18Q460 64 405 162L374 0H16L318 1556H1347L1290
1265H619L559 956ZM591 802Q513 718 482 559T496 316Q541 231 656 231T848 315T956 559T943 803T784 887T591 802Z" />
<glyph unicode="&#x184;" glyph-name="uni0184" horiz-adv-x="1383" d="M678 262Q799 262 862 307Q929 356 947 449Q965 540 916 588Q872 633 750 633H524L452 262H678ZM655 0H16L196 924L42 1104L691 1493L581 924H835Q1118 924 1256 807Q1381 701 1334 461Q1288
223 1122 117Q938 0 655 0Z" />
<glyph unicode="&#x185;" glyph-name="uni0185" horiz-adv-x="1379" d="M557 956Q650 1054 750 1100Q849 1147 966 1147Q1173 1147 1274 982Q1375 818 1324 559Q1274 300 1109 136Q944 -29 737 -29Q620 -29 539 18Q458 64 403 162L372 0H14L193 924L56 1104L674
1556L557 956ZM589 802Q511 718 480 559T494 316Q539 231 654 231T846 315T954 559T941 803T782 887T589 802Z" />
<glyph unicode="&#x186;" glyph-name="uni0186" horiz-adv-x="1440" d="M15 82L77 391Q173 318 270 284T478 250Q709 250 865 428T1021 873Q1021 1045 925 1143T660 1241Q559 1241 446 1205T191 1090L257 1421Q395 1470 522 1495T763 1520Q1064 1520 1244 1355T1424
918Q1424 739 1367 581T1199 291Q1068 137 884 54T486 -29Q370 -29 253 -2T15 82Z" />
<glyph unicode="&#x187;" glyph-name="uni0187" horiz-adv-x="1874" d="M1214 82Q1097 27 977 -1Q856 -29 731 -29Q358 -29 181 180Q3 388 73 745Q142 1103 401 1312Q659 1520 1032 1520Q1081 1520 1126 1516Q1190 1665 1305 1754Q1484 1892 1791 1892H1869L1812
1601H1752Q1632 1601 1558 1534Q1483 1467 1458 1337L1412 1100Q1319 1173 1222 1207Q1124 1241 1009 1241Q803 1241 660 1109Q516 977 471 745Q426 514 518 382Q611 250 817 250Q932 250 1042 284Q1153 318 1274 391L1214 82Z" />
<glyph unicode="&#x188;" glyph-name="uni0188" horiz-adv-x="1470" d="M1135 1021L1091 793Q1028 843 959 867T811 891Q661 891 560 804Q460 716 429 559Q399 402 465 314Q532 227 682 227Q766 227 846 252Q927 277 1000 326L943 33Q853 2 764 -14Q674 -29 587
-29Q284 -29 143 126Q3 282 56 559Q110 836 311 992Q511 1146 811 1147Q860 1282 952 1364Q1083 1483 1288 1483H1465L1419 1248H1357Q1255 1248 1208 1202T1135 1021Z" />
<glyph unicode="&#x189;" glyph-name="uni0189" horiz-adv-x="1731" d="M715 1202L658 903H904L853 643H607L537 291H674Q945 291 1102 442T1260 850Q1260 1024 1157 1113T850 1202H715ZM386 1493H791Q1081 1493 1226 1459T1467 1343Q1564 1262 1614 1146T1664
885Q1664 684 1580 504T1344 201Q1212 92 1038 46T500 0H95L220 643H15L66 903H271L386 1493Z" />
<glyph unicode="&#x18a;" glyph-name="uni018A" horiz-adv-x="1837" d="M855 1202L677 291H815Q1051 291 1199 408Q1346 525 1389 748Q1432 970 1331 1086T993 1202H855ZM475 1231Q402 1231 396 1230Q350 1226 332 1210Q295 1176 283 1126Q279 1112 273 1079H18L33
1156Q59 1294 120 1359Q143 1383 181 1412Q268 1475 410 1488Q461 1493 526 1493H932Q1272 1493 1429 1444Q1585 1396 1683 1280Q1768 1178 1793 1047Q1819 915 1786 748Q1753 579 1677 446Q1600 314 1475 213Q1332 97 1155 48Q978 0 642 0H236L475 1231Z" />
<glyph unicode="&#x18b;" glyph-name="uni018B" horiz-adv-x="1504" d="M636 262H862L934 633H708Q586 633 524 588Q457 540 439 449Q421 356 470 307Q515 262 636 262ZM557 0Q274 0 136 117Q10 223 57 461Q103 701 270 807Q454 924 737 924H990L1045 1202H401L457
1493H1486L1196 0H557Z" />
<glyph unicode="&#x18c;" glyph-name="uni018C" horiz-adv-x="1475" d="M982 956L1042 1265H373L430 1556H1459L1157 0H799L830 162Q737 64 638 18Q539 -29 422 -29Q215 -29 114 136Q13 300 63 559Q114 818 279 982Q444 1147 651 1147Q768 1147 849 1100Q927 1056
982 956ZM605 231Q720 231 797 315T905 559T892 803T733 887Q619 887 542 803T434 559T447 315T605 231Z" />
<glyph unicode="&#x18d;" glyph-name="uni018D" horiz-adv-x="1363" d="M106 -118Q215 -188 501 -188Q704 -188 718 -115Q731 -49 521 -16Q279 21 161 133Q17 268 71 545Q123 810 317 966Q512 1123 799 1123Q1085 1123 1220 966Q1354 810 1300 535Q1260 330 1065
166Q1004 116 934 84Q1066 5 1035 -154Q982 -426 454 -426Q189 -426 60 -356L106 -118ZM707 214Q764 236 817 292Q900 379 930 536Q961 693 912 781Q864 869 749 869Q637 869 554 780Q470 690 442 544Q412 391 468 317Q525 240 622 229Q667 224 707 214Z" />
<glyph unicode="&#x18e;" glyph-name="uni018E" horiz-adv-x="1382" d="M1366 1493L1076 0H15L71 291H747L814 633H199L256 924H871L925 1202H271L327 1493H1366Z" />
<glyph unicode="&#x18f;" glyph-name="uni018F" horiz-adv-x="1650" d="M1208 829Q1231 973 1178 1069Q1083 1241 825 1241Q707 1241 577 1206T297 1100L358 1409Q512 1464 659 1492T940 1520Q1181 1520 1337 1441Q1494 1362 1570 1202Q1632 1071 1627 912Q1622
755 1562 578Q1506 416 1400 287Q1270 128 1092 50Q915 -29 683 -29Q386 -29 205 136Q13 311 24 569Q30 702 54 829H1208ZM1152 571H430Q439 428 508 345Q587 250 728 250Q843 250 932 298Q1022 347 1085 442Q1124 502 1152 571Z" />
<glyph unicode="&#x190;" glyph-name="uni0190" horiz-adv-x="1332" d="M436 805Q307 839 254 922Q202 1006 227 1137Q264 1329 427 1424Q591 1520 882 1520Q990 1520 1098 1504Q1207 1488 1315 1456L1260 1174Q1174 1215 1083 1236T899 1257Q773 1257 695 1210T600
1077Q582 984 645 938Q707 893 852 893H1014L965 645H811Q648 645 555 592Q461 540 441 438Q422 339 493 286T717 233Q820 233 932 260Q1044 288 1163 342L1105 45Q985 8 866 -10Q746 -29 631 -29Q305 -29 158 86Q10 202 54 424Q82 573 180 670Q277 766 436 805Z"
/>
<glyph unicode="&#x191;" glyph-name="uni0191" horiz-adv-x="1717" d="M416 145L678 1493H1717L1660 1202H1006L952 924H1567L1511 633H896L801 145Q747 -134 568 -272Q390 -410 83 -410H5L62 -119H122Q242 -119 316 -52Q391 15 416 145Z" />
<glyph unicode="&#x192;" glyph-name="florin" horiz-adv-x="1412" d="M1412 1556L1366 1321H1168Q1092 1321 1057 1294Q1021 1266 1008 1198L993 1120H1299L1249 864H943L762 -68Q726 -251 607 -338Q488 -426 274 -426H0L46 -191H244Q320 -191 355 -164Q391 -136
404 -68L585 864H407L457 1120H635L650 1198Q686 1381 805 1468Q924 1556 1138 1556H1412Z" />
<glyph unicode="&#x193;" glyph-name="uni0193" horiz-adv-x="1978" d="M1378 111Q1220 41 1058 6T731 -29Q358 -29 181 180Q3 388 73 745Q143 1106 405 1313T1053 1520Q1143 1520 1227 1510Q1290 1663 1408 1754Q1587 1892 1894 1892H1972L1915 1601H1855Q1735
1601 1661 1534Q1586 1467 1561 1337L1515 1100Q1404 1171 1287 1206T1046 1241Q816 1241 667 1112Q517 984 471 745Q425 508 520 379T836 250Q896 250 948 258Q1001 265 1046 281L1102 571H867L917 829H1517L1378 111Z" />
<glyph unicode="&#x194;" glyph-name="uni0194" horiz-adv-x="1643" d="M705 818L1251 1493H1643L840 497L878 405Q965 198 978 99Q992 0 992 -44T987 -114Q959 -267 849 -349Q739 -430 462 -430Q186 -430 107 -349Q51 -291 51 -196Q51 -158 62 -105T138 73T370
405L445 497L29 1493H421L705 818ZM559 150Q435 -4 420 -45Q397 -106 397 -123Q397 -139 419 -167Q440 -195 508 -195Q575 -195 612 -164Q648 -133 651 -109Q654 -86 654 -44Q654 -3 591 150L580 175L559 150Z" />
<glyph unicode="&#x195;" glyph-name="uni0195" horiz-adv-x="2042" d="M889 520Q918 667 922 722T915 803Q901 838 869 858Q836 877 790 877Q678 877 598 790Q517 704 487 551L380 0H22L324 1556H682L566 956Q666 1054 766 1100Q866 1147 976 1147Q1170 1147
1247 1028Q1325 909 1281 682L1237 460Q1205 291 1212 279Q1243 227 1290 231L1311 233Q1429 233 1530 330Q1623 418 1650 560Q1671 667 1636 782Q1612 866 1542 938L1576 1120Q1714 1117 1800 1077Q1839 1059 1887 1027Q1943 990 1970 923Q1972 918 2001 835Q2039
727 2009 569Q1959 315 1776 158Q1591 0 1348 0L1211 -2Q1009 -5 921 116Q834 236 877 460L889 520Z" />
<glyph unicode="&#x196;" glyph-name="uni0196" horiz-adv-x="717" d="M628 1493L446 555Q421 425 469 358T637 291H697L641 0H563Q256 0 131 138Q7 276 61 555L243 1493H628Z" />
<glyph unicode="&#x197;" glyph-name="uni0197" horiz-adv-x="832" d="M363 1493H748L629 881H830L780 621H579L458 0H73L194 621H3L53 881H244L363 1493Z" />
<glyph unicode="&#x198;" glyph-name="uni0198" horiz-adv-x="1691" d="M1284 1156L840 786L1480 0H998L519 588L404 0H19L309 1493H694L589 948L1166 1427Q1278 1520 1409 1520Q1544 1520 1617 1427Q1672 1357 1672 1267Q1672 1236 1665 1203L1623 987H1383L1405
1100Q1411 1130 1398 1148Q1376 1178 1351 1178Q1310 1178 1284 1156Z" />
<glyph unicode="&#x199;" glyph-name="uni0199" horiz-adv-x="1420" d="M510 709L1001 1120H1417L771 606L1243 0H809L463 467L372 0H14L226 1094Q270 1317 403 1438Q534 1556 739 1556H1020L975 1321H809Q708 1321 660 1275Q611 1229 584 1094L510 709Z" />
<glyph unicode="&#x19a;" glyph-name="uni019A" horiz-adv-x="774" d="M367 1556H725L594 881H771L720 621H543L423 0H65L185 621H2L53 881H236L367 1556Z" />
<glyph unicode="&#x19b;" glyph-name="uni019B" horiz-adv-x="1212" d="M-90 0L457 1020L420 1229L83 1128L71 1257L399 1354L363 1556H721L739 1455L1087 1554L1097 1425L762 1328L1000 0H642L550 514L268 0H-90Z" />
<glyph unicode="&#x19c;" glyph-name="uni019C" horiz-adv-x="2101" d="M785 186Q696 82 592 28Q488 -27 376 -27Q194 -27 105 92Q25 199 72 438L277 1493H637L451 536Q447 523 444 509T436 469Q413 350 437 296Q462 243 540 243Q642 243 714 327Q785 411 818
570L998 1493H1358L1172 536Q1136 350 1157 296Q1179 243 1261 243Q1364 243 1436 328Q1509 413 1539 569L1719 1493H2079L1789 0H1429L1460 164Q1376 69 1281 21T1083 -27Q967 -27 889 29T785 186Z" />
<glyph unicode="&#x19d;" glyph-name="uni019D" horiz-adv-x="2023" d="M419 145L681 1493H1111L1455 469L1654 1493H2019L1729 0H1299L955 1024L784 145Q737 -97 632 -215Q604 -247 571 -272Q393 -410 86 -410H8L65 -119H125Q245 -119 319 -52Q394 15 419 145Z" />
<glyph unicode="&#x19e;" glyph-name="uni019E" horiz-adv-x="1458" d="M1263 682L1048 -426H688L793 111L872 522Q901 667 905 722T898 803Q884 838 852 858Q819 877 773 877Q661 877 581 790Q500 704 470 551L363 0H5L223 1120H581L549 956Q649 1054 749 1100Q849
1147 959 1147Q1153 1147 1230 1028Q1308 909 1263 682Z" />
<glyph unicode="&#x19f;" glyph-name="uni019F" horiz-adv-x="1631" d="M951 1520Q1249 1520 1430 1355T1612 922Q1612 740 1557 578T1395 287Q1265 128 1088 50T678 -29Q381 -29 200 136T19 569Q19 752 74 914T236 1206Q364 1364 541 1442T951 1520ZM719 250Q895
250 1017 380Q1117 486 1165 662H431Q426 619 426 579Q426 460 470 380Q542 250 719 250ZM1203 920Q1202 1034 1159 1111Q1087 1241 911 1241Q734 1241 612 1111Q540 1034 494 920H1203Z" />
<glyph unicode="&#x1a0;" glyph-name="Ohorn" horiz-adv-x="1741" d="M1211 881Q1211 1057 1132 1149T901 1241Q701 1241 566 1062T430 612Q430 440 509 345T729 250Q844 250 933 298T1086 442Q1146 533 1178 647T1211 881ZM957 1520Q1255 1520 1436 1355T1618
922Q1618 740 1563 578T1401 287Q1271 128 1094 50T684 -29Q387 -29 206 136T25 569Q25 752 80 914T242 1206Q370 1364 547 1442T957 1520ZM1686 1240L1714 1381Q1771 1331 1804 1312T1863 1293Q1902 1293 1932 1322T1972 1401Q1979 1440 1979 1478T1971 1557H2127Q2127
1502 2124 1455T2112 1367Q2090 1252 2032 1191T1888 1129Q1835 1129 1786 1156T1686 1240Z" />
<glyph unicode="&#x1a1;" glyph-name="ohorn" horiz-adv-x="1407" d="M720 891Q581 891 491 765T401 444Q401 338 449 283T591 227Q730 227 820 353T910 676Q910 781 862 836T720 891ZM749 1147Q999 1147 1142 1020T1285 674Q1285 547 1240 428T1109 209Q1007
91 868 31T558 -29Q311 -29 169 98T26 444Q26 570 72 690T204 911Q304 1027 442 1087T749 1147ZM1407 850L1435 991Q1492 941 1525 922T1584 903Q1623 903 1653 932T1693 1011Q1700 1050 1700 1088T1692 1167H1848Q1848 1112 1845 1065T1833 977Q1811 862 1753
801T1609 739Q1556 739 1507 766T1407 850Z" />
<glyph unicode="&#x1a2;" glyph-name="uni01A2" horiz-adv-x="2228" d="M953 1241Q777 1241 655 1111T487 745Q441 510 513 380T761 250Q938 250 1060 380L1202 1111Q1130 1241 953 1241ZM1583 0L1765 938Q1791 1068 1742 1135Q1694 1202 1574 1202H1510L1311
177Q1066 -29 706 -29Q347 -29 183 177T89 745Q159 1108 404 1314T1008 1520Q1138 1520 1243 1493H1648Q1958 1493 2080 1355Q2204 1215 2150 938L1968 0H1583Z" />
<glyph unicode="&#x1a3;" glyph-name="uni01A3" horiz-adv-x="1819" d="M739 891Q620 891 541 806Q461 720 430 559T445 312Q491 227 610 227Q727 227 805 312L901 806Q856 891 739 891ZM1182 -442L1395 658Q1422 793 1393 839T1262 885H1189L1042 127Q849 -29
560 -29Q270 -29 137 127Q3 283 57 559T305 991Q498 1147 788 1147Q909 1147 1002 1120H1422Q1627 1120 1712 1002Q1797 883 1753 658L1540 -442H1182Z" />
<glyph unicode="&#x1a4;" glyph-name="uni01A4" horiz-adv-x="1707" d="M856 1214L775 797H988Q1100 797 1171 852Q1243 906 1262 1006Q1282 1106 1231 1160Q1181 1214 1069 1214H856ZM474 1231Q401 1231 395 1230Q349 1226 331 1210Q294 1176 282 1126Q278 1112
272 1079H17L32 1156Q58 1294 119 1359Q142 1383 180 1412Q267 1475 409 1488Q460 1493 525 1493H1164Q1449 1493 1577 1366Q1705 1240 1659 1006Q1614 771 1437 644Q1260 518 975 518H721L620 0H235L474 1231Z" />
<glyph unicode="&#x1a5;" glyph-name="uni01A5" horiz-adv-x="1456" d="M685 1198L638 956Q731 1054 830 1100Q929 1147 1046 1147Q1253 1147 1354 982Q1455 818 1405 559Q1354 300 1190 136Q1025 -29 818 -29Q701 -29 620 18Q539 64 484 162L369 -426H11L327
1198Q360 1366 482 1468Q586 1556 815 1556H1089L1043 1321H845Q769 1321 734 1294Q698 1266 685 1198ZM670 802Q592 718 561 559T575 316Q620 231 735 231T927 315T1035 559T1022 803T863 887T670 802Z" />
<glyph unicode="&#x1a6;" glyph-name="uni01A6" horiz-adv-x="1346" d="M663 573Q784 573 845 618T927 766Q933 798 933 840T896 919T738 956H576L501 573H663ZM450 307L390 0H5L295 1493H680L630 1235H833Q1128 1235 1246 1136Q1334 1063 1334 927Q1334 879 1323
823Q1266 530 961 440Q1037 422 1087 359T1176 166L1315 -299H905L783 113Q750 225 702 266T559 307H450Z" />
<glyph unicode="&#x1a7;" glyph-name="uni01A7" horiz-adv-x="1411" d="M349 1446Q495 1483 629 1502Q763 1520 886 1520Q1156 1520 1276 1400Q1397 1280 1354 1057Q1319 879 1195 774T838 621L682 588Q541 558 488 520T421 412Q406 334 465 292T650 250Q774 250
915 288Q1056 327 1213 403L1150 78Q997 25 849 -2Q700 -29 558 -29Q257 -29 134 92Q11 212 59 459Q96 647 221 749T604 901L775 934Q896 958 947 992Q998 1025 1010 1085Q1026 1165 967 1203T770 1241Q666 1241 544 1213Q421 1185 288 1130L349 1446Z" />
<glyph unicode="&#x1a8;" glyph-name="uni01A8" horiz-adv-x="1203" d="M268 1085Q402 1117 514 1132T725 1147Q977 1147 1083 1061Q1188 975 1153 797Q1121 632 1009 551Q898 470 653 440L588 432Q477 419 436 396Q395 372 385 324Q374 267 422 238Q469 209 574
209Q690 209 808 235Q925 261 1042 313L989 41Q858 6 736 -12Q614 -29 503 -29Q241 -29 126 61Q12 151 46 330Q80 501 190 581Q301 661 583 696L647 705Q747 716 788 739Q830 762 839 805Q849 858 805 884Q760 909 658 909Q563 909 451 885Q340 861 215 813L268
1085Z" />
<glyph unicode="&#x1a9;" glyph-name="uni01A9" horiz-adv-x="1399" d="M423 291H1133L1077 0H16L78 321L646 794L246 1185L306 1493H1345L1289 1202H618L1032 798L423 291Z" />
<glyph unicode="&#x1aa;" glyph-name="uni01AA" horiz-adv-x="1095" d="M458 1554H571Q776 1554 861 1436Q932 1337 916 1180Q1032 1179 1087 1179L1046 968H878L673 -86Q660 -154 685 -182Q710 -209 786 -209H984L938 -444H664Q450 -444 365 -356Q280 -269 315
-86L520 968L312 969Q4 970 54 1245Q105 1528 394 1553V1554H401H458ZM556 1180Q560 1244 542 1273Q513 1319 411 1319H367Q272 1312 262 1254Q249 1179 353 1179Q417 1179 556 1180Z" />
<glyph unicode="&#x1ab;" glyph-name="uni01AB" horiz-adv-x="968" d="M661 1438L599 1120H968L918 864H549L457 389Q442 311 467 284Q493 256 585 256H769L719 0Q673 -210 548 -324Q417 -442 212 -442H35L81 -207H143Q245 -207 292 -161Q336 -118 361 1Q191 11
129 88Q58 177 99 389L191 864H13L63 1120H241L303 1438H661Z" />
<glyph unicode="&#x1ac;" glyph-name="uni01AC" horiz-adv-x="1518" d="M725 1493H1517L1461 1202H966L732 0H347L581 1202H578Q425 1202 369 1164T292 1021L283 972H10L44 1149Q79 1330 191 1412Q303 1493 517 1493H725Z" />
<glyph unicode="&#x1ad;" glyph-name="uni01AD" horiz-adv-x="1024" d="M611 1198L595 1120H964L915 864H546L453 389Q438 311 464 284Q490 256 582 256H766L716 0H409Q197 0 125 88Q54 177 95 389L188 864H10L59 1120H237L253 1198Q285 1366 407 1468Q512 1556
740 1556H1014L969 1321H771Q695 1321 659 1294Q624 1266 611 1198Z" />
<glyph unicode="&#x1ae;" glyph-name="uni01AE" horiz-adv-x="1447" d="M506 1202H10L67 1493H1443L1386 1202H891L686 145Q661 15 709 -52Q758 -119 878 -119H938L881 -410H803Q496 -410 371 -272Q247 -134 301 145L506 1202Z" />
<glyph unicode="&#x1af;" glyph-name="Uhorn" horiz-adv-x="1663" d="M220 1493H605L431 599Q421 551 417 514T412 449Q412 351 464 303T621 254Q761 254 836 332T947 598L1121 1493H1506L1332 598Q1267 268 1086 120T566 -29Q301 -29 163 84T25 414Q25 450 30
494T46 598L220 1493ZM1751 1242L1779 1383Q1836 1333 1869 1314T1928 1295Q1967 1295 1997 1324T2037 1403Q2044 1442 2044 1480T2036 1559H2192Q2192 1504 2189 1457T2177 1369Q2155 1254 2097 1193T1953 1131Q1900 1131 1851 1158T1751 1242Z" />
<glyph unicode="&#x1b0;" glyph-name="uhorn" horiz-adv-x="1458" d="M294 436L425 1120H784L671 537Q659 480 653 440T647 377Q647 314 682 279T782 244Q893 244 973 330T1083 569L1191 1120H1550L1333 0H972L1005 164Q913 67 812 19T599 -29Q446 -29 362 52T278
281Q278 316 282 355T294 436ZM1458 850L1486 991Q1543 941 1576 922T1635 903Q1674 903 1704 932T1744 1011Q1751 1050 1751 1088T1743 1167H1899Q1899 1112 1896 1065T1884 977Q1862 862 1804 801T1660 739Q1607 739 1558 766T1458 850Z" />
<glyph unicode="&#x1b1;" glyph-name="uni01B1" horiz-adv-x="1671" d="M1320 1224Q1422 1103 1456 964T1458 661Q1398 348 1173 160Q948 -29 635 -29Q323 -29 172 160Q21 348 81 661Q113 825 201 964T439 1224H148L198 1480H807L750 1189Q608 1104 516 972Q424
839 392 675Q353 472 432 356Q510 239 687 239Q865 239 990 356Q1114 472 1153 675Q1185 840 1145 972Q1104 1103 995 1189L1052 1480H1661L1611 1224H1320Z" />
<glyph unicode="&#x1b2;" glyph-name="uni01B2" horiz-adv-x="1535" d="M654 0H576Q269 0 144 138Q20 276 74 555L256 1493H641L459 555Q434 425 482 358T650 291H710Q888 291 1013 408Q1156 542 1182 675Q1222 878 1174 972Q1090 1134 941 1229L969 1374H1239Q1403
1237 1485 964Q1522 841 1487 661Q1438 408 1196 212Q935 0 654 0Z" />
<glyph unicode="&#x1b3;" glyph-name="uni01B3" horiz-adv-x="1614" d="M1167 1061L799 629L676 0H291L414 629L12 1493H433L670 961L956 1303Q1137 1520 1350 1520Q1485 1520 1558 1427Q1613 1357 1613 1267Q1613 1236 1606 1203L1564 987H1324L1338 1056Q1343
1086 1330 1104Q1308 1133 1284 1133Q1228 1133 1167 1061Z" />
<glyph unicode="&#x1b4;" glyph-name="uni01B4" horiz-adv-x="1653" d="M1621 646H1378L1389 706Q1396 739 1388 767T1360 812T1313 829T1259 812Q1230 794 1214 767Q1205 752 1196 737L708 -106Q599 -294 492 -368Q383 -442 228 -442H21L66 -207H178Q269 -207
317 -178Q362 -150 401 -74L417 -43L144 1120H502L655 360L955 924Q1074 1147 1344 1147Q1445 1147 1521 1097T1632 961Q1653 907 1653 846Q1653 811 1646 773L1621 646Z" />
<glyph unicode="&#x1b5;" glyph-name="uni01B5" horiz-adv-x="1605" d="M330 1493H1585L1540 1260L1153 881H1347L1297 621H887L550 291H1374L1318 0H17L62 233L458 621H280L330 881H724L1052 1202H274L330 1493Z" />
<glyph unicode="&#x1b6;" glyph-name="uni01B6" horiz-adv-x="1257" d="M261 1120H1238L1189 870L972 682H1096L1053 461H717L480 256H1070L1020 0H18L67 250L311 461H194L237 682H566L776 864H211L261 1120Z" />
<glyph unicode="&#x1b7;" glyph-name="uni01B7" horiz-adv-x="1515" d="M659 195Q816 195 908 248T1019 400Q1039 502 966 554Q892 607 729 607H542L590 852L963 1202H218L275 1493H1497L1448 1243L979 809Q1110 798 1187 777Q1307 744 1371 632Q1429 529 1401
386Q1358 164 1166 48Q973 -67 610 -67Q456 -67 306 -37Q157 -6 17 55L73 345Q215 271 362 233T659 195Z" />
<glyph unicode="&#x1b8;" glyph-name="uni01B8" horiz-adv-x="1628" d="M725 195Q874 195 1036 233T1369 345L1312 55Q1149 -6 987 -37Q826 -67 671 -67Q308 -67 161 48Q13 164 56 386Q84 529 183 632Q290 744 422 777Q508 798 644 809L343 1243L392 1493H1614L1557
1202H812L1049 852L1001 607H814Q651 607 558 554Q464 502 444 400Q425 301 496 248T725 195Z" />
<glyph unicode="&#x1b9;" glyph-name="uni01B9" horiz-adv-x="1380" d="M1045 479L997 234H810Q647 234 554 182Q460 129 440 27Q421 -72 492 -125T716 -178Q819 -178 931 -150Q1043 -123 1162 -69L1104 -366Q984 -403 864 -422Q745 -440 630 -440Q304 -440 157
-324Q9 -209 52 13Q80 156 179 258Q286 371 418 404Q509 427 673 436L339 870L388 1120H1365L1315 864H750L1045 479Z" />
<glyph unicode="&#x1ba;" glyph-name="uni01BA" horiz-adv-x="1248" d="M814 546Q922 529 991 481Q1070 425 1070 322Q1070 294 1064 261Q1037 123 932 56Q831 -9 596 -36L535 -43Q427 -55 391 -73Q352 -92 344 -132Q343 -140 343 -147Q343 -184 381 -204Q427
-228 527 -228Q637 -228 748 -206Q859 -185 968 -142L925 -368Q791 -399 686 -412Q570 -426 464 -426Q218 -426 105 -351Q16 -292 16 -186Q16 -158 22 -127Q50 14 154 81Q242 138 523 175L585 183Q687 196 717 210Q756 228 764 266Q765 274 765 281Q765 315 729
331Q683 352 436 352H184L775 864H210L260 1120H1237L1188 870L814 546Z" />
<glyph unicode="&#x1bb;" glyph-name="uni01BB" horiz-adv-x="1354" d="M496 283H1153L1098 0H13L68 283L417 546H191L242 806H758Q808 850 840 893Q887 956 900 1024Q921 1129 863 1193T688 1257Q598 1257 483 1218Q369 1180 232 1104L296 1432Q434 1475 565
1498Q697 1520 819 1520Q1087 1520 1212 1402Q1338 1284 1297 1073Q1273 951 1190 846Q1175 827 1155 806H1182L1131 546H847L496 283Z" />
<glyph unicode="&#x1bc;" glyph-name="uni01BC" horiz-adv-x="1504" d="M198 607L246 852L371 1493H1432L1375 1202H699L631 852H850Q1105 852 1262 792Q1368 752 1427 632Q1483 517 1457 386Q1414 164 1222 48Q1029 -67 666 -67Q285 -67 156 48Q11 178 54 400H439Q420
301 491 248T715 195Q872 195 964 248T1075 400Q1095 502 1022 554Q948 607 785 607H583H198Z" />
<glyph unicode="&#x1bd;" glyph-name="uni01BD" horiz-adv-x="1261" d="M221 234L269 479L394 1120H1243L1200 899H709L627 479H633Q876 479 976 432Q1124 362 1177 258Q1233 143 1207 13Q1164 -209 972 -324Q779 -440 453 -440Q338 -440 226 -422Q115 -403 9
-366L66 -69Q164 -123 265 -150Q366 -178 469 -178Q622 -178 714 -125T825 27Q845 129 772 182Q698 234 535 234H221Z" />
<glyph unicode="&#x1be;" glyph-name="uni01BE" horiz-adv-x="1160" d="M352 789L411 1096H254L292 1290H449L478 1438H836L807 1290H1065L1027 1096H769L756 1029Q938 998 1022 904Q1149 759 1104 528Q1062 313 904 180Q655 -30 413 -30Q232 -30 155 -12Q77 5
8 40L66 338Q135 295 209 274Q284 252 364 252Q543 252 664 366Q735 432 754 528Q768 599 725 675Q662 789 445 789H352Z" />
<glyph unicode="&#x1bf;" glyph-name="uni01BF" horiz-adv-x="1460" d="M431 -132L374 -426H16L317 1120H675L643 955Q751 1066 844 1103Q956 1147 1144 1147H1151Q1353 1147 1411 1035Q1460 943 1460 850Q1460 809 1451 769Q1354 342 431 -132ZM485 145Q1026
479 1056 643Q1063 681 1063 713Q1063 778 1034 822Q991 887 865 887Q776 887 590 684Q538 414 485 145Z" />
<glyph unicode="&#x1c0;" glyph-name="uni01C0" horiz-adv-x="763" d="M376 1493H761L387 -426H2L376 1493Z" />
<glyph unicode="&#x1c1;" glyph-name="uni01C1" horiz-adv-x="1349" d="M963 1493H1348L974 -426H589L963 1493ZM376 1493H761L387 -426H2L376 1493Z" />
<glyph unicode="&#x1c2;" glyph-name="uni01C2" horiz-adv-x="1223" d="M596 1493H981L872 933H1223L1177 698H826L783 478H1134L1088 241H737L607 -426H222L352 241H1L47 478H398L441 698H90L136 933H487L596 1493Z" />
<glyph unicode="&#x1c3;" glyph-name="uni01C3" horiz-adv-x="762" d="M466 1493H827L714 920L583 502H325L353 920L466 1493ZM245 356H605L536 0H175L245 356Z" />
<glyph unicode="&#x1c4;" glyph-name="uni01C4" horiz-adv-x="3196" d="M1923 1493H3179L3131 1255L2163 291H2968L2910 0H1610L1655 238L2626 1202H1866L1923 1493ZM2745 1635H2396L2259 1899H2431L2579 1737L2810 1899H2988L2745 1635ZM627 1202L448 291H586Q855
291 1012 442T1169 850Q1169 1024 1067 1113T762 1202H627ZM297 1493H702Q992 1493 1137 1459T1378 1343Q1475 1262 1524 1147T1573 885Q1573 682 1490 503T1255 201Q1123 92 949 46T412 0H6L297 1493Z" />
<glyph unicode="&#x1c5;" glyph-name="uni01C5" horiz-adv-x="2903" d="M1900 1120H2877L2828 870L2130 256H2709L2660 0H1659L1706 250L2406 864H1851L1900 1120ZM2513 1262H2253L2070 1638H2246L2402 1411L2646 1638H2842L2513 1262ZM641 1202L462 291H600Q869
291 1026 442T1183 850Q1183 1024 1081 1113T776 1202H641ZM311 1493H716Q1006 1493 1151 1459T1392 1343Q1489 1262 1538 1147T1587 885Q1587 682 1504 503T1269 201Q1137 92 963 46T426 0H20L311 1493Z" />
<glyph unicode="&#x1c6;" glyph-name="uni01C6" horiz-adv-x="2623" d="M1625 1120H2602L2553 870L1855 256H2434L2385 0H1384L1431 250L2131 864H1576L1625 1120ZM2238 1262H1978L1795 1638H1971L2127 1411L2371 1638H2567L2238 1262ZM565 231Q703 231 789 358T876
690Q876 783 828 835T692 887Q556 887 468 762T380 440Q380 338 427 285T565 231ZM942 956L1058 1556H1419L1116 0H755L788 162Q706 64 616 18T419 -29Q230 -29 120 91T10 418Q10 547 48 669T159 891Q250 1017 364 1082T610 1147Q725 1147 805 1101T942 956Z" />
<glyph unicode="&#x1c7;" glyph-name="uni01C7" horiz-adv-x="2000" d="M1979 1493H2364L2102 145Q2044 -147 1875 -278T1383 -410H1305L1362 -119H1422Q1541 -119 1616 -52T1717 145L1979 1493ZM304 1493H689L455 291H1129L1074 0H13L304 1493Z" />
<glyph unicode="&#x1c8;" glyph-name="uni01C8" horiz-adv-x="2005" d="M1848 1120H2208L1993 20Q1947 -215 1822 -328T1483 -442H1305L1350 -207H1413Q1514 -207 1560 -162T1633 20L1848 1120ZM1932 1556H2292L2235 1264H1874L1932 1556ZM304 1493H689L455 291H1129L1074
0H13L304 1493Z" />
<glyph unicode="&#x1c9;" glyph-name="uni01C9" horiz-adv-x="1372" d="M1245 1120H1605L1390 20Q1344 -215 1219 -328T880 -442H702L747 -207H810Q911 -207 957 -162T1030 20L1245 1120ZM1329 1556H1689L1632 1264H1271L1329 1556ZM305 1556H665L362 0H3L305 1556Z" />
<glyph unicode="&#x1ca;" glyph-name="uni01CA" horiz-adv-x="2444" d="M2388 1493H2773L2511 145Q2453 -147 2284 -278T1792 -410H1714L1771 -119H1831Q1950 -119 2025 -52T2126 145L2388 1493ZM311 1493H741L1083 459L1284 1493H1648L1357 0H927L585 1034L385
0H20L311 1493Z" />
<glyph unicode="&#x1cb;" glyph-name="uni01CB" horiz-adv-x="2484" d="M2257 1120H2617L2402 20Q2356 -215 2231 -328T1892 -442H1714L1759 -207H1822Q1923 -207 1969 -162T2042 20L2257 1120ZM2341 1556H2701L2644 1264H2283L2341 1556ZM311 1493H741L1083 459L1284
1493H1648L1357 0H927L585 1034L385 0H20L311 1493Z" />
<glyph unicode="&#x1cc;" glyph-name="uni01CC" horiz-adv-x="2178" d="M2001 1120H2361L2146 20Q2100 -215 1975 -328T1636 -442H1458L1503 -207H1566Q1667 -207 1713 -162T1786 20L2001 1120ZM2085 1556H2445L2388 1264H2027L2085 1556ZM1277 682L1144 0H785L898
584Q910 641 916 680T923 743Q923 807 888 842T787 877Q676 877 597 791T486 551L378 0H19L237 1120H597L564 956Q663 1053 763 1100T972 1147Q1127 1147 1211 1066T1295 838Q1295 806 1291 767T1277 682Z" />
<glyph unicode="&#x1cd;" glyph-name="uni01CD" horiz-adv-x="1585" d="M1140 272H544L396 0H1L845 1493H1285L1549 0H1183L1140 272ZM689 543H1090L1000 1118L689 543ZM1852 1635H1503L1366 1899H1538L1686 1737L1917 1899H2095L1852 1635Z" />
<glyph unicode="&#x1ce;" glyph-name="uni01CE" horiz-adv-x="1382" d="M655 504Q521 504 453 463T384 340Q384 279 424 244T536 209Q646 209 720 275T819 463L827 504H655ZM1214 639L1089 0H731L761 166Q673 66 575 19T362 -29Q203 -29 110 53T16 276Q16 490
181 603T659 717H870L874 745Q877 759 877 765T878 776Q878 842 816 875T630 909Q519 909 415 886T214 817L268 1090Q380 1118 497 1132T741 1147Q990 1147 1111 1062T1232 801Q1232 767 1228 727T1214 639ZM637 1262H377L194 1638H370L526 1411L770 1638H966L637
1262Z" />
<glyph unicode="&#x1cf;" glyph-name="uni01CF" horiz-adv-x="762" d="M295 1493H680L389 0H4L295 1493ZM1460 1635H1111L974 1899H1146L1294 1737L1525 1899H1703L1460 1635Z" />
<glyph unicode="&#x1d0;" glyph-name="uni01D0" horiz-adv-x="702" d="M224 1120H584L365 0H6L224 1120ZM313 1262H53L-130 1638H46L202 1411L446 1638H642L313 1262Z" />
<glyph unicode="&#x1d1;" glyph-name="uni01D1" horiz-adv-x="1741" d="M1205 881Q1205 1057 1126 1149T895 1241Q695 1241 560 1062T424 612Q424 440 503 345T723 250Q838 250 927 298T1080 442Q1140 533 1172 647T1205 881ZM951 1520Q1249 1520 1430 1355T1612
922Q1612 740 1557 578T1395 287Q1265 128 1088 50T678 -29Q381 -29 200 136T19 569Q19 752 74 914T236 1206Q364 1364 541 1442T951 1520ZM1957 1635H1608L1471 1899H1643L1791 1737L2022 1899H2200L1957 1635Z" />
<glyph unicode="&#x1d2;" glyph-name="uni01D2" horiz-adv-x="1407" d="M713 891Q574 891 484 765T394 444Q394 338 442 283T584 227Q723 227 813 353T903 676Q903 781 855 836T713 891ZM742 1147Q992 1147 1135 1020T1278 674Q1278 547 1233 428T1102 209Q1000
91 861 31T551 -29Q304 -29 162 98T19 444Q19 570 65 690T197 911Q297 1027 435 1087T742 1147ZM672 1262H412L229 1638H405L561 1411L805 1638H1001L672 1262Z" />
<glyph unicode="&#x1d3;" glyph-name="uni01D3" horiz-adv-x="1663" d="M220 1493H605L431 599Q421 551 417 514T412 449Q412 351 464 303T621 254Q761 254 836 332T947 598L1121 1493H1506L1332 598Q1267 268 1086 120T566 -29Q301 -29 163 84T25 414Q25 450
30 494T46 598L220 1493ZM1887 1635H1538L1401 1899H1573L1721 1737L1952 1899H2130L1887 1635Z" />
<glyph unicode="&#x1d4;" glyph-name="uni01D4" horiz-adv-x="1458" d="M43 436L174 1120H533L420 537Q408 480 402 440T396 377Q396 314 431 279T531 244Q642 244 722 330T832 569L940 1120H1299L1082 0H721L754 164Q662 67 561 19T348 -29Q195 -29 111 52T27
281Q27 316 31 355T43 436ZM672 1262H412L229 1638H405L561 1411L805 1638H1001L672 1262Z" />
<glyph unicode="&#x1d5;" glyph-name="uni01D5" horiz-adv-x="1499" d="M663 2130H1294L1257 1942H626L663 2130ZM610 1870H846L799 1624H563L610 1870ZM1005 1870H1243L1194 1624H958L1005 1870ZM203 1493H588L414 599Q404 551 400 514T395 449Q395 351 447 303T604
254Q744 254 819 332T930 598L1104 1493H1489L1315 598Q1250 268 1069 120T549 -29Q284 -29 146 84T8 414Q8 450 13 494T29 598L203 1493Z" />
<glyph unicode="&#x1d6;" glyph-name="uni01D6" horiz-adv-x="1288" d="M22 436L153 1120H512L399 537Q387 480 381 440T375 377Q375 314 410 279T510 244Q621 244 701 330T811 569L919 1120H1278L1061 0H700L733 164Q641 67 540 19T327 -29Q174 -29 90 52T6 281Q6
316 10 355T22 436ZM458 1585H696L647 1339H411L458 1585ZM856 1585H1091L1042 1339H807L856 1585ZM505 1871H1136L1099 1683H468L505 1871Z" />
<glyph unicode="&#x1d7;" glyph-name="uni01D7" horiz-adv-x="1496" d="M1039 2165H1319L1000 1901H793L1039 2165ZM576 1870H812L765 1624H529L576 1870ZM971 1870H1209L1160 1624H924L971 1870ZM201 1493H586L412 599Q402 551 398 514T393 449Q393 351 445 303T602
254Q742 254 817 332T928 598L1102 1493H1487L1313 598Q1248 268 1067 120T547 -29Q282 -29 144 84T6 414Q6 450 11 494T27 598L201 1493Z" />
<glyph unicode="&#x1d8;" glyph-name="uni01D8" horiz-adv-x="1287" d="M916 1877H1196L877 1613H670L916 1877ZM453 1582H689L642 1336H406L453 1582ZM848 1582H1086L1037 1336H801L848 1582ZM19 436L150 1120H509L396 537Q384 480 378 440T372 377Q372 314 407
279T507 244Q618 244 698 330T808 569L916 1120H1275L1058 0H697L730 164Q638 67 537 19T324 -29Q171 -29 87 52T3 281Q3 316 7 355T19 436Z" />
<glyph unicode="&#x1d9;" glyph-name="uni01D9" horiz-adv-x="1499" d="M1060 1901H711L574 2165H746L894 2003L1125 2165H1303L1060 1901ZM571 1870H807L760 1624H524L571 1870ZM966 1870H1204L1155 1624H919L966 1870ZM204 1493H589L415 599Q405 551 401 514T396
449Q396 351 448 303T605 254Q745 254 820 332T931 598L1105 1493H1490L1316 598Q1251 268 1070 120T550 -29Q285 -29 147 84T9 414Q9 450 14 494T30 598L204 1493Z" />
<glyph unicode="&#x1da;" glyph-name="uni01DA" horiz-adv-x="1292" d="M946 1613H597L460 1877H632L780 1715L1011 1877H1189L946 1613ZM457 1582H693L646 1336H410L457 1582ZM852 1582H1090L1041 1336H805L852 1582ZM23 436L154 1120H513L400 537Q388 480 382
440T376 377Q376 314 411 279T511 244Q622 244 702 330T812 569L920 1120H1279L1062 0H701L734 164Q642 67 541 19T328 -29Q175 -29 91 52T7 281Q7 316 11 355T23 436Z" />
<glyph unicode="&#x1db;" glyph-name="uni01DB" horiz-adv-x="1495" d="M833 2165L977 1901H799L569 2165H833ZM570 1870H806L759 1624H523L570 1870ZM965 1870H1203L1154 1624H918L965 1870ZM203 1493H588L414 599Q404 551 400 514T395 449Q395 351 447 303T604
254Q744 254 819 332T930 598L1104 1493H1489L1315 598Q1250 268 1069 120T549 -29Q284 -29 146 84T8 414Q8 450 13 494T29 598L203 1493Z" />
<glyph unicode="&#x1dc;" glyph-name="uni01DC" horiz-adv-x="1286" d="M720 1877L864 1613H686L456 1877H720ZM457 1582H693L646 1336H410L457 1582ZM852 1582H1090L1041 1336H805L852 1582ZM23 436L154 1120H513L400 537Q388 480 382 440T376 377Q376 314 411
279T511 244Q622 244 702 330T812 569L920 1120H1279L1062 0H701L734 164Q642 67 541 19T328 -29Q175 -29 91 52T7 281Q7 316 11 355T23 436Z" />
<glyph unicode="&#x1dd;" glyph-name="uni01DD" horiz-adv-x="1389" d="M67 555L87 657H924Q936 783 870 846T664 909Q551 909 426 876Q301 842 163 774L216 1050Q353 1098 485 1122Q616 1147 743 1147Q1047 1147 1186 992Q1324 838 1270 559Q1217 285 1021 128T535
-29Q271 -29 143 130Q16 289 67 555ZM412 436Q392 334 440 272Q487 209 583 209Q687 209 763 268Q840 326 877 436H412Z" />
<glyph unicode="&#x1de;" glyph-name="uni01DE" horiz-adv-x="1567" d="M879 2130H1510L1473 1942H842L879 2130ZM826 1870H1062L1015 1624H779L826 1870ZM1221 1870H1459L1410 1624H1174L1221 1870ZM1139 272H543L395 0H0L844 1493H1284L1548 0H1182L1139 272ZM688
543H1089L999 1118L688 543Z" />
<glyph unicode="&#x1df;" glyph-name="uni01DF" horiz-adv-x="1235" d="M641 504Q507 504 439 463T370 340Q370 279 410 244T522 209Q632 209 706 275T805 463L813 504H641ZM1200 639L1075 0H717L747 166Q659 66 561 19T348 -29Q189 -29 96 53T2 276Q2 490 167
603T645 717H856L860 745Q863 759 863 765T864 776Q864 842 802 875T616 909Q505 909 401 886T200 817L254 1090Q366 1118 483 1132T727 1147Q976 1147 1097 1062T1218 801Q1218 767 1214 727T1200 639ZM505 1585H743L694 1339H458L505 1585ZM903 1585H1138L1089
1339H854L903 1585ZM533 1871H1164L1127 1683H496L533 1871Z" />
<glyph unicode="&#x1e0;" glyph-name="uni01E0" horiz-adv-x="1564" d="M1009 1870H1284L1237 1624H962L1009 1870ZM882 2130H1513L1476 1942H845L882 2130ZM1139 272H543L395 0H0L844 1493H1284L1548 0H1182L1139 272ZM688 543H1089L999 1118L688 543Z" />
<glyph unicode="&#x1e1;" glyph-name="uni01E1" horiz-adv-x="1252" d="M732 1545H1007L960 1299H685L732 1545ZM605 1805H1236L1199 1617H568L605 1805ZM640 504Q506 504 438 463T369 340Q369 279 409 244T521 209Q631 209 705 275T804 463L812 504H640ZM1199
639L1074 0H716L746 166Q658 66 560 19T347 -29Q188 -29 95 53T1 276Q1 490 166 603T644 717H855L859 745Q862 759 862 765T863 776Q863 842 801 875T615 909Q504 909 400 886T199 817L253 1090Q365 1118 482 1132T726 1147Q975 1147 1096 1062T1217 801Q1217 767
1213 727T1199 639Z" />
<glyph unicode="&#x1e2;" glyph-name="uni01E2" horiz-adv-x="2222" d="M1150 1237L775 627H1152L1271 1237H1150ZM939 1493H2360L2303 1202H1650L1597 924H2211L2154 633H1539L1474 291H2147L2092 0H1031L1099 350H607L390 0H5L939 1493ZM895 1871H1526L1489
1683H858L895 1871Z" />
<glyph unicode="&#x1e3;" glyph-name="uni01E3" horiz-adv-x="2146" d="M662 504Q528 504 460 463T391 340Q391 279 431 244T543 209Q653 209 727 275T826 463L834 504H662ZM279 1090Q396 1118 507 1132T723 1147Q872 1147 970 1111T1125 997Q1220 1074 1326 1110T1563
1147Q1786 1147 1919 1025T2052 702Q2052 657 2047 611T2032 518L2018 461H1182Q1182 455 1181 444T1180 426Q1180 317 1245 263T1442 209Q1554 209 1678 242T1942 344L1889 66Q1758 18 1628 -5T1362 -29Q1189 -29 1071 22T887 178Q770 73 647 22T385 -29Q215 -29
119 52T23 274Q23 490 188 603T670 717H875L881 746Q884 759 884 765T885 776Q885 842 823 875T641 909Q527 909 424 886T226 817L279 1090ZM1694 682Q1697 695 1698 708T1700 735Q1700 815 1652 862T1522 909Q1417 909 1343 851T1231 682H1694ZM603 1554H1234L1197
1366H566L603 1554Z" />
<glyph unicode="&#x1e4;" glyph-name="uni01E4" horiz-adv-x="1557" d="M1390 382L1338 111Q1192 40 1035 6Q878 -29 699 -29Q381 -29 199 132Q17 294 17 573Q17 754 74 912Q131 1071 244 1202Q382 1362 569 1441Q757 1520 998 1520Q1132 1520 1268 1492T1536
1409L1477 1100Q1355 1171 1239 1206Q1122 1241 1004 1241Q746 1241 584 1069T422 627Q422 448 517 349Q611 250 783 250Q839 250 895 258Q951 265 1008 281L1028 382H912L925 469H1045L1065 571H830L879 829H1477L1407 469H1530L1517 382H1390Z" />
<glyph unicode="&#x1e5;" glyph-name="uni01E5" horiz-adv-x="1390" d="M736 887Q604 887 516 768Q429 649 429 469Q429 367 476 314Q523 260 613 260Q744 260 832 378Q920 497 920 674Q920 778 873 832Q826 887 736 887ZM764 -44Q802 21 820 113L836 190Q750
92 661 46T467 0Q277 0 166 122Q56 245 56 457Q56 570 94 684Q133 797 205 897Q293 1018 407 1082Q521 1145 652 1145Q770 1145 850 1099Q931 1053 986 954L1016 1120H1377L1188 147Q1168 42 1131 -44H1291L1269 -133H1086Q1027 -231 940 -298Q750 -442 412 -442Q308
-442 212 -426Q115 -410 21 -377L74 -98Q159 -152 244 -178Q329 -205 418 -205Q591 -205 686 -133H262L284 -44H764Z" />
<glyph unicode="&#x1e6;" glyph-name="Gcaron" horiz-adv-x="1681" d="M1338 111Q1192 40 1035 6T699 -29Q381 -29 199 132T17 573Q17 754 74 912T244 1202Q382 1362 569 1441T998 1520Q1132 1520 1268 1492T1536 1409L1477 1100Q1355 1171 1239 1206T1004 1241Q746
1241 584 1069T422 627Q422 448 516 349T783 250Q839 250 895 257T1008 281L1065 571H830L879 829H1477L1338 111ZM1992 1635H1643L1506 1899H1678L1826 1737L2057 1899H2235L1992 1635Z" />
<glyph unicode="&#x1e7;" glyph-name="gcaron" horiz-adv-x="1466" d="M700 1261H440L257 1637H433L589 1410L833 1637H1029L700 1261ZM836 190Q750 92 661 46T467 0Q277 0 167 122T56 457Q56 570 94 683T205 897Q293 1018 407 1081T652 1145Q770 1145 850 1099T986
954L1016 1120H1377L1188 147Q1130 -154 940 -298T412 -442Q308 -442 212 -426T21 -377L74 -98Q159 -152 244 -178T418 -205Q596 -205 691 -129T820 113L836 190ZM736 887Q604 887 517 768T429 469Q429 367 476 314T613 260Q744 260 832 378T920 674Q920 778 873
832T736 887Z" />
<glyph unicode="&#x1e8;" glyph-name="uni01E8" horiz-adv-x="1587" d="M311 1493H696L591 956L1226 1493H1691L835 768L1480 0H1028L526 623L405 0H20L311 1493ZM1486 1633H1137L1000 1897H1172L1320 1735L1551 1897H1729L1486 1633Z" />
<glyph unicode="&#x1e9;" glyph-name="uni01E9" horiz-adv-x="1362" d="M319 1556H679L515 713L998 1120H1420L769 602L1242 0H833L470 483L376 0H17L319 1556ZM1498 1633H1149L1012 1897H1184L1332 1735L1563 1897H1741L1498 1633Z" />
<glyph unicode="&#x1ea;" glyph-name="uni01EA" horiz-adv-x="1741" d="M1205 881Q1205 1057 1126 1149T895 1241Q695 1241 560 1062T424 612Q424 440 503 345T723 250Q838 250 927 298T1080 442Q1140 533 1172 647T1205 881ZM951 1520Q1249 1520 1430 1355T1612
922Q1612 740 1557 578T1395 287Q1265 128 1088 50T678 -29Q381 -29 200 136T19 569Q19 752 74 914T236 1206Q364 1364 541 1442T951 1520ZM522 -15H664Q593 -89 567 -129T541 -197Q541 -231 565 -250T635 -269Q672 -269 713 -261T797 -238L768 -390Q711 -403 666
-409T582 -416Q476 -416 421 -382T365 -281Q365 -216 402 -153T522 -15Z" />
<glyph unicode="&#x1eb;" glyph-name="uni01EB" horiz-adv-x="1407" d="M713 891Q574 891 484 765T394 444Q394 338 442 283T584 227Q723 227 813 353T903 676Q903 781 855 836T713 891ZM742 1147Q992 1147 1135 1020T1278 674Q1278 547 1233 428T1102 209Q1000
91 861 31T551 -29Q304 -29 162 98T19 444Q19 570 65 690T197 911Q297 1027 435 1087T742 1147ZM357 -15H499Q428 -89 402 -129T376 -197Q376 -231 400 -250T470 -269Q507 -269 548 -261T632 -238L603 -390Q546 -403 501 -409T417 -416Q311 -416 256 -382T200 -281Q200
-216 237 -153T357 -15Z" />
<glyph unicode="&#x1ec;" glyph-name="uni01EC" horiz-adv-x="1601" d="M1191 881Q1191 1057 1112 1149T881 1241Q681 1241 546 1062T410 612Q410 440 489 345T709 250Q824 250 913 298T1066 442Q1126 533 1158 647T1191 881ZM937 1520Q1235 1520 1416 1355T1598
922Q1598 740 1543 578T1381 287Q1251 128 1074 50T664 -29Q367 -29 186 136T5 569Q5 752 60 914T222 1206Q350 1364 527 1442T937 1520ZM585 -16H727Q656 -90 630 -130T604 -198Q604 -232 628 -251T698 -270Q735 -270 776 -262T860 -239L831 -391Q774 -404 729
-410T645 -417Q539 -417 484 -383T428 -282Q428 -217 465 -154T585 -16ZM643 1871H1274L1237 1683H606L643 1871Z" />
<glyph unicode="&#x1ed;" glyph-name="uni01ED" horiz-adv-x="1265" d="M698 891Q559 891 469 765T379 444Q379 338 427 283T569 227Q708 227 798 353T888 676Q888 781 840 836T698 891ZM727 1147Q977 1147 1120 1020T1263 674Q1263 547 1218 428T1087 209Q985
91 846 31T536 -29Q289 -29 147 98T4 444Q4 570 50 690T182 911Q282 1027 420 1087T727 1147ZM419 -16H561Q490 -90 464 -130T438 -198Q438 -232 462 -251T532 -270Q569 -270 610 -262T694 -239L665 -391Q608 -404 563 -410T479 -417Q373 -417 318 -383T262 -282Q262
-217 299 -154T419 -16ZM477 1562H1108L1071 1374H440L477 1562Z" />
<glyph unicode="&#x1ee;" glyph-name="uni01EE" horiz-adv-x="1582" d="M1817 1635H1468L1331 1899H1503L1651 1737L1882 1899H2060L1817 1635ZM659 195Q816 195 908 248T1019 400Q1039 502 966 554Q892 607 729 607H542L590 852L963 1202H218L275 1493H1497L1448
1243L979 809Q1110 798 1187 777Q1307 744 1371 632Q1429 529 1401 386Q1358 164 1166 48Q973 -67 610 -67Q456 -67 306 -37Q157 -6 17 55L73 345Q215 271 362 233T659 195Z" />
<glyph unicode="&#x1ef;" glyph-name="uni01EF" horiz-adv-x="1192" d="M615 479L1060 864H495L545 1120H1522L1473 870L971 436Q1131 427 1212 404Q1332 371 1396 258Q1454 156 1426 13Q1383 -209 1191 -324Q998 -440 672 -440Q557 -440 445 -422Q334 -403 228
-366L285 -69Q383 -123 484 -150Q585 -178 688 -178Q841 -178 933 -125T1044 27Q1064 129 991 182Q917 234 754 234H567L615 479ZM571 1506H311L128 1882H304L460 1655L704 1882H900L571 1506Z" />
<glyph unicode="&#x1f0;" glyph-name="uni01F0" horiz-adv-x="1217" d="M544 1120H904L689 20Q643 -215 517 -328Q392 -442 179 -442H1L46 -207H109Q210 -207 257 -162Q303 -116 329 20L544 1120ZM888 1263H628L445 1639H621L777 1412L1021 1639H1217L888 1263Z" />
<glyph unicode="&#x1f1;" glyph-name="uni01F1" horiz-adv-x="3170" d="M2031 1493H3287L3239 1255L2271 291H3076L3018 0H1718L1763 238L2734 1202H1974L2031 1493ZM640 1202L461 291H599Q868 291 1025 442T1182 850Q1182 1024 1080 1113T775 1202H640ZM310 1493H715Q1005
1493 1150 1459T1391 1343Q1488 1262 1537 1147T1586 885Q1586 682 1503 503T1268 201Q1136 92 962 46T425 0H19L310 1493Z" />
<glyph unicode="&#x1f2;" glyph-name="uni01F2" horiz-adv-x="2970" d="M1959 1120H2936L2887 870L2189 256H2768L2719 0H1718L1765 250L2465 864H1910L1959 1120ZM640 1202L461 291H599Q868 291 1025 442T1182 850Q1182 1024 1080 1113T775 1202H640ZM310 1493H715Q1005
1493 1150 1459T1391 1343Q1488 1262 1537 1147T1586 885Q1586 682 1503 503T1268 201Q1136 92 962 46T425 0H19L310 1493Z" />
<glyph unicode="&#x1f3;" glyph-name="uni01F3" horiz-adv-x="2676" d="M1725 1120H2702L2653 870L1955 256H2534L2485 0H1484L1531 250L2231 864H1676L1725 1120ZM558 231Q696 231 782 358T869 690Q869 783 821 835T685 887Q549 887 461 762T373 440Q373 338
420 285T558 231ZM935 956L1051 1556H1412L1109 0H748L781 162Q699 64 609 18T412 -29Q223 -29 113 91T3 418Q3 547 41 669T152 891Q243 1017 357 1082T603 1147Q718 1147 798 1101T935 956Z" />
<glyph unicode="&#x1f4;" glyph-name="uni01F4" horiz-adv-x="1681" d="M1588 1900H1868L1549 1636H1342L1588 1900ZM1338 111Q1192 40 1035 6T699 -29Q381 -29 199 132T17 573Q17 754 74 912T244 1202Q382 1362 569 1441T998 1520Q1132 1520 1268 1492T1536 1409L1477
1100Q1355 1171 1239 1206T1004 1241Q746 1241 584 1069T422 627Q422 448 516 349T783 250Q839 250 895 257T1008 281L1065 571H830L879 829H1477L1338 111Z" />
<glyph unicode="&#x1f5;" glyph-name="uni01F5" horiz-adv-x="1466" d="M836 190Q750 92 661 46T467 0Q277 0 167 122T56 457Q56 570 94 683T205 897Q293 1018 407 1081T652 1145Q770 1145 850 1099T986 954L1016 1120H1377L1188 147Q1130 -154 940 -298T412 -442Q308
-442 212 -426T21 -377L74 -98Q159 -152 244 -178T418 -205Q596 -205 691 -129T820 113L836 190ZM736 887Q604 887 517 768T429 469Q429 367 476 314T613 260Q744 260 832 378T920 674Q920 778 873 832T736 887ZM505 1636H798L360 1260H159L505 1636Z" />
<glyph unicode="&#x1f6;" glyph-name="uni01F6" horiz-adv-x="2495" d="M1157 924L1268 1493H1653L1479 598Q1443 413 1488 334Q1533 254 1670 254Q1808 254 1884 334Q1960 413 1996 598L2097 1120H2482L2381 598Q2319 281 2130 126T1615 -29Q1291 -30 1161 126Q1032
281 1094 598L1101 633H533L410 0H25L315 1493H700L589 924H1157Z" />
<glyph unicode="&#x1f7;" glyph-name="uni01F7" horiz-adv-x="1642" d="M513 113L408 -426H14L387 1493H781L745 1308Q859 1426 967 1471Q1085 1520 1304 1520Q1526 1520 1590 1396Q1642 1295 1642 1189Q1642 1147 1633 1104Q1544 642 513 113ZM572 417Q1164 785
1199 965Q1207 1006 1207 1041Q1207 1113 1175 1162Q1128 1234 989 1234Q892 1234 687 1010L572 417Z" />
<glyph unicode="&#x1f8;" glyph-name="uni01F8" horiz-adv-x="1714" d="M1759 1899L1903 1635H1725L1495 1899H1759ZM311 1493H741L1083 459L1284 1493H1648L1357 0H927L585 1034L385 0H20L311 1493Z" />
<glyph unicode="&#x1f9;" glyph-name="uni01F9" horiz-adv-x="1458" d="M1277 682L1144 0H785L898 584Q910 641 916 680T923 743Q923 807 888 842T787 877Q676 877 597 791T486 551L378 0H19L237 1120H597L564 956Q663 1053 763 1100T972 1147Q1127 1147 1211
1066T1295 838Q1295 806 1291 767T1277 682ZM605 1636L814 1260H617L322 1636H605Z" />
<glyph unicode="&#x1fa;" glyph-name="Aringacute" horiz-adv-x="1585" d="M2057 2019H2337L2018 1755H1811L2057 2019ZM928 1616Q928 1562 966 1524T1059 1485Q1113 1485 1151 1523T1190 1616Q1190 1670 1151 1708T1059 1747Q1005 1747 967 1709T928 1616ZM1288
1456L1548 0H1182L1139 272H543L395 0H0L825 1458Q799 1495 787 1533T774 1616Q774 1733 857 1817T1059 1901Q1176 1901 1259 1817T1343 1616Q1343 1568 1330 1530T1288 1456ZM688 543H1089L999 1118L688 543Z" />
<glyph unicode="&#x1fb;" glyph-name="aringacute" horiz-adv-x="1638" d="M1356 1907H1636L1317 1643H1110L1356 1907ZM643 504Q509 504 441 463T372 340Q372 279 412 244T524 209Q634 209 708 275T807 463L815 504H643ZM1202 639L1077 0H719L749 166Q661 66
563 19T350 -29Q191 -29 98 53T4 276Q4 490 169 603T647 717H858L862 745Q865 759 865 765T866 776Q866 842 804 875T618 909Q507 909 403 886T202 817L256 1090Q368 1118 485 1132T729 1147Q978 1147 1099 1062T1220 801Q1220 767 1216 727T1202 639ZM1095 1524Q1095
1404 1013 1322T811 1239Q691 1239 609 1321T526 1524Q526 1644 608 1726T811 1808Q930 1808 1012 1726T1095 1524ZM960 1524Q960 1589 918 1631T811 1673Q745 1673 703 1631T661 1524Q661 1459 703 1417T811 1374Q876 1374 918 1416T960 1524Z" />
<glyph unicode="&#x1fc;" glyph-name="AEacute" horiz-adv-x="2222" d="M2008 1900H2288L1969 1636H1762L2008 1900ZM1150 1237L775 627H1152L1271 1237H1150ZM939 1493H2360L2303 1202H1650L1597 924H2211L2154 633H1539L1474 291H2147L2092 0H1031L1099 350H607L390
0H5L939 1493Z" />
<glyph unicode="&#x1fd;" glyph-name="aeacute" horiz-adv-x="2146" d="M662 504Q528 504 460 463T391 340Q391 279 431 244T543 209Q653 209 727 275T826 463L834 504H662ZM279 1090Q396 1118 507 1132T723 1147Q872 1147 970 1111T1125 997Q1220 1074 1326 1110T1563
1147Q1786 1147 1919 1025T2052 702Q2052 657 2047 611T2032 518L2018 461H1182Q1182 455 1181 444T1180 426Q1180 317 1245 263T1442 209Q1554 209 1678 242T1942 344L1889 66Q1758 18 1628 -5T1362 -29Q1189 -29 1071 22T887 178Q770 73 647 22T385 -29Q215 -29
119 52T23 274Q23 490 188 603T670 717H875L881 746Q884 759 884 765T885 776Q885 842 823 875T641 909Q527 909 424 886T226 817L279 1090ZM1694 682Q1697 695 1698 708T1700 735Q1700 815 1652 862T1522 909Q1417 909 1343 851T1231 682H1694ZM808 1637H1101L663
1261H462L808 1637Z" />
<glyph unicode="&#x1fe;" glyph-name="Oslashacute" horiz-adv-x="1741" d="M1630 1900H1910L1591 1636H1384L1630 1900ZM1302 1128Q1262 1185 1201 1213T1058 1241Q856 1241 722 1063T587 612Q587 590 591 538Q591 538 591 532L1302 1128ZM264 258Q222 332 201
410T180 569Q180 752 235 914T397 1206Q526 1365 702 1442T1112 1520Q1260 1520 1376 1481T1581 1364L1839 1579L1941 1456L1683 1243Q1728 1167 1750 1086T1773 920Q1773 738 1718 576T1556 285Q1426 127 1248 49T839 -29Q692 -29 574 12T364 135L112 -78L10 45L264
258ZM645 371Q684 312 745 281T884 250Q999 250 1088 298T1241 442Q1301 534 1334 648T1368 879Q1368 904 1361 957Q1360 965 1359 969L645 371Z" />
<glyph unicode="&#x1ff;" glyph-name="oslashacute" horiz-adv-x="1407" d="M949 842Q926 866 892 878T812 891Q672 891 588 772T493 438L949 842ZM196 174Q157 233 138 301T118 446Q118 572 163 691T296 911Q396 1028 534 1087T845 1147Q949 1147 1035 1124T1189
1055L1381 1223L1478 1112L1295 950Q1336 891 1356 822T1377 674Q1377 547 1332 428T1201 209Q1100 93 960 32T650 -29Q541 -29 454 -5T298 70L105 -102L9 10L196 174ZM542 283Q567 255 601 241T683 227Q824 227 909 351T1002 692L542 283ZM464 1639H757L319 1263H118L464
1639Z" />
<glyph unicode="&#x200;" glyph-name="uni0200" horiz-adv-x="1585" d="M1140 272H544L396 0H1L845 1493H1285L1549 0H1183L1140 272ZM689 543H1090L1000 1118L689 543ZM2065 1904L2209 1640H2031L1801 1904H2065ZM1709 1904L1853 1640H1675L1445 1904H1709Z" />
<glyph unicode="&#x201;" glyph-name="uni0201" horiz-adv-x="1382" d="M655 504Q521 504 453 463T384 340Q384 279 424 244T536 209Q646 209 720 275T819 463L827 504H655ZM1214 639L1089 0H731L761 166Q673 66 575 19T362 -29Q203 -29 110 53T16 276Q16 490
181 603T659 717H870L874 745Q877 759 877 765T878 776Q878 842 816 875T630 909Q519 909 415 886T214 817L268 1090Q380 1118 497 1132T741 1147Q990 1147 1111 1062T1232 801Q1232 767 1228 727T1214 639ZM1592 1638L1713 1262H1550L1375 1638H1592ZM1229 1638L1371
1262H1197L998 1638H1229Z" />
<glyph unicode="&#x202;" glyph-name="uni0202" horiz-adv-x="1585" d="M1140 272H544L396 0H1L845 1493H1285L1549 0H1183L1140 272ZM689 543H1090L1000 1118L689 543ZM2044 1675H1901Q1891 1735 1851 1762T1731 1790Q1659 1790 1606 1760T1530 1675H1377Q1416
1804 1515 1871T1762 1939Q1898 1939 1971 1872T2044 1679V1675Z" />
<glyph unicode="&#x203;" glyph-name="uni0203" horiz-adv-x="1382" d="M655 504Q521 504 453 463T384 340Q384 279 424 244T536 209Q646 209 720 275T819 463L827 504H655ZM1214 639L1089 0H731L761 166Q673 66 575 19T362 -29Q203 -29 110 53T16 276Q16 490
181 603T659 717H870L874 745Q877 759 877 765T878 776Q878 842 816 875T630 909Q519 909 415 886T214 817L268 1090Q380 1118 497 1132T741 1147Q990 1147 1111 1062T1232 801Q1232 767 1228 727T1214 639ZM1671 1309H1529V1318Q1529 1383 1486 1418T1363 1453Q1282
1453 1230 1418T1150 1309H998Q1032 1452 1134 1529T1393 1606Q1533 1606 1603 1544T1674 1361Q1674 1340 1674 1330T1671 1309Z" />
<glyph unicode="&#x204;" glyph-name="uni0204" horiz-adv-x="1399" d="M307 1493H1345L1288 1202H635L581 924H1196L1138 633H524L458 291H1132L1077 0H16L307 1493ZM1981 1904L2125 1640H1947L1717 1904H1981ZM1625 1904L1769 1640H1591L1361 1904H1625Z" />
<glyph unicode="&#x205;" glyph-name="uni0205" horiz-adv-x="1389" d="M1232 518L1220 461H382Q382 455 381 444T380 426Q380 317 445 263T642 209Q755 209 880 243T1144 344L1089 66Q958 18 829 -5T565 -29Q303 -29 161 92T18 434Q18 562 63 682T196 903Q299
1023 442 1085T761 1147Q988 1147 1121 1026T1255 700Q1255 660 1250 616T1232 518ZM894 682Q897 695 898 708T900 735Q900 815 852 862T722 909Q617 909 544 852T431 682H894ZM1639 1638L1760 1262H1597L1422 1638H1639ZM1276 1638L1418 1262H1244L1045 1638H1276Z"
/>
<glyph unicode="&#x206;" glyph-name="uni0206" horiz-adv-x="1399" d="M307 1493H1345L1288 1202H635L581 924H1196L1138 633H524L458 291H1132L1077 0H16L307 1493ZM1960 1675H1817Q1807 1735 1767 1762T1647 1790Q1575 1790 1522 1760T1446 1675H1293Q1332
1804 1431 1871T1678 1939Q1814 1939 1887 1872T1960 1679V1675Z" />
<glyph unicode="&#x207;" glyph-name="uni0207" horiz-adv-x="1389" d="M1232 518L1220 461H382Q382 455 381 444T380 426Q380 317 445 263T642 209Q755 209 880 243T1144 344L1089 66Q958 18 829 -5T565 -29Q303 -29 161 92T18 434Q18 562 63 682T196 903Q299
1023 442 1085T761 1147Q988 1147 1121 1026T1255 700Q1255 660 1250 616T1232 518ZM894 682Q897 695 898 708T900 735Q900 815 852 862T722 909Q617 909 544 852T431 682H894ZM1718 1309H1576V1318Q1576 1383 1533 1418T1410 1453Q1329 1453 1277 1418T1197 1309H1045Q1079
1452 1181 1529T1440 1606Q1580 1606 1650 1544T1721 1361Q1721 1340 1721 1330T1718 1309Z" />
<glyph unicode="&#x208;" glyph-name="uni0208" horiz-adv-x="762" d="M295 1493H680L389 0H4L295 1493ZM1610 1904L1754 1640H1576L1346 1904H1610ZM1254 1904L1398 1640H1220L990 1904H1254Z" />
<glyph unicode="&#x209;" glyph-name="uni0209" horiz-adv-x="702" d="M1300 1637L1421 1261H1258L1083 1637H1300ZM937 1637L1079 1261H905L706 1637H937ZM224 1120H584L365 0H6L224 1120Z" />
<glyph unicode="&#x20a;" glyph-name="uni020A" horiz-adv-x="762" d="M295 1493H680L389 0H4L295 1493ZM1617 1675H1474Q1464 1735 1424 1762T1304 1790Q1232 1790 1179 1760T1103 1675H950Q989 1804 1088 1871T1335 1939Q1471 1939 1544 1872T1617 1679V1675Z" />
<glyph unicode="&#x20b;" glyph-name="uni020B" horiz-adv-x="702" d="M224 1120H584L365 0H6L224 1120ZM1378 1309H1236V1318Q1236 1383 1193 1418T1070 1453Q989 1453 937 1418T857 1309H705Q739 1452 841 1529T1100 1606Q1240 1606 1310 1544T1381 1361Q1381
1340 1381 1330T1378 1309Z" />
<glyph unicode="&#x20c;" glyph-name="uni020C" horiz-adv-x="1741" d="M1205 881Q1205 1057 1126 1149T895 1241Q695 1241 560 1062T424 612Q424 440 503 345T723 250Q838 250 927 298T1080 442Q1140 533 1172 647T1205 881ZM951 1520Q1249 1520 1430 1355T1612
922Q1612 740 1557 578T1395 287Q1265 128 1088 50T678 -29Q381 -29 200 136T19 569Q19 752 74 914T236 1206Q364 1364 541 1442T951 1520ZM2177 1904L2321 1640H2143L1913 1904H2177ZM1821 1904L1965 1640H1787L1557 1904H1821Z" />
<glyph unicode="&#x20d;" glyph-name="uni020D" horiz-adv-x="1407" d="M713 891Q574 891 484 765T394 444Q394 338 442 283T584 227Q723 227 813 353T903 676Q903 781 855 836T713 891ZM742 1147Q992 1147 1135 1020T1278 674Q1278 547 1233 428T1102 209Q1000
91 861 31T551 -29Q304 -29 162 98T19 444Q19 570 65 690T197 911Q297 1027 435 1087T742 1147ZM1605 1638L1726 1262H1563L1388 1638H1605ZM1242 1638L1384 1262H1210L1011 1638H1242Z" />
<glyph unicode="&#x20e;" glyph-name="uni020E" horiz-adv-x="1741" d="M1205 881Q1205 1057 1126 1149T895 1241Q695 1241 560 1062T424 612Q424 440 503 345T723 250Q838 250 927 298T1080 442Q1140 533 1172 647T1205 881ZM951 1520Q1249 1520 1430 1355T1612
922Q1612 740 1557 578T1395 287Q1265 128 1088 50T678 -29Q381 -29 200 136T19 569Q19 752 74 914T236 1206Q364 1364 541 1442T951 1520ZM2149 1675H2006Q1996 1735 1956 1762T1836 1790Q1764 1790 1711 1760T1635 1675H1482Q1521 1804 1620 1871T1867 1939Q2003
1939 2076 1872T2149 1679V1675Z" />
<glyph unicode="&#x20f;" glyph-name="uni020F" horiz-adv-x="1407" d="M713 891Q574 891 484 765T394 444Q394 338 442 283T584 227Q723 227 813 353T903 676Q903 781 855 836T713 891ZM742 1147Q992 1147 1135 1020T1278 674Q1278 547 1233 428T1102 209Q1000
91 861 31T551 -29Q304 -29 162 98T19 444Q19 570 65 690T197 911Q297 1027 435 1087T742 1147ZM1684 1309H1542V1318Q1542 1383 1499 1418T1376 1453Q1295 1453 1243 1418T1163 1309H1011Q1045 1452 1147 1529T1406 1606Q1546 1606 1616 1544T1687 1361Q1687 1340
1687 1330T1684 1309Z" />
<glyph unicode="&#x210;" glyph-name="uni0210" horiz-adv-x="1577" d="M726 831Q857 831 924 892T992 1071Q992 1145 946 1179T799 1214H640L564 831H726ZM513 565L402 0H17L308 1493H877Q1123 1493 1250 1401T1377 1130Q1377 949 1277 832T1006 698Q1084 682
1136 619T1227 424L1354 0H971L859 371Q825 482 777 523T636 565H513ZM1953 1904L2097 1640H1919L1689 1904H1953ZM1597 1904L1741 1640H1563L1333 1904H1597Z" />
<glyph unicode="&#x211;" glyph-name="uni0211" horiz-adv-x="1010" d="M1006 815Q969 836 924 847T827 858Q690 858 600 770T477 516L375 0H16L234 1120H594L555 928Q626 1034 732 1090T969 1147Q988 1147 1012 1145T1069 1139L1006 815ZM1551 1638L1672 1262H1509L1334
1638H1551ZM1188 1638L1330 1262H1156L957 1638H1188Z" />
<glyph unicode="&#x212;" glyph-name="uni0212" horiz-adv-x="1577" d="M726 831Q857 831 924 892T992 1071Q992 1145 946 1179T799 1214H640L564 831H726ZM513 565L402 0H17L308 1493H877Q1123 1493 1250 1401T1377 1130Q1377 949 1277 832T1006 698Q1084 682
1136 619T1227 424L1354 0H971L859 371Q825 482 777 523T636 565H513ZM1939 1675H1796Q1786 1735 1746 1762T1626 1790Q1554 1790 1501 1760T1425 1675H1272Q1311 1804 1410 1871T1657 1939Q1793 1939 1866 1872T1939 1679V1675Z" />
<glyph unicode="&#x213;" glyph-name="uni0213" horiz-adv-x="1010" d="M1006 815Q969 836 924 847T827 858Q690 858 600 770T477 516L375 0H16L234 1120H594L555 928Q626 1034 732 1090T969 1147Q988 1147 1012 1145T1069 1139L1006 815ZM1630 1309H1488V1318Q1488
1383 1445 1418T1322 1453Q1241 1453 1189 1418T1109 1309H957Q991 1452 1093 1529T1352 1606Q1492 1606 1562 1544T1633 1361Q1633 1340 1633 1330T1630 1309Z" />
<glyph unicode="&#x214;" glyph-name="uni0214" horiz-adv-x="1663" d="M220 1493H605L431 599Q421 551 417 514T412 449Q412 351 464 303T621 254Q761 254 836 332T947 598L1121 1493H1506L1332 598Q1267 268 1086 120T566 -29Q301 -29 163 84T25 414Q25 450
30 494T46 598L220 1493ZM2065 1904L2209 1640H2031L1801 1904H2065ZM1709 1904L1853 1640H1675L1445 1904H1709Z" />
<glyph unicode="&#x215;" glyph-name="uni0215" horiz-adv-x="1458" d="M43 436L174 1120H533L420 537Q408 480 402 440T396 377Q396 314 431 279T531 244Q642 244 722 330T832 569L940 1120H1299L1082 0H721L754 164Q662 67 561 19T348 -29Q195 -29 111 52T27
281Q27 316 31 355T43 436ZM1629 1638L1750 1262H1587L1412 1638H1629ZM1266 1638L1408 1262H1234L1035 1638H1266Z" />
<glyph unicode="&#x216;" glyph-name="uni0216" horiz-adv-x="1663" d="M220 1493H605L431 599Q421 551 417 514T412 449Q412 351 464 303T621 254Q761 254 836 332T947 598L1121 1493H1506L1332 598Q1267 268 1086 120T566 -29Q301 -29 163 84T25 414Q25 450
30 494T46 598L220 1493ZM2044 1675H1901Q1891 1735 1851 1762T1731 1790Q1659 1790 1606 1760T1530 1675H1377Q1416 1804 1515 1871T1762 1939Q1898 1939 1971 1872T2044 1679V1675Z" />
<glyph unicode="&#x217;" glyph-name="uni0217" horiz-adv-x="1458" d="M43 436L174 1120H533L420 537Q408 480 402 440T396 377Q396 314 431 279T531 244Q642 244 722 330T832 569L940 1120H1299L1082 0H721L754 164Q662 67 561 19T348 -29Q195 -29 111 52T27
281Q27 316 31 355T43 436ZM1708 1309H1566V1318Q1566 1383 1523 1418T1400 1453Q1319 1453 1267 1418T1187 1309H1035Q1069 1452 1171 1529T1430 1606Q1570 1606 1640 1544T1711 1361Q1711 1340 1711 1330T1708 1309Z" />
<glyph unicode="&#x218;" glyph-name="Scommaaccent" horiz-adv-x="1475" d="M1240 -186H1564L1284 -484H1092L1240 -186ZM1343 1446L1281 1130Q1168 1186 1058 1213T843 1241Q699 1241 619 1196T538 1071Q538 1020 573 992T720 936L878 897Q1076 847 1168 753T1261
508Q1261 265 1077 118T581 -29Q436 -29 293 -2T12 78L73 403Q206 326 331 288T579 250Q711 250 793 304T876 442Q876 497 839 527T677 590L520 629Q346 672 261 765T176 1006Q176 1239 354 1379T835 1520Q956 1520 1083 1502T1343 1446Z" />
<glyph unicode="&#x219;" glyph-name="scommaaccent" horiz-adv-x="1219" d="M1094 -186H1418L1138 -484H946L1094 -186ZM1141 1085L1088 807Q983 857 879 883T682 909Q576 909 519 882T461 803Q461 773 493 755T619 717L684 705Q901 659 988 587T1075 385Q1075
190 922 81T494 -29Q379 -29 259 -11T14 43L68 324Q165 267 275 238T502 209Q615 209 672 236T729 315Q729 351 697 371T565 412L500 424Q308 464 226 542T144 758Q144 945 285 1046T690 1147Q805 1147 916 1132T1141 1085Z" />
<glyph unicode="&#x21a;" glyph-name="uni021A" horiz-adv-x="1397" d="M1147 -186H1471L1191 -484H999L1147 -186ZM74 1493H1450L1393 1202H897L663 0H278L512 1202H16L74 1493Z" />
<glyph unicode="&#x21b;" glyph-name="uni021B" horiz-adv-x="979" d="M1052 -186H1376L1096 -484H904L1052 -186ZM661 1438L600 1120H966L915 864H549L457 390Q453 374 452 363T450 342Q450 296 480 276T583 256H768L717 0H416Q254 0 169 68T84 264Q84 292 87
324T96 389L188 864H12L61 1120H239L301 1438H661Z" />
<glyph unicode="&#x21c;" glyph-name="uni021C" horiz-adv-x="1434" d="M1428 1170Q1428 1136 1420 1095T1385 996T1319 884T1208 773T1046 674Q1167 643 1230 563T1294 379Q1294 345 1287 311Q1265 207 1203 120T1040 -40T787 -180T446 -307T5 -430L65 -147Q78
-144 99 -139T177 -119T288 -87T416 -43T552 12T679 79T788 156T861 244T890 342Q890 393 863 429T796 482T711 498Q654 498 586 473L351 388L405 642L660 737Q750 771 819 812T927 892T991 972T1023 1045T1031 1106Q1031 1148 1011 1179T956 1226T887 1249T816
1256Q667 1256 394 1100L448 1356Q723 1520 958 1520Q1062 1520 1145 1498T1280 1441T1366 1359T1414 1266T1428 1170Z" />
<glyph unicode="&#x21d;" glyph-name="uni021D" horiz-adv-x="1265" d="M1258 871Q1258 750 1165 638T923 461Q989 443 1036 415T1107 354T1141 288T1152 221Q1152 194 1146 167Q1060 -241 6 -433L55 -204Q80 -199 112 -192T205 -169T325 -134T453 -90T579 -34T685
31T761 106T788 189Q788 250 739 284T624 319Q572 319 512 299L303 230L347 436L574 513Q656 541 718 575T814 640T868 704T895 761T901 808Q901 843 882 869T831 908T768 927T704 933Q564 933 328 807L372 1014Q604 1147 852 1147Q941 1147 1012 1131T1128 1089T1203
1027T1245 952T1258 871Z" />
<glyph unicode="&#x21e;" glyph-name="uni021E" horiz-adv-x="1714" d="M311 1493H696L585 924H1153L1263 1493H1648L1357 0H972L1095 633H528L405 0H20L311 1493ZM1967 1633H1618L1481 1897H1653L1801 1735L2032 1897H2210L1967 1633Z" />
<glyph unicode="&#x21f;" glyph-name="uni021F" horiz-adv-x="1458" d="M1273 682L1140 0H781L894 584Q906 641 912 680T919 743Q919 807 884 842T783 877Q672 877 593 791T482 551L374 0H15L317 1556H677L560 956Q659 1053 759 1100T968 1147Q1123 1147 1207
1066T1291 838Q1291 806 1287 767T1273 682ZM1498 1633H1149L1012 1897H1184L1332 1735L1563 1897H1741L1498 1633Z" />
<glyph unicode="&#x220;" glyph-name="uni0220" horiz-adv-x="1581" d="M1102 691Q1137 873 1143 956Q1148 1029 1130 1064Q1106 1110 1056 1136Q1004 1162 934 1162Q777 1162 665 1047Q554 932 515 730L373 0H5L295 1493H666L622 1266Q760 1401 885 1459Q1016
1520 1160 1520Q1387 1520 1475 1362T1504 903L1246 -426H885L1102 691Z" />
<glyph unicode="&#x221;" glyph-name="uni0221" horiz-adv-x="1643" d="M1288 230Q1422 230 1438 319Q1443 344 1416 344Q1341 344 1289 293L1243 246Q1261 230 1288 230ZM595 231Q710 231 787 315Q863 399 894 559T882 803Q837 887 722 887Q608 887 532 803Q454
719 423 559T437 315Q481 231 595 231ZM1246 514Q1340 606 1446 606Q1540 606 1580 550Q1630 481 1598 327Q1567 167 1484 80Q1387 -25 1221 -26Q1130 -26 1064 0Q1013 -74 968 -154L818 -82Q848 -27 916 86Q903 100 895 118Q836 50 760 15Q663 -29 411 -29Q204
-29 103 136Q2 300 52 559Q103 818 268 982Q433 1147 640 1147Q756 1147 836 1100Q917 1054 972 956L1088 1556H1448L1246 514Z" />
<glyph unicode="&#x222;" glyph-name="uni0222" horiz-adv-x="1552" d="M773 668Q612 668 513 609T392 440Q388 416 388 395Q388 317 448 272Q523 213 684 213Q846 213 943 272Q1039 330 1060 440Q1065 465 1065 488Q1065 564 1008 610Q935 668 773 668ZM964 1346L998
1519Q1278 1511 1414 1422Q1534 1343 1534 1205Q1534 1171 1527 1133Q1502 1006 1403 921Q1302 836 1131 795Q1305 753 1380 658Q1434 590 1434 495Q1434 459 1426 420Q1383 198 1184 84Q985 -29 637 -29Q288 -29 132 84Q10 173 10 329Q10 372 19 420Q47 564 159
658Q270 753 460 795Q298 825 237 911Q184 985 184 1052Q184 1068 187 1083Q208 1191 397 1291Q526 1360 843 1369L813 1215Q701 1217 640 1180Q547 1124 536 1064Q534 1053 534 1043Q534 988 595 947Q652 909 820 909Q953 909 1061 967Q1151 1015 1174 1134Q1179
1158 1179 1179Q1179 1252 1124 1290Q1054 1338 964 1346Z" />
<glyph unicode="&#x223;" glyph-name="uni0223" horiz-adv-x="1334" d="M923 1218L1298 1323Q1318 1275 1318 1216Q1318 1177 1309 1133Q1285 1007 1198 921Q1113 836 969 795Q1111 754 1171 658Q1212 594 1212 507Q1212 466 1203 420Q1160 198 989 84Q820 -29
530 -29Q239 -29 113 84Q19 169 19 314Q19 364 30 420Q58 564 153 658Q249 753 410 795Q282 836 229 921Q193 979 193 1056Q193 1092 201 1133Q223 1244 286 1323L620 1218Q573 1171 558 1094Q553 1067 553 1045Q553 991 581 957Q621 909 713 909Q803 909 861 957T937
1094Q942 1120 942 1143Q942 1187 923 1218ZM666 668Q558 668 488 609Q419 550 398 440Q391 405 391 376Q391 312 423 272Q469 213 577 213Q684 213 753 272Q821 330 843 440Q850 476 850 506Q850 570 819 610Q773 668 666 668Z" />
<glyph unicode="&#x224;" glyph-name="uni0224" horiz-adv-x="1583" d="M1304 0Q1245 -268 1060 -377Q948 -442 795 -442H514L560 -207H726Q828 -207 875 -161Q918 -118 944 0H3L48 233L1037 1202H259L316 1493H1571L1526 1260L536 291H1360L1304 0Z" />
<glyph unicode="&#x225;" glyph-name="uni0225" horiz-adv-x="1238" d="M1011 0Q953 -268 767 -377Q655 -442 502 -442H221L267 -207H433Q535 -207 582 -161Q625 -118 651 0H9L58 250L767 864H202L252 1120H1229L1180 870L471 256H1061L1011 0Z" />
<glyph unicode="&#x226;" glyph-name="uni0226" horiz-adv-x="1585" d="M1418 1899H1693L1646 1653H1371L1418 1899ZM1140 272H544L396 0H1L845 1493H1285L1549 0H1183L1140 272ZM689 543H1090L1000 1118L689 543Z" />
<glyph unicode="&#x227;" glyph-name="uni0227" horiz-adv-x="1382" d="M1081 1556H1439L1383 1264H1025L1081 1556ZM655 504Q521 504 453 463T384 340Q384 279 424 244T536 209Q646 209 720 275T819 463L827 504H655ZM1214 639L1089 0H731L761 166Q673 66 575
19T362 -29Q203 -29 110 53T16 276Q16 490 181 603T659 717H870L874 745Q877 759 877 765T878 776Q878 842 816 875T630 909Q519 909 415 886T214 817L268 1090Q380 1118 497 1132T741 1147Q990 1147 1111 1062T1232 801Q1232 767 1228 727T1214 639Z" />
<glyph unicode="&#x228;" glyph-name="uni0228" horiz-adv-x="1399" d="M307 1493H1345L1288 1202H635L581 924H1196L1138 633H524L458 291H1132L1077 0H16L307 1493ZM607 8Q644 -44 661 -88T678 -174Q678 -278 603 -335T390 -393Q341 -393 293 -387T193 -367L222
-211Q262 -228 302 -237T381 -246Q447 -246 485 -218T523 -142Q523 -116 510 -82T465 8H607Z" />
<glyph unicode="&#x229;" glyph-name="uni0229" horiz-adv-x="1389" d="M1232 518L1220 461H382Q382 455 381 444T380 426Q380 317 445 263T642 209Q755 209 880 243T1144 344L1089 66Q958 18 829 -5T565 -29Q303 -29 161 92T18 434Q18 562 63 682T196 903Q299
1023 442 1085T761 1147Q988 1147 1121 1026T1255 700Q1255 660 1250 616T1232 518ZM894 682Q897 695 898 708T900 735Q900 815 852 862T722 909Q617 909 544 852T431 682H894ZM602 0Q639 -52 656 -96T673 -182Q673 -286 598 -343T385 -401Q336 -401 288 -395T188
-375L217 -219Q257 -236 297 -245T376 -254Q442 -254 480 -226T518 -150Q518 -124 505 -90T460 0H602Z" />
<glyph unicode="&#x22a;" glyph-name="uni022A" horiz-adv-x="1612" d="M779 2130H1410L1373 1942H742L779 2130ZM726 1870H962L915 1624H679L726 1870ZM1121 1870H1359L1310 1624H1074L1121 1870ZM1191 881Q1191 1057 1112 1149T881 1241Q681 1241 546 1062T410
612Q410 440 489 345T709 250Q824 250 913 298T1066 442Q1126 533 1158 647T1191 881ZM937 1520Q1235 1520 1416 1355T1598 922Q1598 740 1543 578T1381 287Q1251 128 1074 50T664 -29Q367 -29 186 136T5 569Q5 752 60 914T222 1206Q350 1364 527 1442T937 1520Z"
/>
<glyph unicode="&#x22b;" glyph-name="uni022B" horiz-adv-x="1273" d="M697 891Q558 891 468 765T378 444Q378 338 426 283T568 227Q707 227 797 353T887 676Q887 781 839 836T697 891ZM726 1147Q976 1147 1119 1020T1262 674Q1262 547 1217 428T1086 209Q984
91 845 31T535 -29Q288 -29 146 98T3 444Q3 570 49 690T181 911Q281 1027 419 1087T726 1147ZM480 1585H718L669 1339H433L480 1585ZM878 1585H1113L1064 1339H829L878 1585ZM524 1871H1155L1118 1683H487L524 1871Z" />
<glyph unicode="&#x22c;" glyph-name="uni022C" horiz-adv-x="1611" d="M996 1652L947 1689Q923 1708 907 1714T872 1721Q836 1721 810 1689T773 1601H636Q662 1729 727 1798T888 1867Q925 1867 957 1855T1025 1816L1078 1775Q1094 1762 1112 1755T1146 1748Q1185
1748 1211 1778T1248 1867H1386Q1360 1739 1295 1670T1136 1601Q1098 1601 1066 1612T996 1652ZM772 2130H1403L1366 1942H735L772 2130ZM1190 881Q1190 1057 1111 1149T880 1241Q680 1241 545 1062T409 612Q409 440 488 345T708 250Q823 250 912 298T1065 442Q1125
533 1157 647T1190 881ZM936 1520Q1234 1520 1415 1355T1597 922Q1597 740 1542 578T1380 287Q1250 128 1073 50T663 -29Q366 -29 185 136T4 569Q4 752 59 914T221 1206Q349 1364 526 1442T936 1520Z" />
<glyph unicode="&#x22d;" glyph-name="uni022D" horiz-adv-x="1274" d="M697 891Q558 891 468 765T378 444Q378 338 426 283T568 227Q707 227 797 353T887 676Q887 781 839 836T697 891ZM726 1147Q976 1147 1119 1020T1262 674Q1262 547 1217 428T1086 209Q984
91 845 31T535 -29Q288 -29 146 98T3 444Q3 570 49 690T181 911Q281 1027 419 1087T726 1147ZM757 1364L708 1401Q705 1403 698 1408Q660 1438 630 1438Q596 1438 570 1404T534 1309H394Q421 1446 486 1519T646 1593Q682 1593 715 1580T786 1536L839 1493Q857 1478
874 1470T906 1462Q944 1462 970 1495T1007 1591H1146Q1120 1455 1055 1381T896 1307Q862 1307 832 1318T757 1364ZM524 1872H1155L1118 1684H487L524 1872Z" />
<glyph unicode="&#x22e;" glyph-name="uni022E" horiz-adv-x="1741" d="M1205 881Q1205 1057 1126 1149T895 1241Q695 1241 560 1062T424 612Q424 440 503 345T723 250Q838 250 927 298T1080 442Q1140 533 1172 647T1205 881ZM951 1520Q1249 1520 1430 1355T1612
922Q1612 740 1557 578T1395 287Q1265 128 1088 50T678 -29Q381 -29 200 136T19 569Q19 752 74 914T236 1206Q364 1364 541 1442T951 1520ZM1452 1900H1727L1680 1654H1405L1452 1900Z" />
<glyph unicode="&#x22f;" glyph-name="uni022F" horiz-adv-x="1407" d="M1094 1556H1452L1396 1264H1038L1094 1556ZM713 891Q574 891 484 765T394 444Q394 338 442 283T584 227Q723 227 813 353T903 676Q903 781 855 836T713 891ZM742 1147Q992 1147 1135 1020T1278
674Q1278 547 1233 428T1102 209Q1000 91 861 31T551 -29Q304 -29 162 98T19 444Q19 570 65 690T197 911Q297 1027 435 1087T742 1147Z" />
<glyph unicode="&#x230;" glyph-name="uni0230" horiz-adv-x="1609" d="M906 1869H1181L1134 1623H859L906 1869ZM779 2129H1410L1373 1941H742L779 2129ZM1190 881Q1190 1057 1111 1149T880 1241Q680 1241 545 1062T409 612Q409 440 488 345T708 250Q823 250
912 298T1065 442Q1125 533 1157 647T1190 881ZM936 1520Q1234 1520 1415 1355T1597 922Q1597 740 1542 578T1380 287Q1250 128 1073 50T663 -29Q366 -29 185 136T4 569Q4 752 59 914T221 1206Q349 1364 526 1442T936 1520Z" />
<glyph unicode="&#x231;" glyph-name="uni0231" horiz-adv-x="1269" d="M621 1555H979L923 1263H565L621 1555ZM696 891Q557 891 467 765T377 444Q377 338 425 283T567 227Q706 227 796 353T886 676Q886 781 838 836T696 891ZM725 1147Q975 1147 1118 1020T1261
674Q1261 547 1216 428T1085 209Q983 91 844 31T534 -29Q287 -29 145 98T2 444Q2 570 48 690T180 911Q280 1027 418 1087T725 1147ZM501 1872H1132L1095 1684H464L501 1872Z" />
<glyph unicode="&#x232;" glyph-name="uni0232" horiz-adv-x="1483" d="M14 1493H399L653 940L1097 1493H1542L805 623L684 0H299L420 623L14 1493ZM299 1871H930L893 1683H262L299 1871Z" />
<glyph unicode="&#x233;" glyph-name="uni0233" horiz-adv-x="1335" d="M158 1120H496L650 344L1047 1120H1430L721 -106Q602 -313 501 -377T240 -442H23L60 -207H173Q261 -207 309 -178T396 -74L429 -14L158 1120ZM219 1562H850L813 1374H182L219 1562Z" />
<glyph unicode="&#x234;" glyph-name="uni0234" horiz-adv-x="825" d="M493 230Q627 230 643 319Q648 344 621 344Q546 344 494 293L448 246Q466 230 493 230ZM438 514Q532 606 638 606Q725 606 766 558Q824 490 790 327Q759 166 676 78Q579 -26 413 -26Q322 -26
256 0Q205 -74 160 -154L10 -82Q40 -27 108 86Q18 198 88 559L282 1556H640L438 514Z" />
<glyph unicode="&#x235;" glyph-name="uni0235" horiz-adv-x="1640" d="M1242 514Q1336 606 1442 606Q1523 606 1565 564Q1630 498 1595 327Q1559 154 1468 66Q1373 -26 1217 -26Q1126 -26 1060 0Q1010 -74 965 -154L815 -82Q845 -27 913 86Q818 205 884 522Q912
656 917 722Q921 777 910 803Q895 838 863 858Q831 877 785 877Q673 877 592 790Q511 704 482 551L374 0H16L234 1120H592L560 956Q660 1054 760 1100Q860 1147 970 1147Q1164 1147 1242 1028Q1319 909 1275 682L1242 514ZM1298 230Q1433 234 1447 319Q1451 344
1425 344Q1351 346 1298 293L1252 246Q1271 230 1298 230Z" />
<glyph unicode="&#x236;" glyph-name="uni0236" horiz-adv-x="969" d="M530 240Q665 244 679 329Q683 354 657 354Q583 356 530 303L484 256Q503 240 530 240ZM661 1438L599 1120H968L918 864H549L481 508Q583 604 689 604Q780 604 821 552Q874 483 842 325Q809
167 730 80Q633 -28 464 -28Q373 -28 307 -2Q257 -76 211 -156L61 -84Q94 -22 150 68Q138 77 130 88Q58 177 99 389L191 864H13L63 1120H241L303 1438H661Z" />
<glyph unicode="&#x237;" glyph-name="dotlessj" horiz-adv-x="909" d="M543 1120H903L688 20Q642 -215 517 -328T178 -442H0L45 -207H108Q209 -207 255 -162T328 20L543 1120Z" />
<glyph unicode="&#x238;" glyph-name="uni0238" horiz-adv-x="2166" d="M600 231Q715 231 792 315T900 559T887 803T728 887Q614 887 537 803T429 559T442 315T600 231ZM1367 802Q1303 733 1271 614L1250 504Q1235 385 1272 316Q1317 231 1432 231T1624 315T1732
559T1719 803T1560 887T1367 802ZM1452 1556H1454L1338 959Q1430 1055 1528 1100Q1627 1147 1744 1147Q1951 1147 2052 982Q2153 818 2102 559Q2052 300 1887 136Q1722 -29 1515 -29Q1398 -29 1317 18Q1237 63 1183 159L1152 0H1150H792L823 162Q730 63 632 17T417
-29Q210 -29 109 136Q8 300 58 559Q109 818 274 982Q439 1147 646 1147Q762 1147 842 1100Q922 1054 977 956L1094 1556H1452Z" />
<glyph unicode="&#x239;" glyph-name="uni0239" horiz-adv-x="2166" d="M733 887Q619 887 543 803Q466 719 435 559Q403 399 448 315Q492 231 606 231Q721 231 798 315Q874 399 906 559Q937 719 893 803Q848 887 733 887ZM1372 802Q1309 733 1276 614L1255 504Q1241
385 1278 316Q1323 231 1438 231T1630 315Q1706 399 1738 559Q1769 719 1725 803Q1680 887 1565 887T1372 802ZM1188 159L1074 -426H1072H714L828 162Q735 63 637 17T422 -29Q215 -29 114 136Q13 300 64 559Q114 818 279 982Q443 1145 650 1145Q767 1145 848 1099Q928
1053 982 954L1015 1120H1373H1375L1343 959Q1435 1055 1533 1100Q1632 1147 1749 1147Q1956 1147 2057 982Q2158 818 2108 559Q2057 300 1892 136Q1727 -29 1520 -29Q1403 -29 1322 18Q1242 63 1188 159Z" />
<glyph unicode="&#x23a;" glyph-name="uni023A" horiz-adv-x="1926" d="M1170 272H568L420 0H182L94 -74L34 0H33V1L2 39L102 122L876 1493H1335L1387 1198L1827 1567L1918 1452L1416 1032L1598 0H1211L1170 272ZM805 711L1069 932L1038 1143L805 711ZM838 549H1127L1095
763L838 549Z" />
<glyph unicode="&#x23b;" glyph-name="uni023B" horiz-adv-x="1925" d="M96 -74L4 39L337 317Q264 495 313 745Q382 1103 641 1312Q899 1520 1272 1520Q1397 1520 1507 1492Q1592 1470 1669 1432L1829 1567L1920 1452L1681 1252L1652 1100Q1610 1133 1568 1157L722
450Q736 413 758 382Q850 250 1056 250Q1171 250 1282 284T1514 391L1454 82Q1337 27 1217 -1Q1096 -29 971 -29Q598 -29 421 180L412 190L96 -74ZM696 618L1416 1221Q1338 1241 1249 1241Q1043 1241 899 1109Q756 977 711 745Q698 677 696 618Z" />
<glyph unicode="&#x23c;" glyph-name="uni023C" horiz-adv-x="1468" d="M98 -94L4 0L244 213Q175 352 216 559Q269 836 471 992Q672 1147 975 1147Q1063 1147 1145 1132Q1198 1122 1249 1105L1375 1217L1464 1116L1281 954L1250 793Q1207 827 1162 849L602 352Q611
332 624 314Q691 227 841 227Q925 227 1005 252Q1086 277 1159 326L1102 33Q1012 2 923 -14Q833 -29 746 -29Q465 -29 323 105L98 -94ZM581 512L1006 890Q988 891 970 891Q820 891 720 804Q619 716 589 559Q584 535 581 512Z" />
<glyph unicode="&#x23d;" glyph-name="uni023D" horiz-adv-x="1201" d="M370 1493H755L636 881H837L787 621H586L521 291H1197L1141 0H80L201 621H10L60 881H251L370 1493Z" />
<glyph unicode="&#x23e;" glyph-name="uni023E" horiz-adv-x="1921" d="M1763 1320L1741 1202H1623L1171 825L1011 0H626L711 440L97 -74L5 39L756 667L860 1202H365L421 1493H1742L1830 1567L1921 1452L1763 1320ZM1215 1052L1395 1202H1245L1215 1052Z" />
<glyph unicode="&#x23f;" glyph-name="uni023F" horiz-adv-x="1154" d="M1132 1085L1079 813Q974 861 871 885Q769 909 674 909Q572 909 518 884Q463 858 453 805Q444 762 477 739Q511 716 605 705L667 696Q935 661 1014 581Q1094 501 1060 330Q1026 151 876 61Q737
-23 501 -29L673 -186Q750 -257 828 -257H1043L998 -492H791Q623 -492 492 -372L297 -192Q72 14 15 38L5 41L58 313Q155 261 263 235Q370 209 486 209Q591 209 650 238Q708 267 719 324Q729 372 697 396Q666 418 558 432L497 440Q263 470 183 551T135 797Q170 975
309 1061Q447 1147 699 1147Q798 1147 904 1132T1132 1085Z" />
<glyph unicode="&#x240;" glyph-name="uni0240" horiz-adv-x="1243" d="M247 1120H1224L1175 870L328 141Q418 83 515 -7L711 -186Q788 -257 866 -257H1081L1035 -492H828Q661 -492 530 -372L335 -192Q144 -17 4 0L53 250L762 864H197L247 1120Z" />
<glyph unicode="&#x241;" glyph-name="uni0241" horiz-adv-x="1488" d="M473 1214Q395 1214 394 1213Q350 1213 330 1193Q292 1156 280 1109Q277 1095 270 1062H15L30 1139Q60 1294 121 1359Q144 1383 182 1412Q269 1475 411 1488Q462 1493 527 1493H945Q1230
1493 1358 1366Q1486 1240 1440 1006Q1395 771 1218 644Q1041 518 756 518H723L622 0H237L392 797H769Q881 797 952 852Q1024 906 1043 1006Q1063 1106 1012 1160Q962 1214 850 1214H473Z" />
<glyph unicode="&#x242;" glyph-name="uni0242" horiz-adv-x="1141" d="M418 451Q529 451 602 506Q673 560 693 660Q712 760 662 814Q611 868 499 868Q367 868 338 716H13Q101 1148 554 1147Q877 1147 1007 1020Q1135 894 1090 660Q1044 425 866 298Q742 210 565
183L530 0H145L232 451H418Z" />
<glyph unicode="&#x243;" glyph-name="uni0243" horiz-adv-x="1565" d="M1248 799Q1365 763 1414 666T1436 428Q1394 212 1227 106Q1061 0 763 0H124L186 321H10L61 581H237L414 1493H992Q1303 1493 1424 1399Q1546 1305 1505 1098Q1484 989 1418 912Q1352 836
1248 799ZM786 262Q902 262 970 311T1057 459Q1076 556 1027 604Q979 653 862 653H636L622 581H855L804 321H571L560 262H786ZM900 915Q991 915 1046 955Q1100 995 1115 1073Q1130 1150 1091 1190Q1052 1231 961 1231H748L687 915H900Z" />
<glyph unicode="&#x244;" glyph-name="uni0244" horiz-adv-x="1637" d="M312 1493H697L580 890H1097L1214 1493H1599L1482 890H1623L1585 696H1444L1425 598Q1363 281 1174 126T659 -29Q334 -29 205 126T138 598L157 696H17L55 890H195L312 1493ZM1059 696H542L523
598Q487 413 532 334Q577 254 714 254Q852 254 928 334Q1004 413 1040 598L1059 696Z" />
<glyph unicode="&#x245;" glyph-name="uni0245" horiz-adv-x="1585" d="M1179 0L1006 1143L388 0H1L844 1493H1303L1566 0H1179Z" />
<glyph unicode="&#x246;" glyph-name="uni0246" horiz-adv-x="1364" d="M1187 1683H1359L1265 1493H1337L1281 1202H1121L983 924H1188L1131 633H839L669 291H1125L1069 0H525L431 -190H260L354 0H8L298 1493H1093L1187 1683ZM498 291L667 633H516L449 291H498ZM811
924L949 1202H627L573 924H811Z" />
<glyph unicode="&#x247;" glyph-name="uni0247" horiz-adv-x="1251" d="M1066 1067Q1242 948 1242 708Q1242 640 1228 563L1208 461H644L486 233Q544 209 644 209Q858 209 1132 344L1078 68Q803 -29 552 -29Q422 -29 323 -1L191 -190H20L191 56Q10 171 10 412Q10
480 25 559Q78 833 274 990T760 1147Q857 1147 935 1126L1063 1310H1235L1066 1067ZM626 682L778 900Q748 909 712 909Q608 909 532 851T418 682H626ZM384 334L473 461H371Q369 442 369 408T384 334ZM798 682H883Q889 712 889 742T880 799L798 682Z" />
<glyph unicode="&#x248;" glyph-name="uni0248" horiz-adv-x="1097" d="M673 1493H1058L929 831H1093L1042 565H878L796 145Q742 -134 564 -272T78 -410H0L57 -119H117Q237 -119 311 -52T411 145L493 565H305L356 831H544L673 1493Z" />
<glyph unicode="&#x249;" glyph-name="uni0249" horiz-adv-x="1018" d="M628 1556H986L929 1264H571L628 1556ZM203 438L241 632H449L543 1120H901L807 632H1015L977 438H769L688 20Q644 -205 513 -324Q382 -442 177 -442H0L45 -207H107Q209 -207 256 -161T330
20L411 438H203Z" />
<glyph unicode="&#x24a;" glyph-name="uni024A" horiz-adv-x="1731" d="M728 250Q901 250 1017 377T1180 745Q1227 987 1161 1114T921 1241Q749 1241 633 1114T469 745Q422 504 489 377T728 250ZM1079 222Q955 92 826 32T543 -29Q270 -29 137 187T69 744Q135 1085
352 1301T843 1517Q996 1517 1102 1456T1281 1266L1326 1493H1691L1429 145Q1403 15 1451 -52T1620 -119H1700L1644 -410H1566Q1259 -410 1134 -272T1064 145L1079 222Z" />
<glyph unicode="&#x24b;" glyph-name="uni024B" horiz-adv-x="1475" d="M596 231Q711 231 789 315Q865 399 896 559T884 803Q839 887 724 887Q610 887 534 803Q456 719 425 559T439 315Q482 231 596 231ZM1125 -442Q819 -442 782 -187Q770 -104 787 0L819 162Q726
63 628 17T413 -29Q206 -29 105 136Q4 300 54 559T269 982Q434 1147 641 1147Q757 1147 837 1100Q918 1054 973 956L1005 1120H1365L1151 20Q1125 -115 1154 -161T1285 -207H1451L1406 -442H1125Z" />
<glyph unicode="&#x24c;" glyph-name="uni024C" horiz-adv-x="1468" d="M576 565L465 0H80L190 565H14L64 825H241L371 1493H940Q1186 1493 1313 1401T1440 1130Q1440 949 1340 832T1069 698Q1147 682 1199 618Q1251 555 1290 424L1417 0H1034L922 371Q888 482
840 523T699 565H576ZM789 831Q920 831 987 892T1055 1071Q1055 1145 1009 1179T862 1214H703L627 831H789Z" />
<glyph unicode="&#x24d;" glyph-name="uni024D" horiz-adv-x="1188" d="M1126 815Q1083 837 1039 848Q994 858 947 858Q815 858 734 784Q654 710 628 632H817L780 438H579L494 0H136L221 438H7L44 632H258L353 1120H711L675 936Q766 1046 865 1096Q964 1147 1089
1147Q1107 1147 1128 1146Q1149 1144 1188 1139L1126 815Z" />
<glyph unicode="&#x24e;" glyph-name="uni024E" horiz-adv-x="1599" d="M76 1493H497L581 1306H1021L1177 1493H1599L1440 1306H1552L1514 1112H1274L862 629L740 0H355L477 629L253 1112H12L50 1306H163L76 1493ZM860 1112H666L734 961L860 1112Z" />
<glyph unicode="&#x24f;" glyph-name="uni024F" horiz-adv-x="1451" d="M178 1120H536L624 682H860L1093 1120H1451L1198 682H1411L1373 488H1085L742 -106Q633 -294 526 -368Q416 -442 261 -442H54L100 -207H212Q303 -207 351 -178Q397 -149 435 -74L451 -43L326
488H21L59 682H281L178 1120ZM757 488H663L689 360L757 488Z" />
<glyph unicode="&#x250;" glyph-name="uni0250" horiz-adv-x="1311" d="M647 614Q759 614 823 652Q886 690 901 764Q914 832 876 870Q838 909 757 909Q656 909 573 836Q490 764 469 655L461 614H647ZM73 479L198 1118H559L526 952Q618 1054 717 1100Q816 1147
945 1147Q1119 1147 1208 1046Q1297 944 1265 782Q1227 585 1074 493Q920 401 630 401H419L414 373Q397 288 457 248Q516 209 658 209Q773 209 876 232Q980 255 1074 301L1021 28Q900 0 782 -14Q663 -29 547 -29Q244 -29 132 90Q21 210 73 479Z" />
<glyph unicode="&#x251;" glyph-name="uni0251" horiz-adv-x="1399" d="M987 956L1019 1120H1379L1161 0H801L833 162Q740 63 642 17T427 -29Q220 -29 119 136Q18 300 68 559T283 982Q448 1147 655 1147Q771 1147 852 1100Q932 1054 987 956ZM610 231Q725 231
802 315T910 559T897 803T738 887Q624 887 547 803T439 559T452 315T610 231Z" />
<glyph unicode="&#x252;" glyph-name="uni0252" horiz-adv-x="1398" d="M412 162L380 -2H20L238 1118H598L566 956Q659 1055 757 1101T972 1147Q1179 1147 1280 982Q1381 818 1331 559T1116 136Q951 -29 744 -29Q628 -29 547 18Q467 64 412 162ZM789 887Q674 887
597 803T489 559T502 315T661 231Q775 231 852 315T960 559T947 803T789 887Z" />
<glyph unicode="&#x253;" glyph-name="uni0253" horiz-adv-x="1385" d="M589 802Q511 718 480 559T494 316Q539 231 654 231T846 315T954 559T941 803T782 887T589 802ZM560 959Q652 1055 750 1100Q849 1147 966 1147Q1173 1147 1274 982Q1375 818 1324 559Q1274
300 1109 136Q944 -29 737 -29Q620 -29 539 18Q458 64 403 162L372 0H14L226 1094Q270 1317 403 1438Q534 1556 739 1556H1020L974 1321H808Q706 1321 659 1275T586 1094L560 959Z" />
<glyph unicode="&#x254;" glyph-name="uni0254" horiz-adv-x="1138" d="M220 1085Q311 1116 399 1131T576 1147Q879 1147 1020 992Q1122 879 1122 703Q1122 636 1107 559Q1053 282 852 127T348 -29Q261 -29 178 -14T16 33L73 326Q127 277 197 252T352 227Q502
227 602 314T734 559Q744 608 744 651Q744 744 698 804Q632 891 482 891Q403 891 325 867T163 793L220 1085Z" />
<glyph unicode="&#x255;" glyph-name="uni0255" horiz-adv-x="1163" d="M573 232Q626 208 679 207H684Q831 207 842 264Q855 339 724 339Q641 339 573 232ZM1155 1085L1098 793Q1035 843 966 867T818 891Q668 891 568 804Q467 716 437 559Q413 436 448 356Q585
532 752 532Q1037 527 994 294Q937 -29 622 -29H599H595Q591 -29 588 -29Q519 -29 516 -28Q513 -28 510 -27L488 -141L288 -140Q305 -53 319 15Q217 53 151 126Q10 282 64 559T319 992Q520 1147 823 1147Q911 1147 993 1132Q1076 1116 1155 1085Z" />
<glyph unicode="&#x256;" glyph-name="uni0256" horiz-adv-x="1476" d="M593 231Q708 231 784 315Q861 399 892 559T879 803T720 887Q606 887 529 803T421 559T434 315Q479 231 593 231ZM1121 -442Q815 -442 778 -187Q766 -104 784 0L815 162Q722 63 624 17T409
-29Q202 -29 101 136Q0 300 50 559Q101 818 266 982Q431 1147 638 1147Q754 1147 834 1100Q915 1054 970 956L1086 1556H1446L1148 20Q1121 -115 1150 -161T1281 -207H1447L1402 -442H1121Z" />
<glyph unicode="&#x257;" glyph-name="uni0257" horiz-adv-x="1800" d="M596 231Q711 231 788 315T896 559T883 803T724 887Q610 887 533 803T425 559T438 315T596 231ZM973 956L1002 1094Q1050 1321 1179 1438Q1310 1556 1515 1556H1796L1750 1321H1584Q1482
1321 1435 1275T1362 1094L1148 0H788L819 162Q726 63 628 17T413 -29Q206 -29 105 136Q4 300 54 559Q105 818 270 982Q435 1147 642 1147Q758 1147 838 1100Q879 1077 929 1012Q968 963 973 956Z" />
<glyph unicode="&#x258;" glyph-name="uni0258" horiz-adv-x="1328" d="M60 563Q111 829 301 988Q490 1147 754 1147Q1044 1147 1179 990T1261 559Q1207 280 1008 126Q810 -29 506 -29Q379 -29 256 -4Q134 20 17 68L70 344Q182 276 294 242Q406 209 519 209Q659
209 749 272T877 461H40L60 563ZM451 682H916Q921 792 868 850Q814 909 710 909Q614 909 542 846Q471 784 451 682Z" />
<glyph unicode="&#x259;" glyph-name="uni0259" horiz-adv-x="1338" d="M67 555L87 657H924Q936 783 870 846T664 909Q551 909 426 876Q301 842 163 774L216 1050Q353 1098 485 1122Q616 1147 743 1147Q1047 1147 1186 992Q1324 838 1270 559Q1217 285 1021 128T535
-29Q271 -29 143 130Q16 289 67 555ZM412 436Q392 334 440 272Q487 209 583 209Q687 209 763 268Q840 326 877 436H412Z" />
<glyph unicode="&#x25a;" glyph-name="uni025A" horiz-adv-x="1769" d="M860 540L388 295Q394 283 403 272Q450 209 546 209Q650 209 726 268Q803 326 840 436L860 540ZM1248 736Q1252 655 1233 559Q1180 285 984 128T498 -29Q234 -29 106 130Q37 216 20 334L875
777Q862 818 833 846Q767 909 627 909Q514 909 389 876Q264 842 126 774L179 1050Q316 1098 448 1122Q579 1147 706 1147Q1010 1147 1149 992Q1170 969 1187 942L1432 1072L1631 1074L1598 903Q1564 727 1591 671Q1618 616 1723 616H1766L1731 436H1635Q1452 436
1395 547Q1347 638 1380 804L1248 736Z" />
<glyph unicode="&#x25b;" glyph-name="uni025B" horiz-adv-x="1140" d="M487 -29Q14 -29 14 246Q14 403 120 502Q197 574 324 604Q147 647 147 797Q147 824 153 853Q182 1004 312 1075T674 1147Q849 1147 1022 1099L976 860Q921 887 839 903T680 919Q603 919 541
884Q469 843 469 800Q469 757 512 728T673 698H797L753 474H635Q506 474 435 436Q349 391 349 320Q349 274 402 238T552 201Q745 201 914 279L865 27Q674 -29 487 -29Z" />
<glyph unicode="&#x25c;" glyph-name="uni025C" horiz-adv-x="1206" d="M825 573Q973 550 1043 476Q1114 402 1089 273Q1067 161 891 69Q716 -22 421 -22Q322 -22 220 -8Q119 6 13 34L59 270Q141 236 242 219Q344 201 457 201Q571 201 608 216Q717 241 734 330Q749
409 659 441Q600 462 550 462H367L409 681H526Q630 681 697 705Q786 735 799 804Q809 853 731 891Q686 915 563 915Q560 915 449 903Q364 894 222 863L267 1099Q393 1123 501 1135Q608 1147 701 1147Q941 1147 1066 1068T1158 816Q1141 729 1054 663Q970 599 825
573Z" />
<glyph unicode="&#x25d;" glyph-name="uni025D" horiz-adv-x="1738" d="M831 573Q979 550 1049 476Q1120 402 1095 273Q1073 161 897 69Q722 -22 427 -22Q328 -22 226 -8Q125 6 19 34L65 270Q147 236 248 219Q350 201 463 201Q577 201 614 216Q723 241 740 330Q755
409 665 441Q606 462 556 462H373L415 681H532Q636 681 703 705Q792 735 805 804Q815 853 737 891Q692 915 569 915Q566 915 455 903Q370 894 228 863L273 1099Q398 1123 507 1135Q615 1147 707 1147Q947 1147 1072 1068Q1145 1022 1164 944L1401 1072L1600 1074L1567
903Q1533 727 1560 671Q1587 616 1692 616H1735L1700 436H1604Q1421 436 1364 547Q1317 638 1349 804L1001 623V626Q930 590 831 573Z" />
<glyph unicode="&#x25e;" glyph-name="uni025E" horiz-adv-x="1397" d="M677 201Q793 201 866 240Q940 280 951 338Q963 398 903 437Q848 474 719 474H601L645 698H769Q886 698 942 728Q1005 762 1014 806Q1022 848 973 884Q925 919 830 919Q694 920 576 820Q477
738 442 559Q409 389 474 296Q542 200 677 201ZM673 -29Q297 -29 156 126Q15 282 69 559T324 992Q525 1147 942 1147Q1174 1147 1276 1075Q1379 1004 1349 853Q1330 756 1262 692Q1195 629 1082 604Q1197 574 1246 502T1273 318Q1240 145 1087 58T673 -29Z" />
<glyph unicode="&#x25f;" glyph-name="uni025F" horiz-adv-x="1016" d="M205 438L242 632H450L545 1120H903L808 632H1015L978 438H770L689 20Q645 -205 514 -324Q383 -442 178 -442H1L47 -207H109Q211 -207 258 -161T331 20L412 438H205Z" />
<glyph unicode="&#x260;" glyph-name="uni0260" horiz-adv-x="1794" d="M721 887Q610 887 532 805T425 573Q395 419 440 340Q484 260 599 260Q711 260 789 342T896 573L957 887H721ZM822 190Q729 92 631 46T416 0Q211 0 108 162Q6 323 54 573Q98 799 263 960Q428
1120 633 1120H1002H1005Q1051 1324 1176 1438Q1307 1556 1512 1556H1793L1748 1321H1582Q1480 1321 1433 1275T1359 1094L1317 874H1315L1167 113Q1114 -157 916 -300Q718 -442 394 -442Q289 -442 194 -426T6 -377L61 -98Q144 -152 229 -178Q314 -205 405 -205Q581
-205 678 -128T807 113L822 190Z" />
<glyph unicode="&#x261;" glyph-name="uni0261" horiz-adv-x="1391" d="M838 190Q745 92 647 46T432 0Q227 0 124 162Q22 323 70 573Q114 799 280 960Q445 1120 650 1120H1019H1379L1183 113Q1131 -157 932 -300Q734 -442 410 -442Q305 -442 210 -426T23 -377L77
-98Q161 -152 245 -178Q330 -205 421 -205Q597 -205 694 -128T823 113L838 190ZM738 887Q627 887 549 805T441 573Q412 419 456 340Q501 260 616 260Q728 260 806 342T912 573L974 887H738Z" />
<glyph unicode="&#x262;" glyph-name="uni0262" horiz-adv-x="1172" d="M1002 72Q889 22 772 -4Q656 -29 537 -29Q268 -29 141 122Q13 272 66 545Q119 820 308 970Q497 1119 775 1119Q882 1119 977 1099Q1071 1079 1151 1039L1105 803Q1024 852 940 876T766 900Q601
900 494 811Q387 723 353 545Q318 368 387 279T616 190Q659 190 697 196Q735 201 767 212L798 380H522L571 630H1111L1002 72Z" />
<glyph unicode="&#x263;" glyph-name="uni0263" horiz-adv-x="1325" d="M624 648L945 1120H1324L770 356Q902 52 872 -104Q808 -432 414 -432T84 -104Q114 52 364 356L108 1120H487L624 648ZM463 -176Q515 -176 532 -89Q545 -19 508 53Q442 -21 429 -89Q412 -176
463 -176Z" />
<glyph unicode="&#x264;" glyph-name="uni0264" horiz-adv-x="1252" d="M87 284Q111 408 340 604L35 1120H414L586 824L872 1120H1251L746 604Q899 408 875 284Q811 -44 417 -44T87 284ZM466 212Q518 212 534 299Q546 358 509 430Q443 356 432 299Q416 216 466 212Z" />
<glyph unicode="&#x265;" glyph-name="uni0265" horiz-adv-x="1324" d="M51 436L183 1118H543L522 1007L442 598Q414 451 409 396Q405 341 416 315Q430 280 463 260Q495 241 541 241Q653 241 734 328Q814 414 844 567L951 1118H1309L1007 -438H649L765 162Q665
64 565 18Q465 -29 355 -29Q161 -29 84 90T51 436Z" />
<glyph unicode="&#x266;" glyph-name="uni0266" horiz-adv-x="1330" d="M1271 682L1139 0H779L800 111L880 520Q908 667 913 722Q917 777 906 803Q892 838 859 858Q827 877 781 877Q669 877 588 790Q508 704 478 551L371 0H13L225 1094Q269 1317 402 1438Q533
1556 738 1556H1019L974 1321H808Q706 1321 659 1275T585 1094L559 958Q658 1055 757 1100Q857 1147 967 1147Q1161 1147 1238 1028T1271 682Z" />
<glyph unicode="&#x267;" glyph-name="uni0267" horiz-adv-x="1321" d="M554 958Q653 1055 752 1100Q852 1147 962 1147Q1156 1147 1233 1028T1266 682L1180 240L1138 20L1134 0Q1088 -208 961 -324Q830 -442 625 -442H344L389 -207H555Q657 -207 704 -161T778
20L795 111L820 240L875 520Q903 667 908 722Q912 777 901 803Q887 838 854 858Q822 877 776 877Q664 877 583 790Q503 704 473 551L366 0H8L220 1094Q264 1317 397 1438Q528 1556 733 1556H1014L969 1321H803Q701 1321 654 1275T580 1094L554 958Z" />
<glyph unicode="&#x268;" glyph-name="uni0268" horiz-adv-x="817" d="M431 1556H789L732 1264H374L431 1556ZM346 1120H704L610 632H811L773 438H572L487 0H129L214 438H0L38 632H252L346 1120Z" />
<glyph unicode="&#x269;" glyph-name="uni0269" horiz-adv-x="592" d="M181 1120H541L413 460Q387 325 416 279Q450 224 547 233L569 235L523 0L386 -2Q184 -5 96 116Q9 236 53 460L181 1120Z" />
<glyph unicode="&#x26a;" glyph-name="uni026A" horiz-adv-x="1023" d="M835 235L789 0H589H231H16L62 235H277L403 885H188L234 1120H449H807H1007L961 885H761L635 235H835Z" />
<glyph unicode="&#x26b;" glyph-name="uni026B" horiz-adv-x="857" d="M403 1556H761L613 792Q636 800 655 820Q684 852 695 909L697 917H856Q830 781 756 707Q685 635 582 633L459 0H101L249 762Q222 755 202 733Q174 702 163 643L161 635H1Q28 771 101 845Q174
918 280 919L403 1556Z" />
<glyph unicode="&#x26c;" glyph-name="uni026C" horiz-adv-x="1122" d="M697 1556H1055L911 813H1113L1071 600H869L753 0H395L512 600L307 601Q0 602 49 877Q106 1190 454 1188Q560 1187 615 1133L697 1556ZM519 918Q480 952 391 952Q268 952 257 886Q244 811
348 811H548Q545 895 519 918Z" />
<glyph unicode="&#x26d;" glyph-name="uni026D" horiz-adv-x="727" d="M345 1556H705L407 20Q381 -114 409 -161Q438 -207 540 -207H706L661 -442H380Q174 -442 90 -324Q3 -203 43 0L345 1556Z" />
<glyph unicode="&#x26e;" glyph-name="uni026E" horiz-adv-x="1567" d="M316 1556H674L589 1120H1564L1516 870L1013 436Q1173 427 1255 404Q1374 371 1438 258Q1497 156 1469 13Q1426 -209 1233 -324Q1041 -440 715 -440Q600 -440 488 -422Q376 -403 270 -366L328
-69Q426 -123 527 -150Q628 -178 731 -178Q884 -178 976 -125T1087 27Q1107 129 1033 182Q960 234 797 234H610L658 479L1102 864H539L372 0H14L316 1556Z" />
<glyph unicode="&#x26f;" glyph-name="uni026F" horiz-adv-x="2031" d="M785 184Q697 80 593 26Q489 -29 377 -29Q184 -29 106 90T72 436L204 1118H564L451 534Q447 521 444 507T436 467Q413 348 437 294Q462 241 540 241Q642 241 714 325T819 568L925 1118H1285L1172
534Q1136 348 1157 294Q1179 241 1261 241Q1364 241 1436 326Q1509 410 1539 567L1646 1118H2006L1789 -2H1429L1461 162Q1376 67 1281 19Q1187 -29 1084 -29Q968 -29 889 27Q811 83 785 184Z" />
<glyph unicode="&#x270;" glyph-name="uni0270" horiz-adv-x="2005" d="M762 184Q673 80 569 26Q465 -29 353 -29Q160 -29 82 90Q5 209 49 436L181 1118H541L428 534Q424 521 421 507T413 467Q390 348 414 294Q439 241 517 241Q619 241 691 325Q762 409 795 568L902
1118H1262L1149 534Q1113 348 1134 294Q1156 241 1238 241Q1341 241 1413 326Q1486 410 1516 567L1623 1118H1983L1683 -428H1323L1437 162Q1353 67 1258 19T1060 -29Q944 -29 866 27T762 184Z" />
<glyph unicode="&#x271;" glyph-name="uni0271" horiz-adv-x="2008" d="M1229 934Q1317 1038 1421 1092Q1525 1147 1637 1147Q1830 1147 1908 1028T1942 682L1815 20Q1772 -203 1638 -324Q1508 -442 1303 -442H1022L1067 -207H1233Q1335 -207 1382 -161T1451 0L1578
651Q1601 770 1577 824Q1552 877 1474 877Q1372 877 1300 793T1195 550L1088 0H728L842 584Q878 770 857 824Q835 877 753 877Q650 877 578 792Q505 708 475 551L367 0H7L225 1120H585L553 956Q638 1051 733 1099Q827 1147 930 1147Q1046 1147 1125 1091Q1203 1035
1229 934Z" />
<glyph unicode="&#x272;" glyph-name="uni0272" horiz-adv-x="1743" d="M1694 682L1561 0H1201L1223 111L1303 522Q1331 667 1335 722Q1340 777 1329 803Q1314 838 1282 858Q1250 877 1204 877Q1092 877 1011 790Q930 704 901 551L840 240L797 20L793 0Q748 -208
621 -324Q490 -442 285 -442H4L49 -207H215Q315 -207 364 -161T439 20L482 240L653 1120H1011L979 956Q1079 1054 1179 1100Q1279 1147 1389 1147Q1583 1147 1661 1028Q1738 909 1694 682Z" />
<glyph unicode="&#x273;" glyph-name="uni0273" horiz-adv-x="1454" d="M905 722Q912 772 898 803Q884 837 851 858Q817 877 773 877Q670 877 580 790Q501 715 470 551L362 0H4L222 1120H580L548 956Q651 1056 748 1100Q847 1147 958 1147Q1151 1147 1230 1028Q1307
908 1263 682L1134 20Q1108 -114 1137 -161Q1165 -207 1268 -207H1434L1389 -442H1108Q902 -442 818 -324Q726 -196 764 0L905 722Z" />
<glyph unicode="&#x274;" glyph-name="uni0274" horiz-adv-x="1363" d="M239 1120H669L850 469L977 1120H1342L1124 0H694L513 651L386 0H21L239 1120Z" />
<glyph unicode="&#x275;" glyph-name="uni0275" horiz-adv-x="1296" d="M742 1147Q992 1147 1135 1020T1278 674Q1278 547 1233 428T1102 209Q1000 91 861 31T551 -29Q304 -29 162 98T19 444Q19 570 65 690T197 911Q297 1027 435 1087T742 1147ZM585 227Q704 227
784 312Q844 377 876 486H398Q396 463 396 442Q396 363 423 312Q468 227 585 227ZM443 680H907Q906 756 879 806Q834 891 715 891Q598 891 519 806Q473 756 443 680Z" />
<glyph unicode="&#x276;" glyph-name="uni0276" horiz-adv-x="1792" d="M947 902H836Q663 902 561 817Q458 732 425 561Q392 389 461 304Q531 218 704 218H815L947 902ZM921 1120H1767L1724 902H1307L1267 693H1655L1612 475H1224L1175 218H1609L1566 0H703Q693
0 676 -1Q658 -2 649 -2Q317 -2 168 144T71 561Q124 831 330 976T867 1121Q875 1121 893 1120Q911 1120 921 1120Z" />
<glyph unicode="&#x277;" glyph-name="uni0277" horiz-adv-x="1314" d="M887 566Q956 919 739 920Q520 920 451 564Q420 404 423 334Q425 264 448 264Q482 264 508 342Q528 399 545 490L565 596H785L764 488Q745 392 744 347Q742 264 769 264Q795 263 824 343Q867
461 887 566ZM1268 828Q1293 725 1249 496Q1202 255 1091 128Q980 0 832 0Q733 0 671 68Q611 132 616 288Q560 137 474 68Q390 0 287 0Q139 0 77 128Q16 254 62 496Q103 709 174 828Q381 1176 788 1176Q1184 1176 1268 828Z" />
<glyph unicode="&#x278;" glyph-name="uni0278" horiz-adv-x="1631" d="M978 867L861 266L932 312Q1031 377 1066 559Q1095 708 1031 824Q1006 868 978 867ZM805 -24L726 -426H370L449 -24Q242 7 139 128Q3 290 55 559Q105 816 276 991Q400 1116 675 1141L756
1556H1112L1031 1141Q1297 1116 1371 991Q1475 816 1425 559Q1373 290 1172 128Q1023 7 805 -24ZM505 266L622 867Q594 868 551 824Q443 708 414 559Q379 377 451 312L505 266Z" />
<glyph unicode="&#x279;" glyph-name="uni0279" horiz-adv-x="1068" d="M62 305Q105 283 149 272Q194 262 241 262Q379 262 470 350Q562 439 594 604L694 1120H1052L835 0H477L513 184Q422 74 323 24Q224 -27 99 -27Q81 -27 60 -26Q39 -24 0 -19L62 305Z" />
<glyph unicode="&#x27a;" glyph-name="uni027A" horiz-adv-x="1148" d="M62 305Q104 283 149 272Q193 262 240 262Q378 262 470 350Q561 438 594 604L779 1557H1137L834 0H476L512 184Q422 74 322 24Q223 -27 98 -27Q80 -27 59 -26Q39 -24 0 -19L62 305Z" />
<glyph unicode="&#x27b;" glyph-name="uni027B" horiz-adv-x="1164" d="M62 305Q105 283 150 272Q194 262 241 262Q379 262 471 350Q562 439 595 604L695 1120H1053L840 20Q814 -115 843 -161T974 -207H1140L1094 -442H813Q608 -442 523 -324Q437 -203 480 20L512
182Q422 74 323 24Q224 -27 99 -27Q81 -27 60 -26Q39 -24 0 -19L62 305Z" />
<glyph unicode="&#x27c;" glyph-name="uni027C" horiz-adv-x="1146" d="M1084 815Q1042 837 997 848Q953 858 906 858Q770 858 676 770Q585 684 552 516L369 -426H11L312 1120H670L634 936Q724 1046 824 1096Q923 1147 1048 1147Q1066 1147 1087 1146Q1107 1144
1146 1139L1084 815Z" />
<glyph unicode="&#x27d;" glyph-name="uni027D" horiz-adv-x="1113" d="M1047 815Q1004 837 960 848Q915 858 868 858Q730 858 639 770Q547 681 515 516L418 20Q392 -115 421 -161T552 -207H718L673 -442H392Q187 -442 102 -324Q15 -203 58 20L272 1120H632L596
936Q687 1046 786 1096Q885 1147 1010 1147Q1028 1147 1049 1146Q1070 1144 1109 1139L1047 815Z" />
<glyph unicode="&#x27e;" glyph-name="uni027E" horiz-adv-x="1142" d="M821 235L775 0H2L48 235H258L339 658Q382 881 516 1002Q647 1120 852 1120H1133L1087 885H921Q817 885 772 839Q724 790 699 658L618 235H821Z" />
<glyph unicode="&#x27f;" glyph-name="uni027F" horiz-adv-x="860" d="M74 235H277L360 658Q386 790 357 839Q331 885 226 885H60L106 1120H387Q592 1120 677 1002Q764 881 720 658L637 235H847L801 0H28L74 235Z" />
<glyph unicode="&#x280;" glyph-name="uni0280" horiz-adv-x="1184" d="M579 630Q670 630 715 662Q761 694 775 767Q789 839 755 871Q722 901 631 901H552L500 630H579ZM457 409L377 0H19L237 1120H732Q968 1120 1063 1046Q1159 971 1128 811Q1106 700 1035 628Q964
557 843 524Q903 510 944 462Q985 415 1017 318L1122 0H759L668 278Q645 349 608 378Q569 409 494 409H457Z" />
<glyph unicode="&#x281;" glyph-name="uni0281" horiz-adv-x="1347" d="M553 490H474L422 219H501Q592 219 637 249Q683 281 697 353Q711 426 677 458Q644 490 553 490ZM517 711H554Q629 711 680 742Q729 771 780 842L979 1120H1342L1113 802Q1043 705 984 658Q925
610 859 596Q968 563 1011 492Q1054 420 1032 309Q1001 149 877 74Q752 0 516 0H21L239 1120H597L517 711Z" />
<glyph unicode="&#x282;" glyph-name="uni0282" horiz-adv-x="1194" d="M1187 1085L1135 813Q1029 861 927 885Q824 909 729 909Q627 909 573 884Q518 858 508 805Q500 762 533 739T661 705L722 696Q990 661 1069 581Q1149 501 1116 330Q1081 151 931 61Q782 -29
520 -29Q465 -29 409 -25Q395 -123 419 -161Q448 -207 550 -207H716L671 -442H390Q185 -442 100 -324Q13 -203 56 20L60 41L99 240L113 313Q210 261 318 235Q425 209 541 209Q646 209 705 238Q763 267 774 324Q784 372 752 396Q720 419 613 432L552 440Q318 470
239 551Q158 632 190 797Q225 975 364 1061Q502 1147 754 1147Q853 1147 960 1132Q1066 1117 1187 1085Z" />
<glyph unicode="&#x283;" glyph-name="uni0283" horiz-adv-x="1320" d="M1320 1556L1275 1321H1077Q1001 1321 965 1294Q930 1266 917 1198L684 0Q644 -205 513 -324Q382 -442 177 -442H0L45 -207H107Q209 -207 256 -161T330 20L559 1198Q594 1381 713 1468Q832
1556 1046 1556H1320Z" />
<glyph unicode="&#x284;" glyph-name="uni0284" horiz-adv-x="1321" d="M204 438L242 632H450L495 864H317L366 1120H544L560 1198Q595 1381 714 1468Q833 1556 1047 1556H1321L1276 1321H1078Q1002 1321 966 1294Q931 1265 918 1198L808 632H1015L977 438H770L685
0Q639 -210 514 -324Q383 -442 178 -442H1L46 -207H108Q210 -207 257 -161T331 20L412 438H204Z" />
<glyph unicode="&#x285;" glyph-name="uni0285" horiz-adv-x="743" d="M52 1147H326Q540 1147 625 1059Q710 972 675 789L525 20Q499 -115 528 -161T659 -207H721L676 -442H499Q294 -442 209 -324Q124 -205 163 0L317 789Q330 857 306 885Q281 912 205 912H7L52 1147Z" />
<glyph unicode="&#x286;" glyph-name="uni0286" horiz-adv-x="1600" d="M343 -444Q312 -444 285 -442H279V-441Q0 -416 59 -133Q116 142 424 143L633 144L838 1198Q873 1381 992 1468Q1111 1556 1325 1556H1599L1554 1321H1356Q1280 1321 1245 1294Q1209 1266
1196 1198L991 144H1159L1118 -67Q1062 -67 947 -68Q901 -225 792 -324Q661 -442 456 -442H343Q343 -442 343 -444ZM587 -68Q447 -67 384 -67Q280 -67 263 -142Q251 -200 343 -207H387Q489 -207 536 -161Q565 -132 587 -68Z" />
<glyph unicode="&#x287;" glyph-name="uni0287" horiz-adv-x="969" d="M309 -318L371 0H2L52 256H421L513 731Q528 809 503 836Q477 864 385 864H201L251 1120H558Q770 1120 841 1032Q912 943 871 731L779 256H957L907 0H729L667 -318H309Z" />
<glyph unicode="&#x288;" glyph-name="uni0288" horiz-adv-x="998" d="M271 1120L333 1438H691L629 1120H998L948 864H579L415 20Q389 -115 418 -161T549 -207H714L668 -442H388Q183 -442 98 -324Q13 -205 57 20L221 864H43L93 1120H271Z" />
<glyph unicode="&#x289;" glyph-name="uni0289" horiz-adv-x="1604" d="M1590 632L1552 438H1351L1266 0H908L939 162Q839 64 740 18Q640 -29 531 -29Q390 4 347 23Q290 48 259 90Q181 209 225 436V438H11L49 632H263L358 1120H718L696 1008Q678 917 650 780Q631
683 621 632H1031L1126 1120H1484L1389 632H1590ZM979 438H587Q584 417 583 402Q578 342 590 315Q605 280 637 261T715 242Q827 242 908 328Q950 374 979 438Z" />
<glyph unicode="&#x28a;" glyph-name="uni028A" horiz-adv-x="1447" d="M677 837Q586 761 535 680Q462 565 441 458Q414 316 464 228Q514 141 625 141T819 228Q903 316 931 458Q952 565 923 680Q903 764 842 836L897 1120H1435L1397 923H1154Q1232 864 1287 731Q1332
623 1302 465Q1252 211 1050 54Q847 -104 575 -104T162 53Q20 210 68 457Q100 619 185 731Q283 858 388 923H146L184 1120H732L677 837Z" />
<glyph unicode="&#x28b;" glyph-name="uni028B" horiz-adv-x="1244" d="M1075 1027Q1143 968 1190 835Q1228 727 1197 569Q1148 315 964 158Q779 0 536 0L399 -2Q197 -5 109 116Q22 236 66 460L194 1120H554L426 460Q393 291 400 279Q431 227 478 231L500 233Q617
233 719 330Q811 418 839 560Q859 667 825 782Q800 866 731 938L764 1120Q974 1115 1075 1027Z" />
<glyph unicode="&#x28c;" glyph-name="uni028C" horiz-adv-x="1295" d="M1275 0H917L789 774L360 0H1L660 1120H1053L1275 0Z" />
<glyph unicode="&#x28d;" glyph-name="uni028D" horiz-adv-x="1793" d="M1760 0H1412L1374 772L1035 0H736L697 764L359 0H11L524 1120H915L954 350L1292 1120H1683L1760 0Z" />
<glyph unicode="&#x28e;" glyph-name="uni028E" horiz-adv-x="1420" d="M1273 0H915L762 760L358 0H0L709 1226Q817 1413 926 1488Q1035 1562 1190 1562H1397L1351 1327H1239Q1148 1327 1101 1298T1016 1194L1000 1163L1273 0Z" />
<glyph unicode="&#x28f;" glyph-name="uni028F" horiz-adv-x="1232" d="M14 1120H386L556 775L858 1120H1232L651 472L559 0H251L343 472L14 1120Z" />
<glyph unicode="&#x290;" glyph-name="uni0290" horiz-adv-x="1333" d="M244 1120H1221L1172 870L463 256H1054L1008 20Q984 -106 992 -138Q997 -156 1011 -161Q1012 -207 1142 -207H1308L1262 -442H981Q776 -442 691 -324Q609 -208 644 0H1L50 250L759 864H194L244
1120Z" />
</font>
</defs>
</svg>
